<?xml version="1.0" standalone="no"?>
<!DOCTYPE svg PUBLIC "-//W3C//DTD SVG 1.1//EN" "http://www.w3.org/Graphics/SVG/1.1/DTD/svg11.dtd" >
<svg>
<metadata>
Created by FontForge 20090914 at Wed Apr 11 11:59:44 2018
 By www-data
Copyright (c) Dutch Design: Albert-Jan Pool, . Published by FontShop International FontFont Library, 1970. All rights reserved.
</metadata>
<defs>
<font id="DIN-Light" horiz-adv-x="514" >
  <font-face 
    font-family="DIN-Light"
    font-weight="400"
    font-stretch="normal"
    units-per-em="1000"
    panose-1="2 11 5 0 0 0 0 0 0 0"
    ascent="800"
    descent="-200"
    x-height="482"
    cap-height="712"
    bbox="-100 -236.001 1099 974.999"
    underline-thickness="38"
    underline-position="-103"
    unicode-range="U+0020-U+F002"
  />
<missing-glyph horiz-adv-x="502" 
d="M-1 0h500v500h-500v-500zM9 10v480h480v-480h-480z" />
    <glyph glyph-name=".notdef" horiz-adv-x="502" 
d="M-1 0h500v500h-500v-500zM9 10v480h480v-480h-480z" />
    <glyph glyph-name="space" unicode=" " horiz-adv-x="255" 
 />
    <glyph glyph-name="exclam" unicode="!" horiz-adv-x="304" 
d="M194 712h-55l3 -520h49zM200 0v67h-67v-67h67z" />
    <glyph glyph-name="quotedbl" unicode="&#x22;" horiz-adv-x="408" 
d="M313 556v156h-63v-156h63zM158 556v156h-63v-156h63z" />
    <glyph glyph-name="numbersign" unicode="#" horiz-adv-x="639" 
d="M588 437v45h-94l36 230h-50l-36 -230h-175l37 230h-52l-36 -230h-105v-45h99l-25 -153h-103v-44h96l-38 -240h51l37 240h176l-39 -240h51l38 240h103v44h-96l25 153h100zM437 437l-25 -153h-175l25 153h175z" />
    <glyph glyph-name="dollar" unicode="$" horiz-adv-x="587" 
d="M528 191c0 28 -5.33105 54.001 -15.998 78.001s-26 44 -46 60c-14.667 12.667 -30.834 22.167 -48.501 28.5s-43.834 12.5 -78.501 18.5l-29 5v290c31.333 -2 58.166 -8.33301 80.499 -19s44.5 -26 66.5 -46l35 35c-28 24.667 -56.167 43 -84.5 55s-60.833 19 -97.5 21
v89h-45v-89c-61.333 -4 -109.833 -23.333 -145.5 -58s-53.5 -80 -53.5 -136c0 -55.333 18.667 -99 56 -131c14.667 -12 33.334 -22.833 56.001 -32.5s46.334 -16.167 71.001 -19.5l16 -2v-295c-35.333 2 -66.333 9.16699 -93 21.5s-54.334 32.833 -83.001 61.5l-38 -38
c31.333 -31.333 63.333 -54.333 96 -69s72 -23 118 -25v-108h45v109c67.333 3.33301 120.5 22.666 159.5 57.999s58.5 81.333 58.5 138zM265.002 388.001c-20.667 2.66699 -40.332 7.5 -58.999 14.5s-35.334 16.833 -50.001 29.5c-24.667 20.667 -37 51.667 -37 93
c0 42 12.833 76 38.5 102s61.5 40.667 107.5 44v-283zM474.004 189.001c0 -43.333 -14.501 -77.667 -43.501 -103s-69.167 -39.666 -120.5 -42.999v287c3.33301 -0.666992 9.33301 -1.33398 18 -2.00098c25.333 -3.33301 45.833 -7.5 61.5 -12.5
s30.834 -13.833 45.501 -26.5c26 -22.667 39 -56 39 -100z" />
    <glyph glyph-name="percent" unicode="%" horiz-adv-x="828" 
d="M759 127v107c0 39.333 -12.167 71.5 -36.5 96.5s-55.833 37.5 -94.5 37.5s-70.334 -12.5 -95.001 -37.5s-37 -57.167 -37 -96.5v-107c0 -39.333 12.333 -71.5 37 -96.5s56.334 -37.5 95.001 -37.5s70.167 12.5 94.5 37.5s36.5 57.167 36.5 96.5zM715 129
c0 -30.667 -7 -54.667 -21 -72s-36 -26 -66 -26s-52.167 8.5 -66.5 25.5s-21.5 41.167 -21.5 72.5v103c0 31.333 7.16699 55.5 21.5 72.5s36.5 25.5 66.5 25.5s52 -8.66699 66 -26s21 -41.333 21 -72v-103zM603 712h-45l-332 -712h45zM332 478v107
c0 39.333 -12.167 71.5 -36.5 96.5s-55.833 37.5 -94.5 37.5s-70.334 -12.5 -95.001 -37.5s-37 -57.167 -37 -96.5v-107c0 -38.667 12.333 -70.5 37 -95.5s56.334 -37.5 95.001 -37.5s70.167 12.333 94.5 37s36.5 56.667 36.5 96zM288 480
c0 -30.667 -7.16797 -54.5 -21.501 -71.5s-36.166 -25.5 -65.499 -25.5c-30 0 -52.167 8.5 -66.5 25.5s-21.5 40.833 -21.5 71.5v103c0 31.333 7.16699 55.5 21.5 72.5s36.5 25.5 66.5 25.5s52 -8.66699 66 -26s21 -41.333 21 -72v-103z" />
    <glyph glyph-name="ampersand" unicode="&#x26;" horiz-adv-x="746" 
d="M662 0l-102 123.997c22 26.667 37.833 57.834 47.5 93.501s14.5 76.834 14.5 123.501h-53c0 -44 -3 -78.333 -9 -103s-17 -49.334 -33 -74.001l-204 247c7.33301 4.66699 16.5 10.834 27.5 18.501l25.5 17.5c25.333 16.667 45.333 35.5 60 56.5s22 44.833 22 71.5
c0 40 -14 73.833 -42 101.5s-62.333 41.5 -103 41.5s-75 -13.667 -103 -41s-42 -61 -42 -101c0 -28 6.83301 -53.833 20.5 -77.5s33.167 -50.5 58.5 -80.5l-1 -1c-28 -18.667 -50.333 -34.167 -67 -46.5s-32.5 -27 -47.5 -44s-26.667 -36.167 -35 -57.5
s-12.5 -45.333 -12.5 -72c0 -60.667 20.5 -109.667 61.5 -147s94.167 -56 159.5 -56c51.333 0 94.833 9.33301 130.5 28s65.167 39.334 88.5 62.001l69 -84h69zM405 574.997c0 -21.333 -6.33203 -39.5 -18.999 -54.5s-30.334 -30.167 -53.001 -45.5l-41 -28
c-27.333 33.333 -45.833 59 -55.5 77s-14.5 36 -14.5 54c0 26.667 8.66699 48.667 26 66s39 26 65 26s47.833 -9 65.5 -27s26.5 -40.667 26.5 -68zM494.001 120.997c-33.333 -30 -65.333 -50.667 -96 -62s-62 -17 -94 -17c-49.333 0 -89.333 14.667 -120 44
s-46 67.333 -46 114c0 20.667 3.5 39.5 10.5 56.5s16.333 32 28 45s24.5 24.833 38.5 35.5s31 23 51 37c2.66699 2 6.66699 4.66699 12 8z" />
    <glyph glyph-name="quotesingle" unicode="'" horiz-adv-x="253" 
d="M158 556v156h-63v-156h63z" />
    <glyph glyph-name="parenleft" unicode="(" horiz-adv-x="284" 
d="M217 -59l-8 8.00293c-23.333 23.333 -38.666 42.333 -45.999 57c-10 21.333 -15 47.666 -15 78.999v542c0 32 5 58.333 15 79c7.33301 14.667 22.666 33.667 45.999 57l8 8l-35 35l-5 -5c-17.333 -17.333 -30.166 -30.833 -38.499 -40.5s-15.833 -21.167 -22.5 -34.5
c-7.33301 -14.667 -12.333 -29.334 -15 -44.001s-4 -31 -4 -49v-554c0 -18 1.33301 -34.333 4 -49s7.66699 -29.334 15 -44.001c6.66699 -13.333 14.167 -24.833 22.5 -34.5s21.166 -23.167 38.499 -40.5l5 -5z" />
    <glyph glyph-name="parenright" unicode=")" horiz-adv-x="284" 
d="M187 79v554c0 19.333 -1.16699 36.166 -3.5 50.499s-7.5 28.5 -15.5 42.5c-6.66699 13.333 -14.167 24.833 -22.5 34.5s-20.833 23.167 -37.5 40.5l-6 5l-37 -37l8 -8c23.333 -23.333 38.666 -42.333 45.999 -57c9.33301 -19.333 14 -45 14 -77v-542
c0 -32 -4.66699 -57.667 -14 -77c-7.33301 -14.667 -22.666 -33.667 -45.999 -57l-8 -8l37 -37l6 5c16.667 17.333 29.167 30.833 37.5 40.5s15.833 21.167 22.5 34.5c8 14 13.167 28.333 15.5 43s3.5 31.334 3.5 50.001z" />
    <glyph glyph-name="asterisk" unicode="*" horiz-adv-x="467" 
d="M395 476l-123 68l123 68l-22 38l-120 -73l3 141h-45l3 -141l-120 73l-22 -38l123 -68l-123 -68l22 -38l120 73l-3 -141h45l-3 141l120 -73z" />
    <glyph glyph-name="plus" unicode="+" 
d="M461 240v47h-180v180h-47v-180h-181v-47h181v-181h47v181h180z" />
    <glyph glyph-name="comma" unicode="," horiz-adv-x="258" 
d="M163 -68v136h-68v-204z" />
    <glyph glyph-name="hyphen" unicode="-" horiz-adv-x="426" 
d="M344 240v47h-262v-47h262z" />
    <glyph glyph-name="period" unicode="." horiz-adv-x="264" 
d="M169 0v74h-74v-74h74z" />
    <glyph glyph-name="slash" unicode="/" horiz-adv-x="338" 
d="M338 786h-53l-285 -860h53z" />
    <glyph glyph-name="zero" unicode="0" 
d="M444 184v344c0 56 -17.5 101.667 -52.5 137s-79.833 53 -134.5 53s-99.5 -17.667 -134.5 -53s-52.5 -81 -52.5 -137v-344c0 -55.333 17.5 -100.833 52.5 -136.5s79.833 -53.5 134.5 -53.5s99.5 17.833 134.5 53.5s52.5 81.167 52.5 136.5zM393 189
c0 -44 -11.833 -80 -35.5 -108s-57.167 -42 -100.5 -42c-42.667 0 -76 14 -100 42s-36 64 -36 108v334c0 44 12 80 36 108s57.333 42 100 42c43.333 0 76.833 -14 100.5 -42s35.5 -64 35.5 -108v-334z" />
    <glyph glyph-name="one" unicode="1" 
d="M313 0v712h-51l-129 -111v-61l129 114v-654h51z" />
    <glyph glyph-name="two" unicode="2" 
d="M449 0v45h-316l267 349c18 23.333 30.667 45.333 38 66s11 44.334 11 71.001c0 56.667 -17.167 102 -51.5 136s-79.833 51 -136.5 51c-57.333 0 -103 -17.667 -137 -53s-51 -80 -51 -134h51c0 47.333 12.833 82.833 38.5 106.5s58.5 35.5 98.5 35.5
c42.667 0 76.167 -12.833 100.5 -38.5s36.5 -60.167 36.5 -103.5c0 -20.667 -3.16699 -39.834 -9.5 -57.501s-16.5 -35.5 -30.5 -53.5l-286 -375v-45h377z" />
    <glyph glyph-name="three" unicode="3" 
d="M447 190c0 92.667 -38.3281 151.998 -114.995 177.998c34.667 14.667 60.167 35.667 76.5 63s24.5 60.333 24.5 99c0 56.667 -17.5 102.334 -52.5 137.001s-80.5 52 -136.5 52c-52.667 0 -96.834 -15.5 -132.501 -46.5s-55.834 -73.833 -60.501 -128.5h51
c4.66699 40.667 19.167 72.5 43.5 95.5s57.166 34.5 98.499 34.5c40 0 73 -12.667 99 -38s39 -60.666 39 -105.999c0 -46 -11.833 -81.333 -35.5 -106s-58.834 -37 -105.501 -37h-12v-45h12c53.333 0 92.5 -13 117.5 -39s37.5 -63.667 37.5 -113
c0 -46.667 -14.167 -83.667 -42.5 -111s-64.5 -41 -108.5 -41c-40.667 0 -75.334 11.167 -104.001 33.5s-44.667 56.166 -48 101.499h-51c3.33301 -59.333 23.5 -104.166 60.5 -134.499s84.5 -45.5 142.5 -45.5c59.333 0 107.833 17.5 145.5 52.5s56.5 83.167 56.5 144.5z
" />
    <glyph glyph-name="four" unicode="4" 
d="M471 117v45h-95v226h-51v-226h-228l262 550h-54l-262 -550v-45h282v-117h51v117h95z" />
    <glyph glyph-name="five" unicode="5" 
d="M451 233c0 40.667 -4.00098 77.166 -12.001 109.499s-23.333 59.833 -46 82.5c-28.667 28.667 -68.667 43 -120 43c-59.333 0 -104.333 -17.667 -135 -53v252h297v45h-342v-364h45c7.33301 24 22.5 42.5 45.5 55.5s50.833 19.5 83.5 19.5c28 0 51 -5.33301 69 -16
s31.5 -25.167 40.5 -43.5s15.167 -38.166 18.5 -59.499s5 -45 5 -71c0 -36 -2.5 -66.833 -7.5 -92.5s-16.833 -47.834 -35.5 -66.501c-11.333 -11.333 -25.666 -20.166 -42.999 -26.499s-35.666 -9.5 -54.999 -9.5c-40.667 0 -71.834 10 -93.501 30s-35.167 49.667 -40.5 89
h-51c4 -49.333 20 -88 48 -116c31.333 -32 77 -48 137 -48c57.333 0 103 17 137 51c22.667 22.667 37.5 49.167 44.5 79.5s10.5 66.833 10.5 109.5z" />
    <glyph glyph-name="six" unicode="6" 
d="M448 201c0 57.333 -16.501 104.835 -49.501 142.502s-77.833 56.5 -134.5 56.5c-31.333 0 -59 -5.66699 -83 -17l164 329h-51l-183 -369c-14 -28.667 -24.167 -54.834 -30.5 -78.501s-9.5 -47.167 -9.5 -70.5c0 -59.333 16.833 -107.5 50.5 -144.5
s79.834 -55.5 138.501 -55.5c58 0 103.833 19.667 137.5 59s50.5 88.666 50.5 147.999zM396.999 197.002c0 -47.333 -12.5 -85.5 -37.5 -114.5s-58.5 -43.5 -100.5 -43.5s-75.333 14.333 -100 43s-37 67 -37 115s12.333 86.333 37 115s58 43 100 43
c44 0 78 -15.167 102 -45.5s36 -67.833 36 -112.5z" />
    <glyph glyph-name="seven" unicode="7" 
d="M459 667v45h-373v-157h51v112h270l-252 -667h52z" />
    <glyph glyph-name="eight" unicode="8" 
d="M460 192c0 40 -9.83301 75 -29.5 105s-47.167 54.333 -82.5 73c64.667 34.667 97 88.667 97 162c0 26 -4.5 50.333 -13.5 73s-22 42.5 -39 59.5s-37 30.167 -60 39.5s-48.167 14 -75.5 14s-52.5 -4.66699 -75.5 -14s-43 -22.5 -60 -39.5s-30 -36.833 -39 -59.5
s-13.5 -47 -13.5 -73c0 -72.667 32.667 -126.667 98 -162c-35.333 -18.667 -63 -43 -83 -73s-30 -65 -30 -105c0 -28 5.16699 -54.167 15.5 -78.5s24.666 -45.333 42.999 -63s39.833 -31.5 64.5 -41.5s51.334 -15 80.001 -15s55.334 5 80.001 15s46.167 23.833 64.5 41.5
s32.666 38.667 42.999 63s15.5 50.5 15.5 78.5zM394 532c0 -41.333 -12.667 -75.166 -38 -101.499s-58.333 -39.5 -99 -39.5s-73.667 13.167 -99 39.5s-38 60.166 -38 101.499s12.833 75.166 38.5 101.499s58.5 39.5 98.5 39.5c40.667 0 73.667 -13.167 99 -39.5
s38 -60.166 38 -101.499zM409 192c0 -43.333 -14.5 -79.666 -43.5 -108.999s-65.167 -44 -108.5 -44s-79.5 14.667 -108.5 44s-43.5 65.666 -43.5 108.999s14.667 79.833 44 109.5s65.333 44.5 108 44.5s78.667 -14.833 108 -44.5s44 -66.167 44 -109.5z" />
    <glyph glyph-name="nine" unicode="9" 
d="M443 518c0 59.333 -16.833 107.498 -50.5 144.498s-79.834 55.5 -138.501 55.5c-58 0 -103.833 -19.667 -137.5 -59s-50.5 -88.666 -50.5 -147.999c0 -57.333 16.333 -104.833 49 -142.5s77.334 -56.5 134.001 -56.5c32.667 0 60.667 5.66699 84 17l-164 -329h51l183 369
c14 28.667 24.167 54.834 30.5 78.501s9.5 47.167 9.5 70.5zM392 514.998c0 -48 -12.5 -86.333 -37.5 -115s-58.5 -43 -100.5 -43c-43.333 0 -77 15.167 -101 45.5s-36 67.833 -36 112.5c0 48 12.333 86.333 37 115s58 43 100 43s75.5 -14.333 100.5 -43s37.5 -67 37.5 -115
z" />
    <glyph glyph-name="colon" unicode=":" horiz-adv-x="292" 
d="M197 312v74h-74v-74h74zM197 0v74h-74v-74h74z" />
    <glyph glyph-name="semicolon" unicode=";" horiz-adv-x="292" 
d="M197 312v74h-74v-74h74zM193 -68v136h-68v-204z" />
    <glyph glyph-name="less" unicode="&#x3c;" horiz-adv-x="1027" 
d="M970 238v50h-819l379 379h-69l-404 -404l404 -404h69l-379 379h819z" />
    <glyph glyph-name="equal" unicode="=" 
d="M461 316v47h-408v-47h408zM461 163v47h-408v-47h408z" />
    <glyph glyph-name="greater" unicode="&#x3e;" horiz-adv-x="1027" 
d="M970 263l-404 404h-69l379 -379h-819v-50h819l-379 -379h69z" />
    <glyph glyph-name="question" unicode="?" horiz-adv-x="488" 
d="M438 542c0 24.667 -4.5 47.667 -13.5 69s-21.667 40.166 -38 56.499s-35.333 28.833 -57 37.5s-45.167 13 -70.5 13c-26 0 -50 -4.66699 -72 -14s-41 -22.166 -57 -38.499s-28.333 -35.166 -37 -56.499s-13 -43.666 -13 -66.999h51c0 36 11.833 66.833 35.5 92.5
s54.5 38.5 92.5 38.5c36.667 0 67.167 -12.5 91.5 -37.5s36.5 -56.167 36.5 -93.5c0 -17.333 -2.66699 -32.5 -8 -45.5s-14 -28.5 -26 -46.5l-84 -124c-10 -14.667 -17.333 -28.667 -22 -42s-7 -29.333 -7 -48v-45h51v47c0 9.33301 1.5 19.5 4.5 30.5s7.5 20.833 13.5 29.5
l85 125c14.667 21.333 25.667 41.166 33 59.499s11 38.166 11 59.499zM299 0v67h-67v-67h67z" />
    <glyph glyph-name="at" unicode="@" horiz-adv-x="697" 
d="M620 0l0.00195312 507.002c0 63.333 -18.667 113.666 -56 150.999c-36 36 -83 54 -141 54h-150c-58.667 0 -105.667 -18 -141 -54c-36.667 -38 -55 -88.333 -55 -151v-350c0 -44 5.33301 -77 16 -99s31.334 -43.667 62.001 -65l35 35c-25.333 18 -42 35.5 -50 52.5
s-12 42.5 -12 76.5v353c0 29.333 3 52.666 9 69.999s16.667 33.666 32 48.999c14.667 14.667 31 25.334 49 32.001s39.333 10 64 10h132c48 0 86 -14 114 -42c15.333 -15.333 26 -31.833 32 -49.5s9 -40.834 9 -69.501v-89c-34.667 45.333 -81.334 68 -140.001 68
c-30 0 -57.5 -6 -82.5 -18s-44.833 -28.333 -59.5 -49c-14 -20 -24 -44.167 -30 -72.5s-9 -64.5 -9 -108.5c0 -45.333 3.33301 -81.833 10 -109.5s17.667 -52.167 33 -73.5c33.333 -43.333 79.666 -65 138.999 -65c31.333 0 58.166 5.33301 80.499 16
s41.833 27.334 58.5 50.001v-59h51zM569.002 241.002c0 -28.667 -1.66797 -54.5 -5.00098 -77.5s-9.5 -44 -18.5 -63s-22.667 -34.167 -41 -45.5s-41.833 -17 -70.5 -17s-52 5.66699 -70 17s-31.667 26.666 -41 45.999s-15.666 40.333 -18.999 63s-5 48.334 -5 77.001
s1.66699 54.5 5 77.5s9.5 44 18.5 63s22.667 34.167 41 45.5s41.833 17 70.5 17s52.167 -5.66699 70.5 -17s32 -26.5 41 -45.5s15.167 -40 18.5 -63s5 -48.833 5 -77.5z" />
    <glyph glyph-name="A" unicode="A" horiz-adv-x="602" 
d="M587 0l-262 712h-48l-262 -712h58l62 173h332l62 -173h58zM450 221h-298l149 419z" />
    <glyph glyph-name="B" unicode="B" horiz-adv-x="671" 
d="M589 194c0 41.333 -10.667 77.168 -32 107.501s-51.333 51.833 -90 64.5c34 11.333 61 31.5 81 60.5s30 62.167 30 99.5c0 57.333 -19.167 102.666 -57.5 135.999s-87.833 50 -148.5 50h-262v-712h270c64.667 -0 115.667 16.833 153 50.5s56 81.5 56 143.5zM524 526.002
c0 -46.667 -14.833 -81.332 -44.5 -103.999s-67.5 -34 -113.5 -34h-202v276h202c46 0 83.833 -11.333 113.5 -34s44.5 -57.334 44.5 -104.001zM535 194.004c0 -45.333 -14.667 -81 -44 -107s-68.333 -39 -117 -39h-210v292h210c48.667 0 87.667 -13 117 -39
s44 -61.667 44 -107z" />
    <glyph glyph-name="C" unicode="C" horiz-adv-x="644" 
d="M568 202h-53.002c-10.667 -49.333 -32.834 -88.333 -66.501 -117s-74.5 -43 -122.5 -43c-53.333 0 -98.333 18.333 -135 55c-12.667 12.667 -22.667 26.167 -30 40.5s-12.833 30.833 -16.5 49.5s-6 40.5 -7 65.5s-1.5 59.5 -1.5 103.5s0.5 78.5 1.5 103.5
s3.33301 46.833 7 65.5s9.16699 35.167 16.5 49.5s17.333 27.833 30 40.5c36.667 36.667 81.667 55 135 55c48 0 88.5 -14.333 121.5 -43s54.833 -67.667 65.5 -117h55c-11.333 64.667 -38.666 115.5 -81.999 152.5s-96.666 55.5 -159.999 55.5
c-33.333 0 -65.5 -6.33301 -96.5 -19s-58.167 -30.667 -81.5 -54c-16 -16 -28.5 -32.667 -37.5 -50s-15.5 -36.333 -19.5 -57s-6.5 -44.167 -7.5 -70.5s-1.5 -63.5 -1.5 -111.5s0.5 -85.167 1.5 -111.5s3.5 -49.833 7.5 -70.5s10.5 -39.667 19.5 -57s21.5 -34 37.5 -50
c23.333 -23.333 50.5 -41.333 81.5 -54s63.167 -19 96.5 -19c62.667 0 115.834 18.667 159.501 56s71.167 88 82.5 152z" />
    <glyph glyph-name="D" unicode="D" horiz-adv-x="678" 
d="M596 366c0 72 -4 129.5 -12 172.5s-27 79.167 -57 108.5c-43.333 43.333 -102.666 65 -177.999 65h-239v-712h239c75.333 0 134.666 21.667 177.999 65c16 16 28.667 35 38 57s16.333 46 21 72s7.5 52.333 8.5 79s1.5 57.667 1.5 93zM542 366
c0 -68 -3.16699 -123.167 -9.5 -165.5s-20.833 -74.833 -43.5 -97.5c-19.333 -20 -42 -34.167 -68 -42.5s-54.333 -12.5 -85 -12.5h-172v616h172c30.667 0 59 -4.16699 85 -12.5s48.667 -22.5 68 -42.5c22.667 -22.667 37.167 -53 43.5 -91s9.5 -88.667 9.5 -152z" />
    <glyph glyph-name="E" unicode="E" horiz-adv-x="598" 
d="M542 0v48h-378v287h322v48h-322v281h378v48h-432v-712h432z" />
    <glyph glyph-name="F" unicode="F" horiz-adv-x="576" 
d="M542 664v48h-432v-712h54v323h322v48h-322v293h378z" />
    <glyph glyph-name="G" unicode="G" horiz-adv-x="651" 
d="M571 248l-0.000976562 116h-245v-48h191v-64c0 -30.667 -3.33301 -57.167 -10 -79.5s-17.667 -42.833 -33 -61.5c-18 -22 -40 -39 -66 -51s-53.333 -18 -82 -18c-53.333 0 -98.333 18.333 -135 55c-12.667 12.667 -22.667 26.167 -30 40.5s-12.833 30.833 -16.5 49.5
s-6 40.5 -7 65.5s-1.5 59.5 -1.5 103.5s0.5 78.5 1.5 103.5s3.33301 46.833 7 65.5s9.16699 35.167 16.5 49.5s17.333 27.833 30 40.5c36.667 36.667 81.667 55 135 55c48 0 88.833 -14.333 122.5 -43s55.834 -67.667 66.501 -117h54
c-10.667 63.333 -38.167 113.833 -82.5 151.5s-97.833 56.5 -160.5 56.5c-33.333 0 -65.5 -6.33301 -96.5 -19s-58.167 -30.667 -81.5 -54c-16 -16 -28.5 -32.667 -37.5 -50s-15.5 -36.333 -19.5 -57s-6.5 -44.167 -7.5 -70.5s-1.5 -63.5 -1.5 -111.5
s0.5 -85.167 1.5 -111.5s3.5 -49.833 7.5 -70.5s10.5 -39.667 19.5 -57s21.5 -34 37.5 -50c23.333 -23.333 50.5 -41.333 81.5 -54s63.167 -19 96.5 -19c36 0 70.333 7.16699 103 21.5s60.667 34.5 84 60.5c20.667 22 35.5 46.667 44.5 74s13.5 60 13.5 98z" />
    <glyph glyph-name="H" unicode="H" horiz-adv-x="699" 
d="M589 0v712h-54v-329h-371v329h-54v-712h54v335h371v-335h54z" />
    <glyph glyph-name="I" unicode="I" horiz-adv-x="274" 
d="M164 0v712h-54v-712h54z" />
    <glyph glyph-name="J" unicode="J" horiz-adv-x="498" 
d="M398 210v502.001h-54v-491c0 -57.333 -13.667 -101.5 -41 -132.5s-66.333 -46.5 -117 -46.5c-28.667 0 -51.5 4.33301 -68.5 13s-33.833 21 -50.5 37l-37 -37c40.667 -40.667 92.667 -61 156 -61c64.667 0 116.167 19.667 154.5 59s57.5 91.666 57.5 156.999z" />
    <glyph glyph-name="K" unicode="K" horiz-adv-x="645" 
d="M627 0l-257 440l220 272h-65l-361 -445v445h-54v-712h54v193l170 206l229 -399h64z" />
    <glyph glyph-name="L" unicode="L" horiz-adv-x="572" 
d="M542 0v48h-378v664h-54v-712h432z" />
    <glyph glyph-name="M" unicode="M" horiz-adv-x="818" 
d="M708 0v712h-54l-242 -549l-248 549h-54v-712h54v587l220 -487h54l216 487v-587h54z" />
    <glyph glyph-name="N" unicode="N" horiz-adv-x="739" 
d="M629 0v712h-54v-617l-185 277l-226 340h-54v-712h54v619l184 -277l227 -342h54z" />
    <glyph glyph-name="O" unicode="O" horiz-adv-x="652" 
d="M570 356c0 48 -0.5 85.167 -1.5 111.5s-3.5 49.833 -7.5 70.5s-10.5 39.667 -19.5 57s-21.5 34 -37.5 50c-23.333 23.333 -50.5 41.333 -81.5 54s-63.167 19 -96.5 19s-65.5 -6.33301 -96.5 -19s-58.167 -30.667 -81.5 -54c-16 -16 -28.5 -32.667 -37.5 -50
s-15.5 -36.333 -19.5 -57s-6.5 -44.167 -7.5 -70.5s-1.5 -63.5 -1.5 -111.5s0.5 -85.167 1.5 -111.5s3.5 -49.833 7.5 -70.5s10.5 -39.667 19.5 -57s21.5 -34 37.5 -50c23.333 -23.333 50.5 -41.333 81.5 -54s63.167 -19 96.5 -19s65.5 6.33301 96.5 19
s58.167 30.667 81.5 54c16 16 28.5 32.667 37.5 50s15.5 36.333 19.5 57s6.5 44.167 7.5 70.5s1.5 63.5 1.5 111.5zM516 356c0 -44 -0.5 -78.5 -1.5 -103.5s-3.33301 -46.833 -7 -65.5s-9.16699 -35.167 -16.5 -49.5s-17.333 -27.833 -30 -40.5
c-36.667 -36.667 -81.667 -55 -135 -55s-98.333 18.333 -135 55c-12.667 12.667 -22.667 26.167 -30 40.5s-12.833 30.833 -16.5 49.5s-6 40.5 -7 65.5s-1.5 59.5 -1.5 103.5s0.5 78.5 1.5 103.5s3.33301 46.833 7 65.5s9.16699 35.167 16.5 49.5s17.333 27.833 30 40.5
c36.667 36.667 81.667 55 135 55s98.333 -18.333 135 -55c12.667 -12.667 22.667 -26.167 30 -40.5s12.833 -30.833 16.5 -49.5s6 -40.5 7 -65.5s1.5 -59.5 1.5 -103.5z" />
    <glyph glyph-name="P" unicode="P" horiz-adv-x="631" 
d="M586 507c0 63.333 -20 113.333 -60 150s-91.667 55 -155 55h-261v-712h54v302h207c63.333 0 115 18.333 155 55s60 86.667 60 150zM532 507c0 -51.333 -15 -90.333 -45 -117s-70.667 -40 -122 -40h-201v314h201c51.333 0 92 -13.167 122 -39.5s45 -65.5 45 -117.5z" />
    <glyph glyph-name="Q" unicode="Q" horiz-adv-x="651" 
d="M603 0l-84 84.002c12 14.667 21.5 30.167 28.5 46.5s12.167 34.666 15.5 54.999s5.33301 43 6 68s1 59.167 1 102.5c0 48 -0.5 85.167 -1.5 111.5s-3.5 49.833 -7.5 70.5s-10.5 39.667 -19.5 57s-21.5 34 -37.5 50c-23.333 23.333 -50.5 41.333 -81.5 54
s-63.167 19 -96.5 19s-65.5 -6.33301 -96.5 -19s-58.167 -30.667 -81.5 -54c-16 -16 -28.5 -32.667 -37.5 -50s-15.5 -36.333 -19.5 -57s-6.5 -44.167 -7.5 -70.5s-1.5 -63.5 -1.5 -111.5s0.5 -85.167 1.5 -111.5s3.5 -49.833 7.5 -70.5s10.5 -39.667 19.5 -57
s21.5 -34 37.5 -50c23.333 -23.333 50.5 -41.333 81.5 -54s63.167 -19 96.5 -19c28.667 0 56.5 4.66699 83.5 14s51.5 22.666 73.5 39.999l84 -84zM516 356.002c0 -70 -2.00098 -121.167 -6.00098 -153.5s-13.333 -59.5 -28 -81.5l-99 99l-36 -36l100 -100
c-35.333 -28 -75.666 -42 -120.999 -42c-53.333 0 -98.333 18.333 -135 55c-12.667 12.667 -22.667 26.167 -30 40.5s-12.833 30.833 -16.5 49.5s-6 40.5 -7 65.5s-1.5 59.5 -1.5 103.5s0.5 78.5 1.5 103.5s3.33301 46.833 7 65.5s9.16699 35.167 16.5 49.5
s17.333 27.833 30 40.5c36.667 36.667 81.667 55 135 55s98.333 -18.333 135 -55c12.667 -12.667 22.667 -26.167 30 -40.5s12.833 -30.833 16.5 -49.5s6 -40.5 7 -65.5s1.5 -59.5 1.5 -103.5z" />
    <glyph glyph-name="R" unicode="R" horiz-adv-x="657" 
d="M593 0l-172 328.999c50.667 8.66699 90.667 29.834 120 63.501s44 76.5 44 128.5c0 60 -19 106.833 -57 140.5s-87 50.5 -147 50.5h-271v-712h54v328h196l170 -328h63zM531 519.999c0 -47.333 -14.333 -83.168 -43 -107.501s-66.667 -36.5 -114 -36.5h-210v288h210
c47.333 0 85.333 -12.167 114 -36.5s43 -60.166 43 -107.499z" />
    <glyph glyph-name="S" unicode="S" horiz-adv-x="587" 
d="M528 191c0 28 -5.33105 54.0029 -15.998 78.0029s-26 44 -46 60c-15.333 12.667 -32 22.5 -50 29.5s-43.667 12.833 -77 17.5l-43 7l-34 5c-20 3.33301 -39.5 8.83301 -58.5 16.5s-34.833 16.834 -47.5 27.501c-24.667 20.667 -37 51.667 -37 93
c0 45.333 14.667 81.166 44 107.499s69.666 39.5 120.999 39.5c39.333 0 71.833 -5.5 97.5 -16.5s50.834 -27.5 75.501 -49.5l35 35c-31.333 27.333 -62.666 47.166 -93.999 59.499s-68.333 18.5 -111 18.5c-67.333 0 -121 -17.667 -161 -53s-60 -83 -60 -143
c0 -56 18.667 -99.667 56 -131c30.667 -26.667 73 -44 127 -52l40 -6l43 -7c28.667 -4.66699 49.667 -9.33398 63 -14.001s26.666 -12.667 39.999 -24c26 -22.667 39 -56 39 -100c0 -46 -16.333 -82 -49 -108s-77.334 -39 -134.001 -39
c-43.333 0 -79.833 6.16699 -109.5 18.5s-60.5 34.166 -92.5 65.499l-38 -38c33.333 -33.333 68.166 -57.333 104.499 -72s80.5 -22 132.5 -22c74 0 132.5 17.833 175.5 53.5s64.5 83.5 64.5 143.5z" />
    <glyph glyph-name="T" unicode="T" horiz-adv-x="539" 
d="M509 664v48h-479v-48h212v-664h54v664h213z" />
    <glyph glyph-name="U" unicode="U" horiz-adv-x="688" 
d="M588 231v481h-54v-474c0 -58.667 -17.333 -106 -52 -142s-80.667 -54 -138 -54s-103.333 18 -138 54s-52 83.333 -52 142v474h-54v-481c0 -34 6 -65.667 18 -95s28.833 -54.5 50.5 -75.5s47.5 -37.333 77.5 -49s62.667 -17.5 98 -17.5s68 5.83301 98 17.5
s55.833 28 77.5 49s38.5 46.167 50.5 75.5s18 61 18 95z" />
    <glyph glyph-name="V" unicode="V" horiz-adv-x="534" 
d="M524 712h-57l-200 -617l-200 617h-57l234 -712h46z" />
    <glyph glyph-name="W" unicode="W" horiz-adv-x="842" 
d="M822 712h-57l-150 -619l-166 619h-56l-166 -619l-150 619h-57l178 -712h55l168 620l168 -620h55z" />
    <glyph glyph-name="X" unicode="X" horiz-adv-x="532" 
d="M514 0l-220 365l204 347h-62l-171 -299l-170 299h-63l204 -347l-218 -365h61l186 317l186 -317h63z" />
    <glyph glyph-name="Y" unicode="Y" horiz-adv-x="494" 
d="M484 712h-58l-177 -360l-181 360h-58l210 -417v-295h54v295z" />
    <glyph glyph-name="Z" unicode="Z" horiz-adv-x="559" 
d="M496 0v48h-378l378 616v48h-418v-48h360l-375 -607v-57h433z" />
    <glyph glyph-name="bracketleft" unicode="[" horiz-adv-x="290" 
d="M245 -74v45h-97v770h97v45h-148v-860h148z" />
    <glyph glyph-name="backslash" unicode="\" horiz-adv-x="338" 
d="M338 -74l-285 860h-53l285 -860h53z" />
    <glyph glyph-name="bracketright" unicode="]" horiz-adv-x="290" 
d="M193 -74v860h-148v-42h100v-776h-100v-42h148z" />
    <glyph glyph-name="asciicircum" unicode="^" 
d="M438 422l-158 296h-46l-158 -296h51l130 242l130 -242h51z" />
    <glyph glyph-name="underscore" unicode="_" 
d="M514 -160v38h-514v-38h514z" />
    <glyph glyph-name="grave" unicode="`" horiz-adv-x="500" 
d="M297 590l-97 147h-67l106 -147h58z" />
    <glyph glyph-name="a" unicode="a" horiz-adv-x="524" 
d="M431 0v330c0 51.333 -15.5 90.5 -46.5 117.5s-77.833 40.5 -140.5 40.5c-40.667 0 -74.167 -5.5 -100.5 -16.5s-49.5 -30.167 -69.5 -57.5l37 -32c15.333 22 32.833 37.667 52.5 47s46.5 14 80.5 14c48 0 82.667 -9.83301 104 -29.5s32 -49.167 32 -88.5v-54h-156
c-52.667 0 -93.834 -12.167 -123.501 -36.5s-44.5 -58.5 -44.5 -102.5c0 -18 3 -35.333 9 -52s14.667 -30.667 26 -42c15.333 -16 34 -27.333 56 -34s50.667 -10 86 -10c34.667 0 62.834 4 84.501 12s42.5 22 62.5 42v-48h51zM380 168c0 -44 -9.00098 -74.667 -27.001 -92
c-15.333 -15.333 -32.5 -25.333 -51.5 -30s-41.833 -7 -68.5 -7c-43.333 0 -75.166 7.66699 -95.499 23s-30.5 39 -30.5 71c0 64.667 41 97 123 97h150v-62z" />
    <glyph glyph-name="b" unicode="b" horiz-adv-x="540" 
d="M471 241c0 43.333 -4.66699 82.666 -14 117.999s-25.333 64.333 -48 87c-12.667 12.667 -29.334 22.834 -50.001 30.501s-43.334 11.5 -68.001 11.5c-30 0 -56.5 -4.83301 -79.5 -14.5s-44.167 -27.5 -63.5 -53.5v292h-51v-712h51v62c19.333 -26 40.5 -43.833 63.5 -53.5
s49.5 -14.5 79.5 -14.5c24.667 0 47.334 3.83301 68.001 11.5s37.334 17.834 50.001 30.501c22.667 22.667 38.667 51.667 48 87s14 74.666 14 117.999zM420 241c0 -28 -1.66699 -53.667 -5 -77s-9.83301 -44.5 -19.5 -63.5s-23.667 -34 -42 -45s-41.5 -16.5 -69.5 -16.5
s-51.167 5.5 -69.5 16.5s-32.333 26 -42 45s-16.167 40.167 -19.5 63.5s-5 49 -5 77s1.66699 53.667 5 77s9.83301 44.5 19.5 63.5s23.667 34 42 45s41.5 16.5 69.5 16.5s51.167 -5.5 69.5 -16.5s32.333 -26 42 -45s16.167 -40.167 19.5 -63.5s5 -49 5 -77z" />
    <glyph glyph-name="c" unicode="c" horiz-adv-x="493" 
d="M440 68l-35 32c-20.667 -22.667 -40 -38.5 -58 -47.5s-40 -13.5 -66 -13.5c-56 0 -98.667 21.333 -128 64c-12 17.333 -20.5 36.5 -25.5 57.5s-7.5 47.833 -7.5 80.5s2.5 59.5 7.5 80.5s13.5 40.167 25.5 57.5c29.333 42.667 72 64 128 64c26 0 48 -4.5 66 -13.5
s37.333 -24.833 58 -47.5l35 32c-25.333 28 -49.666 47.333 -72.999 58s-52 16 -86 16c-65.333 0 -117 -22 -155 -66s-57 -104.333 -57 -181s19 -137 57 -181s89.667 -66 155 -66c34 0 62.667 5.33301 86 16s47.666 30 72.999 58z" />
    <glyph glyph-name="d" unicode="d" horiz-adv-x="540" 
d="M443 0v712h-51v-292c-19.333 26 -40.5 43.833 -63.5 53.5s-49.5 14.5 -79.5 14.5c-24.667 0 -47.334 -3.83301 -68.001 -11.5s-37.334 -17.834 -50.001 -30.501c-22.667 -22.667 -38.667 -51.667 -48 -87s-14 -74.666 -14 -117.999s4.66699 -82.666 14 -117.999
s25.333 -64.333 48 -87c12.667 -12.667 29.334 -22.834 50.001 -30.501s43.334 -11.5 68.001 -11.5c30 0 56.5 4.83301 79.5 14.5s44.167 27.5 63.5 53.5v-62h51zM392 241c0 -28 -1.66699 -53.667 -5 -77s-9.83301 -44.5 -19.5 -63.5s-23.667 -34 -42 -45
s-41.5 -16.5 -69.5 -16.5s-51.167 5.5 -69.5 16.5s-32.333 26 -42 45s-16.167 40.167 -19.5 63.5s-5 49 -5 77s1.66699 53.667 5 77s9.83301 44.5 19.5 63.5s23.667 34 42 45s41.5 16.5 69.5 16.5s51.167 -5.5 69.5 -16.5s32.333 -26 42 -45s16.167 -40.167 19.5 -63.5
s5 -49 5 -77z" />
    <glyph glyph-name="e" unicode="e" horiz-adv-x="523" 
d="M455 230l-0.000976562 23c0 73.333 -17.167 130.833 -51.5 172.5s-81.5 62.5 -141.5 62.5c-60.667 0 -108 -21.833 -142 -65.5s-51 -104.167 -51 -181.5c0 -80.667 17.5 -142 52.5 -184s85.833 -63 152.5 -63c38.667 0 70.834 5.83301 96.501 17.5s51.5 30.5 77.5 56.5
l-38 30c-20.667 -20.667 -41 -35.5 -61 -44.5s-44 -13.5 -72 -13.5c-50.667 0 -89.5 16.333 -116.5 49s-40.5 79.667 -40.5 141h335zM403.999 271h-284.002c1.33301 22.667 3 39.834 5 51.501s6 24.834 12 39.501c10.667 24.667 27.334 44.334 50.001 59.001
s47.667 22 75 22s52.333 -7.33301 75 -22s39.334 -34.334 50.001 -59.001c6 -14.667 10.167 -27.834 12.5 -39.501s3.83301 -28.834 4.5 -51.501z" />
    <glyph glyph-name="f" unicode="f" horiz-adv-x="304" 
d="M272 444v38h-109v105c0 25.333 6.16699 45 18.5 59s30.833 21 55.5 21h35v45h-44c-36.667 0 -65.167 -11.5 -85.5 -34.5s-30.5 -53.5 -30.5 -91.5v-104h-66v-38h66v-444h51v444h109z" />
    <glyph glyph-name="g" unicode="g" horiz-adv-x="540" 
d="M443 -27v509h-51v-62c-19.333 26 -40.5 43.833 -63.5 53.5s-49.5 14.5 -79.5 14.5c-24.667 0 -47.334 -3.83301 -68.001 -11.5s-37.334 -17.834 -50.001 -30.501c-22.667 -22.667 -38.667 -51.667 -48 -87s-14 -74.666 -14 -117.999s4.66699 -82.666 14 -117.999
s25.333 -64.333 48 -87c12.667 -12.667 29.334 -22.834 50.001 -30.501s43.334 -11.5 68.001 -11.5c30 0 56.5 4.83301 79.5 14.5s44.167 27.5 63.5 53.5v-86c0 -50 -12.167 -90.333 -36.5 -121s-60.833 -46 -109.5 -46c-28 0 -50.5 4 -67.5 12s-36.167 21.667 -57.5 41
l-34 -34c26.667 -24 51.167 -40.667 73.5 -50s50.833 -14 85.5 -14c61.333 0 109.5 19.333 144.5 58s52.5 89 52.5 151zM392 241c0 -28 -1.66699 -53.667 -5 -77s-9.83301 -44.5 -19.5 -63.5s-23.667 -34 -42 -45s-41.5 -16.5 -69.5 -16.5s-51.167 5.5 -69.5 16.5
s-32.333 26 -42 45s-16.167 40.167 -19.5 63.5s-5 49 -5 77s1.66699 53.667 5 77s9.83301 44.5 19.5 63.5s23.667 34 42 45s41.5 16.5 69.5 16.5s51.167 -5.5 69.5 -16.5s32.333 -26 42 -45s16.167 -40.167 19.5 -63.5s5 -49 5 -77z" />
    <glyph glyph-name="h" unicode="h" horiz-adv-x="559" 
d="M468 0v308.003c0 55.333 -16 99.166 -48 131.499s-75.333 48.5 -130 48.5c-58.667 0 -106 -21 -142 -63v287h-51v-712h51v299c0 45.333 12 80.666 36 105.999s57.333 38 100 38c43.333 0 76.333 -12.333 99 -37s34 -60.334 34 -107.001v-299h51z" />
    <glyph glyph-name="i" unicode="i" horiz-adv-x="245" 
d="M154 649v63h-63v-63h63zM148 0v482h-51v-482h51z" />
    <glyph glyph-name="j" unicode="j" horiz-adv-x="245" 
d="M154 649v63h-63v-63h63zM148 -105v587h-51v-586c0 -28 -5.5 -48.5 -16.5 -61.5s-30.167 -19.5 -57.5 -19.5h-35v-45h44c38 0 66.833 11.167 86.5 33.5s29.5 52.833 29.5 91.5z" />
    <glyph glyph-name="k" unicode="k" horiz-adv-x="527" 
d="M487 0l-194 302l159 180h-65l-239 -272v502h-51v-712h51v138l110 127l166 -265h63z" />
    <glyph glyph-name="l" unicode="l" horiz-adv-x="287" 
d="M255 0v45h-35c-27.333 0 -46.5 6.5 -57.5 19.5s-16.5 33.5 -16.5 61.5v586h-51v-587c0 -38.667 9.83301 -69.167 29.5 -91.5s48.5 -33.5 86.5 -33.5h44z" />
    <glyph glyph-name="m" unicode="m" horiz-adv-x="878" 
d="M787 0v308.004c0 57.333 -16.667 102 -50 134c-32 30.667 -74.333 46 -127 46c-72 0 -126.667 -29.333 -164 -88c-14.667 28.667 -35.167 50.5 -61.5 65.5s-57.5 22.5 -93.5 22.5c-59.333 0 -107 -21 -143 -63v57h-51v-482h51v299c0 45.333 12 80.666 36 105.999
s57.333 38 100 38c43.333 0 76.333 -12.333 99 -37s34 -60.334 34 -107.001v-299h51v308c0 41.333 12.333 74.166 37 98.499s57.667 36.5 99 36.5c43.333 0 76.333 -12.333 99 -37s34 -60.334 34 -107.001v-299h50z" />
    <glyph glyph-name="n" unicode="n" horiz-adv-x="559" 
d="M468 0v308.002c0 57.333 -16.667 102 -50 134c-31.333 30.667 -74 46 -128 46c-58.667 0 -106 -21 -142 -63v57h-51v-482h51v299c0 45.333 12 80.666 36 105.999s57.333 38 100 38c43.333 0 76.333 -12.333 99 -37s34 -60.334 34 -107.001v-299h51z" />
    <glyph glyph-name="o" unicode="o" horiz-adv-x="526" 
d="M457 241c0 40.667 -4.16699 77.334 -12.5 110.001s-24.166 60.667 -47.499 84c-35.333 35.333 -80 53 -134 53s-98.667 -17.667 -134 -53c-23.333 -23.333 -39.166 -51.333 -47.499 -84s-12.5 -69.334 -12.5 -110.001s4.16699 -77.334 12.5 -110.001
s24.166 -60.667 47.499 -84c35.333 -35.333 80 -53 134 -53s98.667 17.667 134 53c23.333 23.333 39.166 51.333 47.499 84s12.5 69.334 12.5 110.001zM406 241c0 -36 -2.66699 -67.333 -8 -94s-17 -49 -35 -67c-27.333 -27.333 -60.666 -41 -99.999 -41
s-72.666 13.667 -99.999 41c-18 18 -29.667 40.333 -35 67s-8 58 -8 94s2.66699 67.333 8 94s17 49 35 67c27.333 27.333 60.666 41 99.999 41s72.666 -13.667 99.999 -41c18 -18 29.667 -40.333 35 -67s8 -58 8 -94z" />
    <glyph glyph-name="p" unicode="p" horiz-adv-x="540" 
d="M471 241c0 43.333 -4.66699 82.666 -14 117.999s-25.333 64.333 -48 87c-12.667 12.667 -29.334 22.834 -50.001 30.501s-43.334 11.5 -68.001 11.5c-30 0 -56.5 -4.83301 -79.5 -14.5s-44.167 -27.5 -63.5 -53.5v62h-51v-712h51v292c19.333 -26 40.5 -43.833 63.5 -53.5
s49.5 -14.5 79.5 -14.5c24.667 0 47.334 3.83301 68.001 11.5s37.334 17.834 50.001 30.501c22.667 22.667 38.667 51.667 48 87s14 74.666 14 117.999zM420 241c0 -28 -1.66699 -53.667 -5 -77s-9.83301 -44.5 -19.5 -63.5s-23.667 -34 -42 -45s-41.5 -16.5 -69.5 -16.5
s-51.167 5.5 -69.5 16.5s-32.333 26 -42 45s-16.167 40.167 -19.5 63.5s-5 49 -5 77s1.66699 53.667 5 77s9.83301 44.5 19.5 63.5s23.667 34 42 45s41.5 16.5 69.5 16.5s51.167 -5.5 69.5 -16.5s32.333 -26 42 -45s16.167 -40.167 19.5 -63.5s5 -49 5 -77z" />
    <glyph glyph-name="q" unicode="q" horiz-adv-x="540" 
d="M443 -230v712h-51v-62c-19.333 26 -40.5 43.833 -63.5 53.5s-49.5 14.5 -79.5 14.5c-24.667 0 -47.334 -3.83301 -68.001 -11.5s-37.334 -17.834 -50.001 -30.501c-22.667 -22.667 -38.667 -51.667 -48 -87s-14 -74.666 -14 -117.999s4.66699 -82.666 14 -117.999
s25.333 -64.333 48 -87c12.667 -12.667 29.334 -22.834 50.001 -30.501s43.334 -11.5 68.001 -11.5c30 0 56.5 4.83301 79.5 14.5s44.167 27.5 63.5 53.5v-292h51zM392 241c0 -28 -1.66699 -53.667 -5 -77s-9.83301 -44.5 -19.5 -63.5s-23.667 -34 -42 -45
s-41.5 -16.5 -69.5 -16.5s-51.167 5.5 -69.5 16.5s-32.333 26 -42 45s-16.167 40.167 -19.5 63.5s-5 49 -5 77s1.66699 53.667 5 77s9.83301 44.5 19.5 63.5s23.667 34 42 45s41.5 16.5 69.5 16.5s51.167 -5.5 69.5 -16.5s32.333 -26 42 -45s16.167 -40.167 19.5 -63.5
s5 -49 5 -77z" />
    <glyph glyph-name="r" unicode="r" horiz-adv-x="409" 
d="M405 442c-16.667 16.667 -34.168 28.5 -52.501 35.5s-39.5 10.5 -63.5 10.5c-29.333 0 -56.666 -6.16699 -81.999 -18.5s-45 -29.5 -59 -51.5v64h-51v-482h51v297c0 40.667 11.5 75.167 34.5 103.5s54.5 42.5 94.5 42.5c20 0 36.5 -2.66699 49.5 -8
s26.833 -15.333 41.5 -30z" />
    <glyph glyph-name="s" unicode="s" horiz-adv-x="494" 
d="M438 137c0 43.333 -12.168 74.168 -36.501 92.501s-59.166 29.5 -104.499 33.5l-39 4l-39 3c-34 3.33301 -58.833 11.333 -74.5 24s-23.5 31.667 -23.5 57c0 29.333 10.667 52.166 32 68.499s51.666 24.5 90.999 24.5c52.667 0 97.667 -13.667 135 -41l34 34
c-21.333 16 -46.666 28.5 -75.999 37.5s-60.333 13.5 -93 13.5c-52.667 0 -94.667 -12.5 -126 -37.5s-47 -58.167 -47 -99.5c0 -76 48.333 -118 145 -126l36 -3l44 -4c61.333 -6 92 -33 92 -81c0 -65.333 -48.333 -98 -145 -98c-68 0 -120.667 19.667 -158 59l-35 -35
c48 -46 113 -69 195 -69c59.333 0 106.333 12.833 141 38.5s52 60.5 52 104.5z" />
    <glyph glyph-name="t" unicode="t" horiz-adv-x="325" 
d="M269 0v44.999h-35c-24.667 0 -43.167 7 -55.5 21s-18.5 33.667 -18.5 59v319h109v38h-109v154h-51v-154h-66v-38h66v-318c0 -37.333 10.167 -67.666 30.5 -90.999s48.833 -35 85.5 -35h44z" />
    <glyph glyph-name="u" unicode="u" horiz-adv-x="559" 
d="M462 0v481.998h-51v-299c0 -45.333 -11.833 -80.666 -35.5 -105.999s-57.167 -38 -100.5 -38s-76.333 12.333 -99 37s-34 60.334 -34 107.001v299h-51v-308c0 -57.333 16.667 -102 50 -134c32 -30.667 74.667 -46 128 -46c58.667 0 106 21 142 63v-57h51z" />
    <glyph glyph-name="v" unicode="v" horiz-adv-x="430" 
d="M416 482h-56l-145 -422l-145 422h-56l176 -482h50z" />
    <glyph glyph-name="w" unicode="w" horiz-adv-x="712" 
d="M698 482h-56l-123 -422l-138 422h-50l-138 -422l-123 422h-56l154 -482h52l136 402l136 -402h52z" />
    <glyph glyph-name="x" unicode="x" horiz-adv-x="460" 
d="M420 0l-163 246l156 236h-62l-120 -194l-122 194h-62l156 -236l-163 -246h62l129 203l127 -203h62z" />
    <glyph glyph-name="y" unicode="y" horiz-adv-x="430" 
d="M416 482l-56.001 -0.000976562l-145 -422l-145 422h-56l176 -482l-39 -107c-9.33301 -25.333 -19.666 -42.666 -30.999 -51.999s-30.333 -14 -57 -14h-19v-45h24c17.333 0 34 2.5 50 7.5s29.667 12.833 41 23.5c12.667 11.333 23.667 30 33 56z" />
    <glyph glyph-name="z" unicode="z" horiz-adv-x="452" 
d="M398 0v45h-291l291 389v48h-328v-45h274l-290 -389v-48h344z" />
    <glyph glyph-name="braceleft" unicode="{" horiz-adv-x="316" 
d="M266 -74v45.0039h-13c-18 0 -31 0.833008 -39 2.5s-14.667 5.16699 -20 10.5s-9 13 -11 23s-3 24 -3 42v207c0 25.333 -4.83301 45.666 -14.5 60.999s-25.167 28.333 -46.5 39c21.333 10.667 36.833 23.667 46.5 39s14.5 35.666 14.5 60.999v207c0 18 1 32 3 42
s5.66699 17.667 11 23s12 8.83301 20 10.5s21 2.5 39 2.5h13v45h-14c-24.667 0 -44.5 -2 -59.5 -6s-27.5 -11 -37.5 -21c-9.33301 -9.33301 -16 -20.833 -20 -34.5s-6 -33.834 -6 -60.501v-207c0 -28 -6 -48 -18 -60c-12.667 -12.667 -27 -19 -43 -19h-18v-44h18
c16 0 30.333 -6.33301 43 -19c12 -12 18 -32 18 -60v-207c0 -26.667 2 -46.834 6 -60.501s10.667 -25.167 20 -34.5c10 -10 22.5 -17 37.5 -21s34.833 -6 59.5 -6h14z" />
    <glyph glyph-name="bar" unicode="|" horiz-adv-x="317" 
d="M184 -74v860h-51v-860h51z" />
    <glyph glyph-name="braceright" unicode="}" horiz-adv-x="316" 
d="M266 334v43.9961h-18c-16 0 -30.333 6.33301 -43 19c-12 12 -18 32 -18 60v207c0 26.667 -1.83301 46.834 -5.5 60.501s-10.5 25.167 -20.5 34.5c-10 10 -22.5 17 -37.5 21s-34.833 6 -59.5 6h-14v-45h13c18 0 31.167 -0.833008 39.5 -2.5s14.833 -5.16699 19.5 -10.5
c5.33301 -5.33301 9 -13 11 -23s3 -24 3 -42v-207c0 -25.333 4.83301 -45.666 14.5 -60.999s25.167 -28.333 46.5 -39c-21.333 -10.667 -36.833 -23.667 -46.5 -39s-14.5 -35.666 -14.5 -60.999v-207c0 -18 -1 -32 -3 -42s-5.66699 -17.667 -11 -23
c-4.66699 -5.33301 -11.167 -8.83301 -19.5 -10.5s-21.5 -2.5 -39.5 -2.5h-13v-45h14c24.667 0 44.5 2 59.5 6s27.5 11 37.5 21c10 9.33301 16.833 20.833 20.5 34.5s5.5 33.834 5.5 60.501v207c0 28 6 48 18 60c12.667 12.667 27 19 43 19h18z" />
    <glyph glyph-name="asciitilde" unicode="~" 
d="M461 277l-31 31c-18.667 -18.667 -33.334 -30.834 -44.001 -36.501s-23.667 -8.5 -39 -8.5c-10.667 0 -20.834 1.5 -30.501 4.5s-21.834 7.83301 -36.501 14.5l-9 4l-13 6c-20.667 8.66699 -37.5 15 -50.5 19s-25.833 6 -38.5 6c-20.667 0 -38.667 -3.83301 -54 -11.5
s-36 -24.5 -62 -50.5l31 -31c18.667 18.667 33.5 30.834 44.5 36.501s23.833 8.5 38.5 8.5c10.667 0 20.834 -1.5 30.501 -4.5s21.834 -7.83301 36.501 -14.5l9 -4l13 -6c20.667 -8.66699 37.5 -15 50.5 -19s25.833 -6 38.5 -6c20.667 0 38.834 4 54.501 12
s36.167 24.667 61.5 50z" />
    <glyph glyph-name="FL20ACh" horiz-adv-x="676" 
d="M600 202h-53c-10.667 -49.333 -32.834 -88.333 -66.501 -117s-74.5 -43 -122.5 -43c-25.333 0 -49.666 4.66699 -72.999 14s-44 23 -62 41c-10 10 -18.333 20.333 -25 31s-12 22.667 -16 36s-7 28.5 -9 45.5s-3.33301 36.5 -4 58.5h244v38h-245v106h245v38h-244
c0.666992 21.333 2 40 4 56s5.16699 30.5 9.5 43.5s9.66602 24.667 15.999 35s14.5 20.5 24.5 30.5c18 18 38.667 31.667 62 41s47.666 14 72.999 14c48 0 88.5 -14.333 121.5 -43s54.833 -67.667 65.5 -117h55c-6 32 -16 60.833 -30 86.5s-31.333 47.5 -52 65.5
s-44.5 31.833 -71.5 41.5s-56.5 14.5 -88.5 14.5c-34 0 -66.333 -6.33301 -97 -19s-57.667 -30.667 -81 -54c-25.333 -25.333 -42.166 -53 -50.499 -83s-13.166 -67.333 -14.499 -112h-65v-38h64v-106h-64v-38h65c0.666992 -23.333 2 -44.5 4 -63.5s5.33301 -36.5 10 -52.5
s11 -31 19 -45s18.667 -27.333 32 -40c23.333 -23.333 50.333 -41.333 81 -54s63 -19 97 -19c31.333 0 60.5 4.83301 87.5 14.5s51 23.5 72 41.5s38.5 39.833 52.5 65.5s24 54.5 30 86.5z" />
    <glyph glyph-name="FL20ACh" unicode="&#x20ac;" horiz-adv-x="676" 
d="M600 202h-53c-10.667 -49.333 -32.834 -88.333 -66.501 -117s-74.5 -43 -122.5 -43c-25.333 0 -49.666 4.66699 -72.999 14s-44 23 -62 41c-10 10 -18.333 20.333 -25 31s-12 22.667 -16 36s-7 28.5 -9 45.5s-3.33301 36.5 -4 58.5h244v38h-245v106h245v38h-244
c0.666992 21.333 2 40 4 56s5.16699 30.5 9.5 43.5s9.66602 24.667 15.999 35s14.5 20.5 24.5 30.5c18 18 38.667 31.667 62 41s47.666 14 72.999 14c48 0 88.5 -14.333 121.5 -43s54.833 -67.667 65.5 -117h55c-6 32 -16 60.833 -30 86.5s-31.333 47.5 -52 65.5
s-44.5 31.833 -71.5 41.5s-56.5 14.5 -88.5 14.5c-34 0 -66.333 -6.33301 -97 -19s-57.667 -30.667 -81 -54c-25.333 -25.333 -42.166 -53 -50.499 -83s-13.166 -67.333 -14.499 -112h-65v-38h64v-106h-64v-38h65c0.666992 -23.333 2 -44.5 4 -63.5s5.33301 -36.5 10 -52.5
s11 -31 19 -45s18.667 -27.333 32 -40c23.333 -23.333 50.333 -41.333 81 -54s63 -19 97 -19c31.333 0 60.5 4.83301 87.5 14.5s51 23.5 72 41.5s38.5 39.833 52.5 65.5s24 54.5 30 86.5z" />
    <glyph glyph-name="quotesinglbase" horiz-adv-x="260" 
d="M165 0v70h-70v-140z" />
    <glyph glyph-name="quotesinglbase" unicode="&#x201a;" horiz-adv-x="260" 
d="M165 0v70h-70v-140z" />
    <glyph glyph-name="florin" horiz-adv-x="394" 
d="M364 667l-0.00195312 45h-44c-36.667 0 -67.167 -11.5 -91.5 -34.5s-39.833 -53.5 -46.5 -91.5l-36 -206h-116v-38h109l-101 -572h51l101 572h116v38h-109l36 207c4.66699 26 14.334 45.833 29.001 59.5s34.334 20.5 59.001 20.5h43z" />
    <glyph glyph-name="florin" unicode="&#x192;" horiz-adv-x="394" 
d="M364 667l-0.00195312 45h-44c-36.667 0 -67.167 -11.5 -91.5 -34.5s-39.833 -53.5 -46.5 -91.5l-36 -206h-116v-38h109l-101 -572h51l101 572h116v38h-109l36 207c4.66699 26 14.334 45.833 29.001 59.5s34.334 20.5 59.001 20.5h43z" />
    <glyph glyph-name="quotedblbase" horiz-adv-x="416" 
d="M321 0v70h-70v-140zM165 0v70h-70v-140z" />
    <glyph glyph-name="quotedblbase" unicode="&#x201e;" horiz-adv-x="416" 
d="M321 0v70h-70v-140zM165 0v70h-70v-140z" />
    <glyph glyph-name="ellipsis" unicode="&#x85;" horiz-adv-x="724" 
d="M629 0v74h-74v-74h74zM399 0v74h-74v-74h74zM169 0v74h-74v-74h74z" />
    <glyph glyph-name="ellipsis" unicode="&#x2026;" horiz-adv-x="724" 
d="M629 0v74h-74v-74h74zM399 0v74h-74v-74h74zM169 0v74h-74v-74h74z" />
    <glyph glyph-name="dagger" horiz-adv-x="614" 
d="M534 457v45h-203v210h-51v-210h-200v-45h200v-457h51v457h203z" />
    <glyph glyph-name="dagger" unicode="&#x2020;" horiz-adv-x="614" 
d="M534 457v45h-203v210h-51v-210h-200v-45h200v-457h51v457h203z" />
    <glyph glyph-name="daggerdbl" horiz-adv-x="614" 
d="M534 -20v45h-203v432h203v45h-203v210h-51v-210h-200v-45h200v-432h-200v-45h200v-210h51v210h203z" />
    <glyph glyph-name="daggerdbl" unicode="&#x2021;" horiz-adv-x="614" 
d="M534 -20v45h-203v432h203v45h-203v210h-51v-210h-200v-45h200v-432h-200v-45h200v-210h51v210h203z" />
    <glyph glyph-name="circumflex" horiz-adv-x="500" 
d="M400 590l-123 147h-54l-123 -147h57l93 109l93 -109h57z" />
    <glyph glyph-name="circumflex" unicode="&#x2c6;" horiz-adv-x="500" 
d="M400 590l-123 147h-54l-123 -147h57l93 109l93 -109h57z" />
    <glyph glyph-name="perthousand" horiz-adv-x="1168" 
d="M1099 127v107c0 39.333 -12.167 71.5 -36.5 96.5s-55.833 37.5 -94.5 37.5s-70.334 -12.5 -95.001 -37.5s-37 -57.167 -37 -96.5v-107c0 -39.333 12.333 -71.5 37 -96.5s56.334 -37.5 95.001 -37.5s70.167 12.5 94.5 37.5s36.5 57.167 36.5 96.5zM1055 128
c0 -30.667 -7 -54.5 -21 -71.5s-36 -25.5 -66 -25.5c-30.667 0 -53 8.5 -67 25.5s-21 41.167 -21 72.5v103c0 31.333 7 55.5 21 72.5s36.333 25.5 67 25.5c30 0 52 -8.66699 66 -26s21 -41.333 21 -72v-104zM759 127v107c0 39.333 -12.167 71.5 -36.5 96.5
s-55.833 37.5 -94.5 37.5s-70.334 -12.5 -95.001 -37.5s-37 -57.167 -37 -96.5v-107c0 -39.333 12.333 -71.5 37 -96.5s56.334 -37.5 95.001 -37.5s70.167 12.5 94.5 37.5s36.5 57.167 36.5 96.5zM715 129c0 -30.667 -7 -54.667 -21 -72s-36 -26 -66 -26
s-52.167 8.5 -66.5 25.5s-21.5 41.167 -21.5 72.5v103c0 31.333 7.16699 55.5 21.5 72.5s36.5 25.5 66.5 25.5s52 -8.66699 66 -26s21 -41.333 21 -72v-103zM603 712h-45l-332 -712h45zM332 478v107c0 39.333 -12.167 71.5 -36.5 96.5s-55.833 37.5 -94.5 37.5
s-70.334 -12.5 -95.001 -37.5s-37 -57.167 -37 -96.5v-107c0 -38.667 12.333 -70.5 37 -95.5s56.334 -37.5 95.001 -37.5s70.167 12.333 94.5 37s36.5 56.667 36.5 96zM288 480c0 -30.667 -7.16797 -54.5 -21.501 -71.5s-36.166 -25.5 -65.499 -25.5
c-30 0 -52.167 8.5 -66.5 25.5s-21.5 40.833 -21.5 71.5v103c0 31.333 7.16699 55.5 21.5 72.5s36.5 25.5 66.5 25.5s52 -8.66699 66 -26s21 -41.333 21 -72v-103z" />
    <glyph glyph-name="perthousand" unicode="&#x2030;" horiz-adv-x="1168" 
d="M1099 127v107c0 39.333 -12.167 71.5 -36.5 96.5s-55.833 37.5 -94.5 37.5s-70.334 -12.5 -95.001 -37.5s-37 -57.167 -37 -96.5v-107c0 -39.333 12.333 -71.5 37 -96.5s56.334 -37.5 95.001 -37.5s70.167 12.5 94.5 37.5s36.5 57.167 36.5 96.5zM1055 128
c0 -30.667 -7 -54.5 -21 -71.5s-36 -25.5 -66 -25.5c-30.667 0 -53 8.5 -67 25.5s-21 41.167 -21 72.5v103c0 31.333 7 55.5 21 72.5s36.333 25.5 67 25.5c30 0 52 -8.66699 66 -26s21 -41.333 21 -72v-104zM759 127v107c0 39.333 -12.167 71.5 -36.5 96.5
s-55.833 37.5 -94.5 37.5s-70.334 -12.5 -95.001 -37.5s-37 -57.167 -37 -96.5v-107c0 -39.333 12.333 -71.5 37 -96.5s56.334 -37.5 95.001 -37.5s70.167 12.5 94.5 37.5s36.5 57.167 36.5 96.5zM715 129c0 -30.667 -7 -54.667 -21 -72s-36 -26 -66 -26
s-52.167 8.5 -66.5 25.5s-21.5 41.167 -21.5 72.5v103c0 31.333 7.16699 55.5 21.5 72.5s36.5 25.5 66.5 25.5s52 -8.66699 66 -26s21 -41.333 21 -72v-103zM603 712h-45l-332 -712h45zM332 478v107c0 39.333 -12.167 71.5 -36.5 96.5s-55.833 37.5 -94.5 37.5
s-70.334 -12.5 -95.001 -37.5s-37 -57.167 -37 -96.5v-107c0 -38.667 12.333 -70.5 37 -95.5s56.334 -37.5 95.001 -37.5s70.167 12.333 94.5 37s36.5 56.667 36.5 96zM288 480c0 -30.667 -7.16797 -54.5 -21.501 -71.5s-36.166 -25.5 -65.499 -25.5
c-30 0 -52.167 8.5 -66.5 25.5s-21.5 40.833 -21.5 71.5v103c0 31.333 7.16699 55.5 21.5 72.5s36.5 25.5 66.5 25.5s52 -8.66699 66 -26s21 -41.333 21 -72v-103z" />
    <glyph glyph-name="Scaron" horiz-adv-x="587" 
d="M528 191c0 28 -5.33008 54.001 -15.9971 78.001s-26 44 -46 60c-15.333 12.667 -32 22.5 -50 29.5s-43.667 12.833 -77 17.5l-43 7l-34 5c-20 3.33301 -39.5 8.83301 -58.5 16.5s-34.833 16.834 -47.5 27.501c-24.667 20.667 -37 51.667 -37 93
c0 45.333 14.667 81.166 44 107.499s69.666 39.5 120.999 39.5c39.333 0 71.833 -5.5 97.5 -16.5s50.834 -27.5 75.501 -49.5l35 35c-31.333 27.333 -62.5 47 -93.5 59s-68.167 18 -111.5 18c-68 0 -121.833 -17.667 -161.5 -53s-59.5 -82.666 -59.5 -141.999
c0 -56 18.667 -99.667 56 -131c30.667 -26.667 73 -44 127 -52l40 -6l43 -7c28.667 -4.66699 49.667 -9.33398 63 -14.001s26.666 -12.667 39.999 -24c26 -22.667 39 -56 39 -100c0 -46 -16.333 -82 -49 -108s-77.334 -39 -134.001 -39
c-43.333 0 -79.833 6.16699 -109.5 18.5s-60.5 34.166 -92.5 65.499l-38 -38c33.333 -33.333 68.166 -57.333 104.499 -72s80.5 -22 132.5 -22c74 0 132.5 17.833 175.5 53.5s64.5 83.5 64.5 143.5zM437.003 927.001h-57l-93 -109l-93 109h-57l123 -147h54z" />
    <glyph glyph-name="Scaron" unicode="&#x160;" horiz-adv-x="587" 
d="M528 191c0 28 -5.33008 54.001 -15.9971 78.001s-26 44 -46 60c-15.333 12.667 -32 22.5 -50 29.5s-43.667 12.833 -77 17.5l-43 7l-34 5c-20 3.33301 -39.5 8.83301 -58.5 16.5s-34.833 16.834 -47.5 27.501c-24.667 20.667 -37 51.667 -37 93
c0 45.333 14.667 81.166 44 107.499s69.666 39.5 120.999 39.5c39.333 0 71.833 -5.5 97.5 -16.5s50.834 -27.5 75.501 -49.5l35 35c-31.333 27.333 -62.5 47 -93.5 59s-68.167 18 -111.5 18c-68 0 -121.833 -17.667 -161.5 -53s-59.5 -82.666 -59.5 -141.999
c0 -56 18.667 -99.667 56 -131c30.667 -26.667 73 -44 127 -52l40 -6l43 -7c28.667 -4.66699 49.667 -9.33398 63 -14.001s26.666 -12.667 39.999 -24c26 -22.667 39 -56 39 -100c0 -46 -16.333 -82 -49 -108s-77.334 -39 -134.001 -39
c-43.333 0 -79.833 6.16699 -109.5 18.5s-60.5 34.166 -92.5 65.499l-38 -38c33.333 -33.333 68.166 -57.333 104.499 -72s80.5 -22 132.5 -22c74 0 132.5 17.833 175.5 53.5s64.5 83.5 64.5 143.5zM437.003 927.001h-57l-93 -109l-93 109h-57l123 -147h54z" />
    <glyph glyph-name="guilsinglleft" horiz-adv-x="320" 
d="M238 69v66l-130 130l130 130v66l-196 -196z" />
    <glyph glyph-name="guilsinglleft" unicode="&#x2039;" horiz-adv-x="320" 
d="M238 69v66l-130 130l130 130v66l-196 -196z" />
    <glyph glyph-name="OE" horiz-adv-x="997" 
d="M569 47l1 291h313v42h-313l-1 285h369v47h-422v-85c-48.667 60.667 -112 91 -190 91c-33.333 0 -65.5 -6.33301 -96.5 -19s-58.167 -30.667 -81.5 -54c-16 -16 -28.5 -32.667 -37.5 -50s-15.5 -36.333 -19.5 -57s-6.5 -44.167 -7.5 -70.5s-1.5 -63.5 -1.5 -111.5
s0.5 -85.167 1.5 -111.5s3.5 -49.833 7.5 -70.5s10.5 -39.667 19.5 -57s21.5 -34 37.5 -50c23.333 -23.333 50.5 -41.333 81.5 -54s63.167 -19 96.5 -19c36.667 0 71.5 7.66699 104.5 23s61.5 38 85.5 68v-85h425v47h-372zM516 356c0 -44 -0.5 -78.5 -1.5 -103.5
s-3.33301 -46.833 -7 -65.5s-9.16699 -35.167 -16.5 -49.5s-17.333 -27.833 -30 -40.5c-36.667 -36.667 -81.667 -55 -135 -55s-98.333 18.333 -135 55c-12.667 12.667 -22.667 26.167 -30 40.5s-12.833 30.833 -16.5 49.5s-6 40.5 -7 65.5s-1.5 59.5 -1.5 103.5
s0.5 78.5 1.5 103.5s3.33301 46.833 7 65.5s9.16699 35.167 16.5 49.5s17.333 27.833 30 40.5c36.667 36.667 81.667 55 135 55s98.333 -18.333 135 -55c12.667 -12.667 22.667 -26.167 30 -40.5s12.833 -30.833 16.5 -49.5s6 -40.5 7 -65.5s1.5 -59.5 1.5 -103.5z" />
    <glyph glyph-name="OE" unicode="&#x152;" horiz-adv-x="997" 
d="M569 47l1 291h313v42h-313l-1 285h369v47h-422v-85c-48.667 60.667 -112 91 -190 91c-33.333 0 -65.5 -6.33301 -96.5 -19s-58.167 -30.667 -81.5 -54c-16 -16 -28.5 -32.667 -37.5 -50s-15.5 -36.333 -19.5 -57s-6.5 -44.167 -7.5 -70.5s-1.5 -63.5 -1.5 -111.5
s0.5 -85.167 1.5 -111.5s3.5 -49.833 7.5 -70.5s10.5 -39.667 19.5 -57s21.5 -34 37.5 -50c23.333 -23.333 50.5 -41.333 81.5 -54s63.167 -19 96.5 -19c36.667 0 71.5 7.66699 104.5 23s61.5 38 85.5 68v-85h425v47h-372zM516 356c0 -44 -0.5 -78.5 -1.5 -103.5
s-3.33301 -46.833 -7 -65.5s-9.16699 -35.167 -16.5 -49.5s-17.333 -27.833 -30 -40.5c-36.667 -36.667 -81.667 -55 -135 -55s-98.333 18.333 -135 55c-12.667 12.667 -22.667 26.167 -30 40.5s-12.833 30.833 -16.5 49.5s-6 40.5 -7 65.5s-1.5 59.5 -1.5 103.5
s0.5 78.5 1.5 103.5s3.33301 46.833 7 65.5s9.16699 35.167 16.5 49.5s17.333 27.833 30 40.5c36.667 36.667 81.667 55 135 55s98.333 -18.333 135 -55c12.667 -12.667 22.667 -26.167 30 -40.5s12.833 -30.833 16.5 -49.5s6 -40.5 7 -65.5s1.5 -59.5 1.5 -103.5z" />
    <glyph glyph-name="quoteleft" horiz-adv-x="260" 
d="M165 642v140l-70 -70v-70h70z" />
    <glyph glyph-name="quoteleft" unicode="&#x2018;" horiz-adv-x="260" 
d="M165 642v140l-70 -70v-70h70z" />
    <glyph glyph-name="quoteright" horiz-adv-x="260" 
d="M165 642v70h-70v-140z" />
    <glyph glyph-name="quoteright" unicode="&#x2019;" horiz-adv-x="260" 
d="M165 642v70h-70v-140z" />
    <glyph glyph-name="quotedblleft" horiz-adv-x="416" 
d="M321 642v140l-70 -70v-70h70zM165 642v140l-70 -70v-70h70z" />
    <glyph glyph-name="quotedblleft" unicode="&#x201c;" horiz-adv-x="416" 
d="M321 642v140l-70 -70v-70h70zM165 642v140l-70 -70v-70h70z" />
    <glyph glyph-name="quotedblright" horiz-adv-x="416" 
d="M321 642v70h-70v-140zM165 642v70h-70v-140z" />
    <glyph glyph-name="quotedblright" unicode="&#x201d;" horiz-adv-x="416" 
d="M321 642v70h-70v-140zM165 642v70h-70v-140z" />
    <glyph glyph-name="bullet" horiz-adv-x="546" 
d="M436 334c0 22 -4.16699 43 -12.5 63s-20 37.5 -35 52.5s-32.5 26.667 -52.5 35s-41 12.5 -63 12.5s-43 -4.16699 -63 -12.5s-37.5 -20 -52.5 -35s-26.667 -32.5 -35 -52.5s-12.5 -41 -12.5 -63s4.16699 -43 12.5 -63s20 -37.5 35 -52.5s32.5 -26.667 52.5 -35
s41 -12.5 63 -12.5s43 4.16699 63 12.5s37.5 20 52.5 35s26.667 32.5 35 52.5s12.5 41 12.5 63z" />
    <glyph glyph-name="bullet" unicode="&#x2022;" horiz-adv-x="546" 
d="M436 334c0 22 -4.16699 43 -12.5 63s-20 37.5 -35 52.5s-32.5 26.667 -52.5 35s-41 12.5 -63 12.5s-43 -4.16699 -63 -12.5s-37.5 -20 -52.5 -35s-26.667 -32.5 -35 -52.5s-12.5 -41 -12.5 -63s4.16699 -43 12.5 -63s20 -37.5 35 -52.5s32.5 -26.667 52.5 -35
s41 -12.5 63 -12.5s43 4.16699 63 12.5s37.5 20 52.5 35s26.667 32.5 35 52.5s12.5 41 12.5 63z" />
    <glyph glyph-name="endash" 
d="M461 240v47h-408v-47h408z" />
    <glyph glyph-name="endash" unicode="&#x2013;" 
d="M461 240v47h-408v-47h408z" />
    <glyph glyph-name="emdash" horiz-adv-x="873" 
d="M791 240v47h-709v-47h709z" />
    <glyph glyph-name="emdash" unicode="&#x2014;" horiz-adv-x="873" 
d="M791 240v47h-709v-47h709z" />
    <glyph glyph-name="tilde" horiz-adv-x="500" 
d="M399 653l-30.0039 29c-14 -14 -25.167 -23 -33.5 -27s-16.833 -6 -25.5 -6c-9.33301 0 -18 1.66699 -26 5s-18 8.66602 -30 15.999c-14 8.66699 -25.667 14.834 -35 18.501s-20.666 5.5 -33.999 5.5c-12.667 0 -25.5 -2.83301 -38.5 -8.5s-29.833 -18.834 -50.5 -39.501
l30 -29c14 14 25 23 33 27s16.667 6 26 6c8.66699 0 16.834 -1.66699 24.501 -5s17.834 -8.66602 30.501 -15.999h1c14 -8 25.833 -14 35.5 -18s20.834 -6 33.501 -6c12 0 24.833 3 38.5 9s30.5 19 50.5 39z" />
    <glyph glyph-name="tilde" unicode="&#x2dc;" horiz-adv-x="500" 
d="M399 653l-30.0039 29c-14 -14 -25.167 -23 -33.5 -27s-16.833 -6 -25.5 -6c-9.33301 0 -18 1.66699 -26 5s-18 8.66602 -30 15.999c-14 8.66699 -25.667 14.834 -35 18.501s-20.666 5.5 -33.999 5.5c-12.667 0 -25.5 -2.83301 -38.5 -8.5s-29.833 -18.834 -50.5 -39.501
l30 -29c14 14 25 23 33 27s16.667 6 26 6c8.66699 0 16.834 -1.66699 24.501 -5s17.834 -8.66602 30.501 -15.999h1c14 -8 25.833 -14 35.5 -18s20.834 -6 33.501 -6c12 0 24.833 3 38.5 9s30.5 19 50.5 39z" />
    <glyph glyph-name="trademark" horiz-adv-x="809" 
d="M753 285v427h-44l-133 -270l-133 270h-44v-427h44v328l110 -218h46l110 218v-328h44zM320 671v41h-288v-41h122v-386h44v386h122z" />
    <glyph glyph-name="trademark" unicode="&#x2122;" horiz-adv-x="809" 
d="M753 285v427h-44l-133 -270l-133 270h-44v-427h44v328l110 -218h46l110 218v-328h44zM320 671v41h-288v-41h122v-386h44v386h122z" />
    <glyph glyph-name="scaron" horiz-adv-x="494" 
d="M438 137c0 43.333 -12.168 74.168 -36.501 92.501s-59.166 29.5 -104.499 33.5l-39 4l-39 3c-34 3.33301 -58.833 11.333 -74.5 24s-23.5 31.667 -23.5 57c0 29.333 10.667 52.166 32 68.499s51.666 24.5 90.999 24.5c52.667 0 97.667 -13.667 135 -41l34 34
c-21.333 16 -46.666 28.5 -75.999 37.5s-60.333 13.5 -93 13.5c-52.667 0 -94.667 -12.5 -126 -37.5s-47 -58.167 -47 -99.5c0 -76 48.333 -118 145 -126l36 -3l44 -4c61.333 -6 92 -33 92 -81c0 -65.333 -48.333 -98 -145 -98c-68 0 -120.667 19.667 -158 59l-35 -35
c48 -46 113 -69 195 -69c59.333 0 106.333 12.833 141 38.5s52 60.5 52 104.5zM393.999 737.002h-57l-93 -109l-93 109h-57l123 -147h54z" />
    <glyph glyph-name="scaron" unicode="&#x161;" horiz-adv-x="494" 
d="M438 137c0 43.333 -12.168 74.168 -36.501 92.501s-59.166 29.5 -104.499 33.5l-39 4l-39 3c-34 3.33301 -58.833 11.333 -74.5 24s-23.5 31.667 -23.5 57c0 29.333 10.667 52.166 32 68.499s51.666 24.5 90.999 24.5c52.667 0 97.667 -13.667 135 -41l34 34
c-21.333 16 -46.666 28.5 -75.999 37.5s-60.333 13.5 -93 13.5c-52.667 0 -94.667 -12.5 -126 -37.5s-47 -58.167 -47 -99.5c0 -76 48.333 -118 145 -126l36 -3l44 -4c61.333 -6 92 -33 92 -81c0 -65.333 -48.333 -98 -145 -98c-68 0 -120.667 19.667 -158 59l-35 -35
c48 -46 113 -69 195 -69c59.333 0 106.333 12.833 141 38.5s52 60.5 52 104.5zM393.999 737.002h-57l-93 -109l-93 109h-57l123 -147h54z" />
    <glyph glyph-name="guilsinglright" horiz-adv-x="320" 
d="M278 265l-196 196v-66l130 -130l-130 -130v-66z" />
    <glyph glyph-name="guilsinglright" unicode="&#x203a;" horiz-adv-x="320" 
d="M278 265l-196 196v-66l130 -130l-130 -130v-66z" />
    <glyph glyph-name="oe" horiz-adv-x="860" 
d="M792 230l-0.000976562 23.0039c0 73.333 -17.167 130.833 -51.5 172.5s-81.5 62.5 -141.5 62.5c-38 0 -71.333 -9 -100 -27s-50.667 -44 -66 -78c-15.333 33.333 -38 59.166 -68 77.499s-64 27.5 -102 27.5c-54 0 -98.667 -17.667 -134 -53
c-23.333 -23.333 -39.166 -51.333 -47.499 -84s-12.5 -69.334 -12.5 -110.001s4.16699 -77.334 12.5 -110.001s24.166 -60.667 47.499 -84c35.333 -35.333 80 -53 134 -53c38 0 72 9.16699 102 27.5s52.667 44.166 68 77.499c32.667 -70 92 -105 178 -105
c38.667 0 70.834 5.83301 96.501 17.5s51.5 30.5 77.5 56.5l-38 30c-20.667 -20.667 -41 -35.5 -61 -44.5s-44 -13.5 -72 -13.5c-50.667 0 -89.5 16.333 -116.5 49s-40.5 79.667 -40.5 141h335zM740.999 271.004h-284.002c1.33301 22.667 3 39.834 5 51.501
s6 24.834 12 39.501c10.667 24.667 27.334 44.334 50.001 59.001s47.667 22 75 22s52.333 -7.33301 75 -22s39.334 -34.334 50.001 -59.001c6 -14.667 10.167 -27.834 12.5 -39.501s3.83301 -28.834 4.5 -51.501zM405.997 241.004c0 -36 -2.66699 -67.333 -8 -94
s-17 -49 -35 -67c-27.333 -27.333 -60.666 -41 -99.999 -41s-72.666 13.667 -99.999 41c-18 18 -29.667 40.333 -35 67s-8 58 -8 94s2.66699 67.333 8 94s17 49 35 67c27.333 27.333 60.666 41 99.999 41s72.666 -13.667 99.999 -41c18 -18 29.667 -40.333 35 -67
s8 -58 8 -94z" />
    <glyph glyph-name="oe" unicode="&#x153;" horiz-adv-x="860" 
d="M792 230l-0.000976562 23.0039c0 73.333 -17.167 130.833 -51.5 172.5s-81.5 62.5 -141.5 62.5c-38 0 -71.333 -9 -100 -27s-50.667 -44 -66 -78c-15.333 33.333 -38 59.166 -68 77.499s-64 27.5 -102 27.5c-54 0 -98.667 -17.667 -134 -53
c-23.333 -23.333 -39.166 -51.333 -47.499 -84s-12.5 -69.334 -12.5 -110.001s4.16699 -77.334 12.5 -110.001s24.166 -60.667 47.499 -84c35.333 -35.333 80 -53 134 -53c38 0 72 9.16699 102 27.5s52.667 44.166 68 77.499c32.667 -70 92 -105 178 -105
c38.667 0 70.834 5.83301 96.501 17.5s51.5 30.5 77.5 56.5l-38 30c-20.667 -20.667 -41 -35.5 -61 -44.5s-44 -13.5 -72 -13.5c-50.667 0 -89.5 16.333 -116.5 49s-40.5 79.667 -40.5 141h335zM740.999 271.004h-284.002c1.33301 22.667 3 39.834 5 51.501
s6 24.834 12 39.501c10.667 24.667 27.334 44.334 50.001 59.001s47.667 22 75 22s52.333 -7.33301 75 -22s39.334 -34.334 50.001 -59.001c6 -14.667 10.167 -27.834 12.5 -39.501s3.83301 -28.834 4.5 -51.501zM405.997 241.004c0 -36 -2.66699 -67.333 -8 -94
s-17 -49 -35 -67c-27.333 -27.333 -60.666 -41 -99.999 -41s-72.666 13.667 -99.999 41c-18 18 -29.667 40.333 -35 67s-8 58 -8 94s2.66699 67.333 8 94s17 49 35 67c27.333 27.333 60.666 41 99.999 41s72.666 -13.667 99.999 -41c18 -18 29.667 -40.333 35 -67
s8 -58 8 -94z" />
    <glyph glyph-name="Ydieresis" horiz-adv-x="494" 
d="M484 712h-58l-177 -360l-181 360h-58l210 -417v-295h54v295zM380 790v77h-58v-77h58zM172 790v77h-58v-77h58z" />
    <glyph glyph-name="Ydieresis" unicode="&#x178;" horiz-adv-x="494" 
d="M484 712h-58l-177 -360l-181 360h-58l210 -417v-295h54v295zM380 790v77h-58v-77h58zM172 790v77h-58v-77h58z" />
    <glyph glyph-name="nonbreakingspace" unicode="&#xa0;" horiz-adv-x="255" 
 />
    <glyph glyph-name="exclamdown" unicode="&#xa1;" horiz-adv-x="304" 
d="M171 415v67h-67v-67h67zM165 -230l-3 520h-49l-3 -520h55z" />
    <glyph glyph-name="cent" unicode="&#xa2;" horiz-adv-x="498" 
d="M440 193l-35 31.998c-18.667 -21.333 -36.5 -36.5 -53.5 -45.5s-36.833 -14.167 -59.5 -15.5v404c22.667 -0.666992 42.5 -5.66699 59.5 -15s34.833 -24.666 53.5 -45.999l35 32c-24 26.667 -47 45.5 -69 56.5s-48.333 16.833 -79 17.5v99h-43v-101
c-56 -6.66699 -100 -31.667 -132 -75s-48 -100 -48 -170s16 -126.5 48 -169.5s76 -68.167 132 -75.5v-121h43v119c30.667 1.33301 57 7.33301 79 18s45 29.334 69 56.001zM249 166.998c-40.667 7.33301 -72.667 27.668 -96 61.001c-12 17.333 -20.5 36.5 -25.5 57.5
s-7.5 47.833 -7.5 80.5s2.5 59.5 7.5 80.5s13.5 40.167 25.5 57.5c23.333 33.333 55.333 53.666 96 60.999v-398z" />
    <glyph glyph-name="sterling" unicode="&#xa3;" horiz-adv-x="537" 
d="M482 0v47.999h-314v294h158v38h-158v111c0 57.333 13.667 101.5 41 132.5s66.333 46.5 117 46.5c28.667 0 51.667 -4.16699 69 -12.5s34 -20.833 50 -37.5l37 37c-40.667 40.667 -92.667 61 -156 61c-64.667 0 -116.167 -19.667 -154.5 -59s-57.5 -91.666 -57.5 -156.999
v-122h-64v-38h64v-342h368z" />
    <glyph glyph-name="currency" unicode="&#xa4;" horiz-adv-x="657" 
d="M572 54l-74 73.999c31.333 38.667 47 84.334 47 137.001c0 26 -4 50.833 -12 74.5s-19.667 44.834 -35 63.501l74 73l-32 32l-75 -73c-38.667 31.333 -84.334 47 -137.001 47s-98.334 -15.667 -137.001 -47l-74 73l-32 -32l74 -73
c-15.333 -18.667 -27.166 -40 -35.499 -64s-12.5 -48.667 -12.5 -74s4.16699 -49.833 12.5 -73.5s20.166 -44.834 35.499 -63.501l-74 -74l32 -32l74 74c18.667 -15.333 39.834 -27.166 63.501 -35.499s48.167 -12.5 73.5 -12.5s49.833 4.16699 73.5 12.5
s44.834 20.166 63.501 35.499l75 -74zM497 264.999c0 -23.333 -4.33301 -45.333 -13 -66s-20.667 -38.667 -36 -54s-33.333 -27.333 -54 -36s-42.667 -13 -66 -13s-45.333 4.33301 -66 13s-38.667 20.667 -54 36s-27.333 33.333 -36 54s-13 42.667 -13 66
s4.33301 45.333 13 66s20.667 38.667 36 54s33.333 27.333 54 36s42.667 13 66 13s45.333 -4.33301 66 -13s38.667 -20.667 54 -36s27.333 -33.333 36 -54s13 -42.667 13 -66z" />
    <glyph glyph-name="yen" unicode="&#xa5;" horiz-adv-x="493" 
d="M483 712h-56l-179 -361l-181 361h-57l164 -326h-109v-38h128l27 -53v-53h-155v-38h155v-204h54v204h154v38h-154v53l27 53h127v38h-108z" />
    <glyph glyph-name="brokenbar" unicode="&#xa6;" horiz-adv-x="328" 
d="M184 436v350h-51v-350h51zM184 -74v350h-51v-350h51z" />
    <glyph glyph-name="section" unicode="&#xa7;" horiz-adv-x="566" 
d="M469 247c0 43.333 -11.999 81.4971 -35.999 114.497s-56.667 55.167 -98 66.5l-83 23c-28 7.33301 -50.167 19.833 -66.5 37.5s-24.5 40.834 -24.5 69.501c0 37.333 10.833 65.5 32.5 84.5s51.5 28.5 89.5 28.5s67.5 -8.33301 88.5 -25s33.167 -43 36.5 -79h53
c-2.66699 47.333 -20.834 84.333 -54.501 111s-74.834 40 -123.501 40c-49.333 0 -90.833 -14.5 -124.5 -43.5s-50.5 -67.833 -50.5 -116.5c0 -35.333 8.33301 -64.166 25 -86.499s41.334 -40.5 74.001 -54.5c-32 -14.667 -58.333 -36.667 -79 -66s-31 -64 -31 -104
c0 -43.333 11.833 -81.333 35.5 -114s56.5 -55 98.5 -67l83 -23c28.667 -8 51.5 -22 68.5 -42s25.5 -43.333 25.5 -70c0 -38 -11.167 -67.333 -33.5 -88s-52.833 -31 -91.5 -31s-69.167 9 -91.5 27s-35.166 44.667 -38.499 80h-54c3.33301 -48 22.166 -85.833 56.499 -113.5
s76.833 -41.5 127.5 -41.5c52.667 0 95.667 15.667 129 47s50 71.333 50 120c0 35.333 -9.33301 65.833 -28 91.5s-43.667 43.834 -75 54.501c32 14.667 58.333 36.667 79 66s31 64 31 104zM415.001 246.997c0 -42 -11.667 -75.667 -35 -101
c-25.333 -27.333 -57.666 -41 -96.999 -41s-71.666 13.667 -96.999 41c-23.333 25.333 -35 59 -35 101c0 22.667 2.66699 41.667 8 57s14.333 30 27 44c25.333 27.333 57.666 41 96.999 41c37.333 0 69.666 -13.667 96.999 -41c13.333 -13.333 22.5 -28 27.5 -44
s7.5 -35 7.5 -57z" />
    <glyph glyph-name="dieresis" unicode="&#xa8;" horiz-adv-x="500" 
d="M383 600v77h-58v-77h58zM175 600v77h-58v-77h58z" />
    <glyph glyph-name="copyright" unicode="&#xa9;" horiz-adv-x="894" 
d="M809 356c0 49.333 -9.33301 96 -28 140s-44.667 82.667 -78 116s-72 59.333 -116 78s-90.667 28 -140 28s-96 -9.33301 -140 -28s-82.667 -44.667 -116 -78s-59.333 -72 -78 -116s-28 -90.667 -28 -140s9.33301 -96 28 -140s44.667 -82.667 78 -116s72 -59.333 116 -78
s90.667 -28 140 -28s96 9.33301 140 28s82.667 44.667 116 78s59.333 72 78 116s28 90.667 28 140zM761 356c0 -42 -8.16699 -82.333 -24.5 -121s-39 -72.834 -68 -102.501s-62.667 -52.834 -101 -69.501s-78.5 -25 -120.5 -25s-82.167 8.33301 -120.5 25
s-72 39.834 -101 69.501s-51.667 63.834 -68 102.501s-24.5 79 -24.5 121s8.16699 82.333 24.5 121s39 72.834 68 102.501s62.667 52.834 101 69.501s78.5 25 120.5 25s82.167 -8.33301 120.5 -25s72 -39.834 101 -69.501s51.667 -63.834 68 -102.501s24.5 -79 24.5 -121z
M582 202l-29.999 30c-17.333 -15.333 -33.333 -26 -48 -32s-32.334 -9 -53.001 -9c-24.667 0 -45.5 4.33301 -62.5 13s-30.5 20.5 -40.5 35.5s-17.333 32.333 -22 52s-7 41.167 -7 64.5s2.33301 44.833 7 64.5s12 37.167 22 52.5s23.667 27.333 41 36s38 13 62 13
c20 0 37.333 -3 52 -9s31 -17 49 -33l30 30c-22 19.333 -42.5 33 -61.5 41s-42.167 12 -69.5 12c-58 0 -102 -19.5 -132 -58.5s-45 -88.5 -45 -148.5s15 -109.333 45 -148s74 -58 132 -58c27.333 0 51 4.16699 71 12.5s40 21.5 60 39.5z" />
    <glyph glyph-name="ordfeminine" unicode="&#xaa;" horiz-adv-x="447" 
d="M356 327v262.001c0 40.667 -12.333 71.834 -37 93.501s-61.667 32.5 -111 32.5c-32 0 -58.5 -4.33301 -79.5 -13s-39.833 -24.334 -56.5 -47.001l32 -27c12 18 25.667 30.5 41 37.5s36.333 10.5 63 10.5c37.333 0 64.166 -7.5 80.499 -22.5s24.5 -37.833 24.5 -68.5v-42
h-121c-41.333 0 -73.833 -9.83301 -97.5 -29.5s-35.5 -46.834 -35.5 -81.501c0 -31.333 9.33301 -56.333 28 -75c12.667 -12.667 27.5 -21.667 44.5 -27s39.5 -8 67.5 -8c26.667 0 48.334 3 65.001 9s33 16.667 49 32v-36h43zM313 461.001
c0 -35.333 -6.66699 -59.334 -20 -72.001c-12 -11.333 -25.333 -18.833 -40 -22.5s-32.667 -5.5 -54 -5.5c-34 0 -58.667 5.83301 -74 17.5s-23 29.834 -23 54.501c0 50 31.667 75 95 75h116v-47z" />
    <glyph glyph-name="guillemotleft" unicode="&#xab;" horiz-adv-x="527" 
d="M445 69v66l-130 130l130 130v66l-196 -196zM238 69v66l-130 130l130 130v66l-196 -196z" />
    <glyph glyph-name="logicalnot" unicode="&#xac;" 
d="M461 107v180h-408v-47h361v-133h47z" />
    <glyph glyph-name="minus" unicode="&#xad;" 
d="M461 240v47h-408v-47h408z" />
    <glyph glyph-name="registered" unicode="&#xae;" horiz-adv-x="894" 
d="M809 356c0 49.333 -9.33301 96 -28 140s-44.667 82.667 -78 116s-72 59.333 -116 78s-90.667 28 -140 28s-96 -9.33301 -140 -28s-82.667 -44.667 -116 -78s-59.333 -72 -78 -116s-28 -90.667 -28 -140s9.33301 -96 28 -140s44.667 -82.667 78 -116s72 -59.333 116 -78
s90.667 -28 140 -28s96 9.33301 140 28s82.667 44.667 116 78s59.333 72 78 116s28 90.667 28 140zM762 356c0 -42.667 -8.16699 -83.334 -24.5 -122.001s-39 -72.834 -68 -102.501s-62.667 -52.834 -101 -69.501s-78.833 -25 -121.5 -25s-83.167 8.33301 -121.5 25
s-72 39.834 -101 69.501s-51.667 63.834 -68 102.501s-24.5 79.334 -24.5 122.001s8.16699 83.334 24.5 122.001s39 72.834 68 102.501s62.667 52.834 101 69.501s78.833 25 121.5 25s83.167 -8.33301 121.5 -25s72 -39.834 101 -69.501s51.667 -63.834 68 -102.501
s24.5 -79.334 24.5 -122.001zM595 156l-101 171c28 8 50.167 21.5 66.5 40.5s24.5 42.833 24.5 71.5c0 33.333 -12.333 61.333 -37 84s-53.667 34 -87 34h-128v-401h45v167h66l99 -167h52zM540 439c0 -22 -8 -40.167 -24 -54.5s-36 -21.5 -60 -21.5h-78v153h78
c24 0 44 -7.33301 60 -22s24 -33 24 -55z" />
    <glyph glyph-name="macron" unicode="&#xaf;" horiz-adv-x="500" 
d="M398 608v46h-296v-46h296z" />
    <glyph glyph-name="degree" unicode="&#xb0;" horiz-adv-x="458" 
d="M386 562c0 21.333 -4 41.5 -12 60.5s-19.333 35.833 -34 50.5s-31.5 26 -50.5 34s-39.167 12 -60.5 12s-41.5 -4 -60.5 -12s-35.833 -19.333 -50.5 -34s-26 -31.5 -34 -50.5s-12 -39.167 -12 -60.5s4 -41.5 12 -60.5s19.333 -35.833 34 -50.5s31.5 -26 50.5 -34
s39.167 -12 60.5 -12s41.5 4 60.5 12s35.833 19.333 50.5 34s26 31.5 34 50.5s12 39.167 12 60.5zM341 562c0 -32.667 -10.667 -60 -32 -82s-48 -33 -80 -33s-58.667 11 -80 33s-32 49.333 -32 82s10.5 60 31.5 82s47.5 33 79.5 33s58.833 -11 80.5 -33
s32.5 -49.333 32.5 -82z" />
    <glyph glyph-name="plusminus" unicode="&#xb1;" 
d="M461 270v47h-180v181h-47v-181h-181v-47h181v-182h47v182h180zM461 0v47h-408v-47h408z" />
    <glyph glyph-name="twosuperior" unicode="&#xb2;" horiz-adv-x="336" 
d="M286 285v40h-183l149 188c12.667 15.333 21.5 29.333 26.5 42s7.5 27.667 7.5 45c0 35.333 -10.833 63.5 -32.5 84.5s-50.167 31.5 -85.5 31.5s-63.833 -10.667 -85.5 -32s-32.5 -49.333 -32.5 -84h44c0 26 7 45.167 21 57.5s31.667 18.5 53 18.5
c22.667 0 40.5 -6.83301 53.5 -20.5s19.5 -32.167 19.5 -55.5c0 -21.333 -7.66699 -42 -23 -62l-168 -213v-40h236z" />
    <glyph glyph-name="threesuperior" unicode="&#xb3;" horiz-adv-x="352" 
d="M302 402c0 52.667 -21.6689 86.999 -65.002 102.999c38 17.333 57 49 57 95c0 34.667 -10.833 62.667 -32.5 84s-50.167 32 -85.5 32c-33.333 0 -61 -9.83301 -83 -29.5s-34.333 -46.5 -37 -80.5h44c2 22 9.66699 39.167 23 51.5s31 18.5 53 18.5
c21.333 0 39 -6.66699 53 -20s21 -32.333 21 -57s-6.33301 -43.667 -19 -57s-31.667 -20 -57 -20h-8v-39h8c28.667 0 49.834 -7 63.501 -21s20.5 -34 20.5 -60c0 -25.333 -7.5 -45.333 -22.5 -60s-34.5 -22 -58.5 -22c-22.667 0 -41.667 6.16699 -57 18.5
s-23.666 30.833 -24.999 55.5h-45c1.33301 -37.333 13.833 -65.666 37.5 -84.999s53.5 -29 89.5 -29c36.667 0 66.667 10.833 90 32.5s35 51.5 35 89.5z" />
    <glyph glyph-name="acute" unicode="&#xb4;" horiz-adv-x="500" 
d="M367 737h-67l-97 -147h58z" />
    <glyph glyph-name="mu" unicode="&#xb5;" horiz-adv-x="556" 
d="M459 0v481.998h-51v-299c0 -45.333 -11.833 -80.666 -35.5 -105.999s-57.167 -38 -100.5 -38s-76.333 12.333 -99 37s-34 60.334 -34 107.001v299h-51v-712h51v269c32 -30 74.333 -45 127 -45c58.667 0 106 21 142 63v-57h51z" />
    <glyph glyph-name="paragraph" unicode="&#xb6;" horiz-adv-x="579" 
d="M469 -230v942h-213c-65.333 0 -116.833 -18.667 -154.5 -56s-56.5 -82 -56.5 -134c0 -24 4.5 -47.333 13.5 -70s22 -43 39 -61s38 -32.333 63 -43s52.833 -16 83.5 -16v-562h51v894h123v-894h51z" />
    <glyph glyph-name="cedilla" unicode="&#xb8;" horiz-adv-x="500" 
d="M308 -70h-55l-72 -150h63z" />
    <glyph glyph-name="onesuperior" unicode="&#xb9;" horiz-adv-x="249" 
d="M169 285v427h-44l-80 -69v-51l80 71v-378h44z" />
    <glyph glyph-name="ordmasculine" unicode="&#xba;" horiz-adv-x="452" 
d="M380 519c0 32.667 -3.33301 61.834 -10 87.501s-19.334 47.834 -38.001 66.501c-28 28 -63.333 42 -106 42s-78 -14 -106 -42c-18.667 -18.667 -31.334 -40.834 -38.001 -66.501s-10 -54.834 -10 -87.501s3.33301 -61.834 10 -87.501s19.334 -47.834 38.001 -66.501
c28 -28 63.333 -42 106 -42s78 14 106 42c18.667 18.667 31.334 40.834 38.001 66.501s10 54.834 10 87.501zM337 519c0 -28 -2 -52.333 -6 -73s-13 -38 -27 -52c-21.333 -21.333 -47.333 -32 -78 -32s-56.667 10.667 -78 32c-14 14 -23 31.333 -27 52s-6 45 -6 73
c0 28.667 2 53.167 6 73.5s13 37.5 27 51.5c21.333 21.333 47.333 32 78 32s56.667 -10.667 78 -32c14 -14 23 -31.167 27 -51.5s6 -44.833 6 -73.5z" />
    <glyph glyph-name="guillemotright" unicode="&#xbb;" horiz-adv-x="527" 
d="M485 265l-196 196v-66l130 -130l-130 -130v-66zM278 265l-196 196v-66l130 -130l-130 -130v-66z" />
    <glyph glyph-name="onequarter" unicode="&#xbc;" horiz-adv-x="756" 
d="M716 67v40h-52v120h-44v-120h-122l153 320h-47l-154 -320v-40h170v-67h44v67h52zM545 712h-45l-332 -712h45zM169 285v427h-44l-80 -69v-51l80 71v-378h44z" />
    <glyph glyph-name="onehalf" unicode="&#xbd;" horiz-adv-x="764" 
d="M714 0v39.999h-183l149 188c12 16 20.667 30.333 26 43s8 27.334 8 44.001c0 35.333 -10.833 63.5 -32.5 84.5s-50.167 31.5 -85.5 31.5s-63.833 -10.667 -85.5 -32s-32.5 -49.333 -32.5 -84h44c0 26 7 45.167 21 57.5s31.667 18.5 53 18.5
c22.667 0 40.5 -6.83301 53.5 -20.5s19.5 -32.167 19.5 -55.5c0 -21.333 -7.66699 -42 -23 -62l-168 -213v-40h236zM530 711.999h-45l-332 -712h45zM169 284.999v427h-44l-80 -69v-51l80 71v-378h44z" />
    <glyph glyph-name="threequarters" unicode="&#xbe;" horiz-adv-x="806" 
d="M766 67v40h-52v120h-44v-120h-122l153 320h-47l-154 -320v-40h170v-67h44v67h52zM605 712h-45l-332 -712h45zM302 402c0 52.667 -21.6689 86.999 -65.002 102.999c38 17.333 57 49 57 95c0 34.667 -10.833 62.667 -32.5 84s-50.167 32 -85.5 32
c-33.333 0 -61 -9.83301 -83 -29.5s-34.333 -46.5 -37 -80.5h44c2 22 9.66699 39.167 23 51.5s31 18.5 53 18.5c21.333 0 39 -6.66699 53 -20s21 -32.333 21 -57s-6.33301 -43.667 -19 -57s-31.667 -20 -57 -20h-8v-39h8c28.667 0 49.834 -7 63.501 -21s20.5 -34 20.5 -60
c0 -25.333 -7.5 -45.333 -22.5 -60s-34.5 -22 -58.5 -22c-22.667 0 -41.667 6.16699 -57 18.5s-23.666 30.833 -24.999 55.5h-45c1.33301 -37.333 13.833 -65.666 37.5 -84.999s53.5 -29 89.5 -29c36.667 0 66.667 10.833 90 32.5s35 51.5 35 89.5z" />
    <glyph glyph-name="questiondown" unicode="&#xbf;" horiz-adv-x="488" 
d="M256 415v67h-67v-67h67zM408 -60l-51 0.00195312c0 -36 -11.833 -66.833 -35.5 -92.5s-54.5 -38.5 -92.5 -38.5c-36.667 0 -67.167 12.5 -91.5 37.5s-36.5 56.167 -36.5 93.5c0 17.333 2.66699 32.666 8 45.999s14 28.666 26 45.999l84 124
c10.667 14.667 18.167 28.667 22.5 42s6.5 29.333 6.5 48v45h-51v-47c0 -9.33301 -1.5 -19.5 -4.5 -30.5s-7.5 -20.833 -13.5 -29.5l-85 -125c-14.667 -21.333 -25.667 -41.166 -33 -59.499s-11 -38.166 -11 -59.499c0 -24.667 4.5 -47.667 13.5 -69
s21.667 -40.166 38 -56.499s35.333 -28.833 57 -37.5s45.167 -13 70.5 -13c26 0 50 4.66699 72 14s41 22.166 57 38.499s28.333 35.166 37 56.499s13 43.666 13 66.999z" />
    <glyph glyph-name="Agrave" unicode="&#xc0;" horiz-adv-x="602" 
d="M587 0l-262 712h-48l-262 -712h58l62 173h332l62 -173h58zM450 221h-298l149 419zM348 780l-97 147h-67l106 -147h58z" />
    <glyph glyph-name="Aacute" unicode="&#xc1;" horiz-adv-x="602" 
d="M587 0l-262 712h-48l-262 -712h58l62 173h332l62 -173h58zM450 221h-298l149 419zM418 927h-67l-97 -147h58z" />
    <glyph glyph-name="Acircumflex" unicode="&#xc2;" horiz-adv-x="602" 
d="M587 0l-262 712h-48l-262 -712h58l62 173h332l62 -173h58zM450 221h-298l149 419zM451 780l-123 147h-54l-123 -147h57l93 109l93 -109h57z" />
    <glyph glyph-name="Atilde" unicode="&#xc3;" horiz-adv-x="602" 
d="M587 0l-262 712h-48l-262 -712h58l62 173h332l62 -173h58zM450 221h-298l149 419zM450 843l-30.0039 29c-14 -14 -25.167 -23 -33.5 -27s-16.833 -6 -25.5 -6c-9.33301 0 -18 1.66699 -26 5s-18 8.66602 -30 15.999c-14 8.66699 -25.667 14.834 -35 18.501
s-20.666 5.5 -33.999 5.5c-12.667 0 -25.5 -2.83301 -38.5 -8.5s-29.833 -18.834 -50.5 -39.501l30 -29c14 14 25 23 33 27s16.667 6 26 6c8.66699 0 16.834 -1.66699 24.501 -5s17.834 -8.66602 30.501 -15.999h1c14 -8 25.833 -14 35.5 -18s20.834 -6 33.501 -6
c12 0 24.833 3 38.5 9s30.5 19 50.5 39z" />
    <glyph glyph-name="Adieresis" unicode="&#xc4;" horiz-adv-x="602" 
d="M587 0l-262 712h-48l-262 -712h58l62 173h332l62 -173h58zM450 221h-298l149 419zM434 790v77h-58v-77h58zM226 790v77h-58v-77h58z" />
    <glyph glyph-name="Aring" unicode="&#xc5;" horiz-adv-x="602" 
d="M587 0l-262 712h-48l-262 -712h58l62 173h332l62 -173h58zM450 221h-298l149 419zM415 861c0 31.333 -11.167 58.166 -33.5 80.499s-49.166 33.5 -80.499 33.5s-58.166 -11.167 -80.499 -33.5s-33.5 -49.166 -33.5 -80.499s11.167 -58.333 33.5 -81
s49.166 -34 80.499 -34s58.166 11.333 80.499 34s33.5 49.667 33.5 81zM374 861c0 -20 -7.16699 -37.167 -21.5 -51.5s-31.5 -21.5 -51.5 -21.5s-37.167 7.16699 -51.5 21.5s-21.5 31.5 -21.5 51.5s7.16699 37 21.5 51s31.5 21 51.5 21s37.167 -7 51.5 -21
s21.5 -31 21.5 -51z" />
    <glyph glyph-name="AE" unicode="&#xc6;" horiz-adv-x="901" 
d="M845 0v48h-378v284h322v48h-322v284h378v48h-458l-377 -712h59l90 173h255v-173h431zM414 221h-232l232 443v-443z" />
    <glyph glyph-name="Ccedilla" unicode="&#xc7;" horiz-adv-x="644" 
d="M568 202h-53.002c-10.667 -49.333 -32.834 -88.333 -66.501 -117s-74.5 -43 -122.5 -43c-53.333 0 -98.333 18.333 -135 55c-12.667 12.667 -22.667 26.167 -30 40.5s-12.833 30.833 -16.5 49.5s-6 40.5 -7 65.5s-1.5 59.5 -1.5 103.5s0.5 78.5 1.5 103.5
s3.33301 46.833 7 65.5s9.16699 35.167 16.5 49.5s17.333 27.833 30 40.5c36.667 36.667 81.667 55 135 55c48 0 88.5 -14.333 121.5 -43s54.833 -67.667 65.5 -117h55c-11.333 64.667 -38.666 115.5 -81.999 152.5s-96.666 55.5 -159.999 55.5
c-33.333 0 -65.5 -6.33301 -96.5 -19s-58.167 -30.667 -81.5 -54c-16 -16 -28.5 -32.667 -37.5 -50s-15.5 -36.333 -19.5 -57s-6.5 -44.167 -7.5 -70.5s-1.5 -63.5 -1.5 -111.5s0.5 -85.167 1.5 -111.5s3.5 -49.833 7.5 -70.5s10.5 -39.667 19.5 -57s21.5 -34 37.5 -50
c23.333 -23.333 50.5 -41.333 81.5 -54s63.167 -19 96.5 -19c62.667 0 115.834 18.667 159.501 56s71.167 88 82.5 152zM365.998 -70h-55l-72 -150h63z" />
    <glyph glyph-name="Egrave" unicode="&#xc8;" horiz-adv-x="598" 
d="M542 0v48h-378v287h322v48h-322v281h378v48h-432v-712h432zM361 780l-97 147h-67l106 -147h58z" />
    <glyph glyph-name="Eacute" unicode="&#xc9;" horiz-adv-x="598" 
d="M542 0v48h-378v287h322v48h-322v281h378v48h-432v-712h432zM431 927h-67l-97 -147h58z" />
    <glyph glyph-name="Ecircumflex" unicode="&#xca;" horiz-adv-x="598" 
d="M542 0v48h-378v287h322v48h-322v281h378v48h-432v-712h432zM464 780l-123 147h-54l-123 -147h57l93 109l93 -109h57z" />
    <glyph glyph-name="Edieresis" unicode="&#xcb;" horiz-adv-x="598" 
d="M542 0v48h-378v287h322v48h-322v281h378v48h-432v-712h432zM447 790v77h-58v-77h58zM239 790v77h-58v-77h58z" />
    <glyph glyph-name="Igrave" unicode="&#xcc;" horiz-adv-x="274" 
d="M164 0v712h-54v-712h54zM193 780l-97 147h-67l106 -147h58z" />
    <glyph glyph-name="Iacute" unicode="&#xcd;" horiz-adv-x="274" 
d="M164 0v712h-54v-712h54zM250 927h-67l-97 -147h58z" />
    <glyph glyph-name="Icircumflex" unicode="&#xce;" horiz-adv-x="274" 
d="M164 0v712h-54v-712h54zM285 780l-123 147h-54l-123 -147h57l93 109l93 -109h57z" />
    <glyph glyph-name="Idieresis" unicode="&#xcf;" horiz-adv-x="274" 
d="M164 0v712h-54v-712h54zM271 790v77h-58v-77h58zM63 790v77h-58v-77h58z" />
    <glyph glyph-name="Eth" unicode="&#xd0;" horiz-adv-x="689" 
d="M607 356c0 43.333 -0.498047 77 -1.49805 101s-2.66699 43.667 -5 59s-5.83301 28.666 -10.5 39.999s-11.667 25 -21 41c-22 37.333 -50.667 65.833 -86 85.5s-76 29.5 -122 29.5h-240v-332h-81v-42h81v-338h233c49.333 0 92.166 10.333 128.499 31s65.166 48 86.499 82
c8.66699 13.333 15.167 25 19.5 35s7.83301 23.167 10.5 39.5s4.66699 37.333 6 63s2 60.834 2 105.501zM553.002 351c0 -42.667 -0.169922 -73.999 -0.50293 -93.999s-1.66602 -37.5 -3.99902 -52.5s-5.66602 -28.333 -9.99902 -40s-10.833 -23.834 -19.5 -36.501
c-36 -54 -93.333 -81 -172 -81h-172v291h178v42h-178v285h172c36.667 0 68.334 -6 95.001 -18s50.334 -32.333 71.001 -61c10 -13.333 17.667 -26.5 23 -39.5s9.16602 -28.167 11.499 -45.5s3.83301 -36.833 4.5 -58.5s1 -52.167 1 -91.5z" />
    <glyph glyph-name="Ntilde" unicode="&#xd1;" horiz-adv-x="739" 
d="M629 0v712h-54v-617l-185 277l-226 340h-54v-712h54v619l184 -277l227 -342h54zM519 843l-30.0039 29c-14 -14 -25.167 -23 -33.5 -27s-16.833 -6 -25.5 -6c-9.33301 0 -18 1.66699 -26 5s-18 8.66602 -30 15.999c-14 8.66699 -25.667 14.834 -35 18.501
s-20.666 5.5 -33.999 5.5c-12.667 0 -25.5 -2.83301 -38.5 -8.5s-29.833 -18.834 -50.5 -39.501l30 -29c14 14 25 23 33 27s16.667 6 26 6c8.66699 0 16.834 -1.66699 24.501 -5s17.834 -8.66602 30.501 -15.999h1c14 -8 25.833 -14 35.5 -18s20.834 -6 33.501 -6
c12 0 24.833 3 38.5 9s30.5 19 50.5 39z" />
    <glyph glyph-name="Ograve" unicode="&#xd2;" horiz-adv-x="652" 
d="M570 356c0 48 -0.5 85.167 -1.5 111.5s-3.5 49.833 -7.5 70.5s-10.5 39.667 -19.5 57s-21.5 34 -37.5 50c-23.333 23.333 -50.5 41.333 -81.5 54s-63.167 19 -96.5 19s-65.5 -6.33301 -96.5 -19s-58.167 -30.667 -81.5 -54c-16 -16 -28.5 -32.667 -37.5 -50
s-15.5 -36.333 -19.5 -57s-6.5 -44.167 -7.5 -70.5s-1.5 -63.5 -1.5 -111.5s0.5 -85.167 1.5 -111.5s3.5 -49.833 7.5 -70.5s10.5 -39.667 19.5 -57s21.5 -34 37.5 -50c23.333 -23.333 50.5 -41.333 81.5 -54s63.167 -19 96.5 -19s65.5 6.33301 96.5 19
s58.167 30.667 81.5 54c16 16 28.5 32.667 37.5 50s15.5 36.333 19.5 57s6.5 44.167 7.5 70.5s1.5 63.5 1.5 111.5zM516 356c0 -44 -0.5 -78.5 -1.5 -103.5s-3.33301 -46.833 -7 -65.5s-9.16699 -35.167 -16.5 -49.5s-17.333 -27.833 -30 -40.5
c-36.667 -36.667 -81.667 -55 -135 -55s-98.333 18.333 -135 55c-12.667 12.667 -22.667 26.167 -30 40.5s-12.833 30.833 -16.5 49.5s-6 40.5 -7 65.5s-1.5 59.5 -1.5 103.5s0.5 78.5 1.5 103.5s3.33301 46.833 7 65.5s9.16699 35.167 16.5 49.5s17.333 27.833 30 40.5
c36.667 36.667 81.667 55 135 55s98.333 -18.333 135 -55c12.667 -12.667 22.667 -26.167 30 -40.5s12.833 -30.833 16.5 -49.5s6 -40.5 7 -65.5s1.5 -59.5 1.5 -103.5zM373 780l-97 147h-67l106 -147h58z" />
    <glyph glyph-name="Oacute" unicode="&#xd3;" horiz-adv-x="652" 
d="M570 356c0 48 -0.5 85.167 -1.5 111.5s-3.5 49.833 -7.5 70.5s-10.5 39.667 -19.5 57s-21.5 34 -37.5 50c-23.333 23.333 -50.5 41.333 -81.5 54s-63.167 19 -96.5 19s-65.5 -6.33301 -96.5 -19s-58.167 -30.667 -81.5 -54c-16 -16 -28.5 -32.667 -37.5 -50
s-15.5 -36.333 -19.5 -57s-6.5 -44.167 -7.5 -70.5s-1.5 -63.5 -1.5 -111.5s0.5 -85.167 1.5 -111.5s3.5 -49.833 7.5 -70.5s10.5 -39.667 19.5 -57s21.5 -34 37.5 -50c23.333 -23.333 50.5 -41.333 81.5 -54s63.167 -19 96.5 -19s65.5 6.33301 96.5 19
s58.167 30.667 81.5 54c16 16 28.5 32.667 37.5 50s15.5 36.333 19.5 57s6.5 44.167 7.5 70.5s1.5 63.5 1.5 111.5zM516 356c0 -44 -0.5 -78.5 -1.5 -103.5s-3.33301 -46.833 -7 -65.5s-9.16699 -35.167 -16.5 -49.5s-17.333 -27.833 -30 -40.5
c-36.667 -36.667 -81.667 -55 -135 -55s-98.333 18.333 -135 55c-12.667 12.667 -22.667 26.167 -30 40.5s-12.833 30.833 -16.5 49.5s-6 40.5 -7 65.5s-1.5 59.5 -1.5 103.5s0.5 78.5 1.5 103.5s3.33301 46.833 7 65.5s9.16699 35.167 16.5 49.5s17.333 27.833 30 40.5
c36.667 36.667 81.667 55 135 55s98.333 -18.333 135 -55c12.667 -12.667 22.667 -26.167 30 -40.5s12.833 -30.833 16.5 -49.5s6 -40.5 7 -65.5s1.5 -59.5 1.5 -103.5zM443 927h-67l-97 -147h58z" />
    <glyph glyph-name="Ocircumflex" unicode="&#xd4;" horiz-adv-x="652" 
d="M570 356c0 48 -0.5 85.167 -1.5 111.5s-3.5 49.833 -7.5 70.5s-10.5 39.667 -19.5 57s-21.5 34 -37.5 50c-23.333 23.333 -50.5 41.333 -81.5 54s-63.167 19 -96.5 19s-65.5 -6.33301 -96.5 -19s-58.167 -30.667 -81.5 -54c-16 -16 -28.5 -32.667 -37.5 -50
s-15.5 -36.333 -19.5 -57s-6.5 -44.167 -7.5 -70.5s-1.5 -63.5 -1.5 -111.5s0.5 -85.167 1.5 -111.5s3.5 -49.833 7.5 -70.5s10.5 -39.667 19.5 -57s21.5 -34 37.5 -50c23.333 -23.333 50.5 -41.333 81.5 -54s63.167 -19 96.5 -19s65.5 6.33301 96.5 19
s58.167 30.667 81.5 54c16 16 28.5 32.667 37.5 50s15.5 36.333 19.5 57s6.5 44.167 7.5 70.5s1.5 63.5 1.5 111.5zM516 356c0 -44 -0.5 -78.5 -1.5 -103.5s-3.33301 -46.833 -7 -65.5s-9.16699 -35.167 -16.5 -49.5s-17.333 -27.833 -30 -40.5
c-36.667 -36.667 -81.667 -55 -135 -55s-98.333 18.333 -135 55c-12.667 12.667 -22.667 26.167 -30 40.5s-12.833 30.833 -16.5 49.5s-6 40.5 -7 65.5s-1.5 59.5 -1.5 103.5s0.5 78.5 1.5 103.5s3.33301 46.833 7 65.5s9.16699 35.167 16.5 49.5s17.333 27.833 30 40.5
c36.667 36.667 81.667 55 135 55s98.333 -18.333 135 -55c12.667 -12.667 22.667 -26.167 30 -40.5s12.833 -30.833 16.5 -49.5s6 -40.5 7 -65.5s1.5 -59.5 1.5 -103.5zM476 780l-123 147h-54l-123 -147h57l93 109l93 -109h57z" />
    <glyph glyph-name="Otilde" unicode="&#xd5;" horiz-adv-x="652" 
d="M570 356c0 48 -0.5 85.167 -1.5 111.5s-3.5 49.833 -7.5 70.5s-10.5 39.667 -19.5 57s-21.5 34 -37.5 50c-23.333 23.333 -50.5 41.333 -81.5 54s-63.167 19 -96.5 19s-65.5 -6.33301 -96.5 -19s-58.167 -30.667 -81.5 -54c-16 -16 -28.5 -32.667 -37.5 -50
s-15.5 -36.333 -19.5 -57s-6.5 -44.167 -7.5 -70.5s-1.5 -63.5 -1.5 -111.5s0.5 -85.167 1.5 -111.5s3.5 -49.833 7.5 -70.5s10.5 -39.667 19.5 -57s21.5 -34 37.5 -50c23.333 -23.333 50.5 -41.333 81.5 -54s63.167 -19 96.5 -19s65.5 6.33301 96.5 19
s58.167 30.667 81.5 54c16 16 28.5 32.667 37.5 50s15.5 36.333 19.5 57s6.5 44.167 7.5 70.5s1.5 63.5 1.5 111.5zM516 356c0 -44 -0.5 -78.5 -1.5 -103.5s-3.33301 -46.833 -7 -65.5s-9.16699 -35.167 -16.5 -49.5s-17.333 -27.833 -30 -40.5
c-36.667 -36.667 -81.667 -55 -135 -55s-98.333 18.333 -135 55c-12.667 12.667 -22.667 26.167 -30 40.5s-12.833 30.833 -16.5 49.5s-6 40.5 -7 65.5s-1.5 59.5 -1.5 103.5s0.5 78.5 1.5 103.5s3.33301 46.833 7 65.5s9.16699 35.167 16.5 49.5s17.333 27.833 30 40.5
c36.667 36.667 81.667 55 135 55s98.333 -18.333 135 -55c12.667 -12.667 22.667 -26.167 30 -40.5s12.833 -30.833 16.5 -49.5s6 -40.5 7 -65.5s1.5 -59.5 1.5 -103.5zM475 843l-30.0039 29c-14 -14 -25.167 -23 -33.5 -27s-16.833 -6 -25.5 -6
c-9.33301 0 -18 1.66699 -26 5s-18 8.66602 -30 15.999c-14 8.66699 -25.667 14.834 -35 18.501s-20.666 5.5 -33.999 5.5c-12.667 0 -25.5 -2.83301 -38.5 -8.5s-29.833 -18.834 -50.5 -39.501l30 -29c14 14 25 23 33 27s16.667 6 26 6
c8.66699 0 16.834 -1.66699 24.501 -5s17.834 -8.66602 30.501 -15.999h1c14 -8 25.833 -14 35.5 -18s20.834 -6 33.501 -6c12 0 24.833 3 38.5 9s30.5 19 50.5 39z" />
    <glyph glyph-name="Odieresis" unicode="&#xd6;" horiz-adv-x="652" 
d="M570 356c0 48 -0.5 85.167 -1.5 111.5s-3.5 49.833 -7.5 70.5s-10.5 39.667 -19.5 57s-21.5 34 -37.5 50c-23.333 23.333 -50.5 41.333 -81.5 54s-63.167 19 -96.5 19s-65.5 -6.33301 -96.5 -19s-58.167 -30.667 -81.5 -54c-16 -16 -28.5 -32.667 -37.5 -50
s-15.5 -36.333 -19.5 -57s-6.5 -44.167 -7.5 -70.5s-1.5 -63.5 -1.5 -111.5s0.5 -85.167 1.5 -111.5s3.5 -49.833 7.5 -70.5s10.5 -39.667 19.5 -57s21.5 -34 37.5 -50c23.333 -23.333 50.5 -41.333 81.5 -54s63.167 -19 96.5 -19s65.5 6.33301 96.5 19
s58.167 30.667 81.5 54c16 16 28.5 32.667 37.5 50s15.5 36.333 19.5 57s6.5 44.167 7.5 70.5s1.5 63.5 1.5 111.5zM516 356c0 -44 -0.5 -78.5 -1.5 -103.5s-3.33301 -46.833 -7 -65.5s-9.16699 -35.167 -16.5 -49.5s-17.333 -27.833 -30 -40.5
c-36.667 -36.667 -81.667 -55 -135 -55s-98.333 18.333 -135 55c-12.667 12.667 -22.667 26.167 -30 40.5s-12.833 30.833 -16.5 49.5s-6 40.5 -7 65.5s-1.5 59.5 -1.5 103.5s0.5 78.5 1.5 103.5s3.33301 46.833 7 65.5s9.16699 35.167 16.5 49.5s17.333 27.833 30 40.5
c36.667 36.667 81.667 55 135 55s98.333 -18.333 135 -55c12.667 -12.667 22.667 -26.167 30 -40.5s12.833 -30.833 16.5 -49.5s6 -40.5 7 -65.5s1.5 -59.5 1.5 -103.5zM459 790v77h-58v-77h58zM251 790v77h-58v-77h58z" />
    <glyph glyph-name="multiply" unicode="&#xd7;" 
d="M443 109l-155 155l155 155l-31 31l-155 -155l-155 155l-31 -31l155 -155l-155 -155l31 -31l155 155l155 -155z" />
    <glyph glyph-name="Oslash" unicode="&#xd8;" horiz-adv-x="652" 
d="M570 356c0 48 -0.5 85.167 -1.5 111.5s-3.5 49.833 -7.5 70.5s-10.5 39.667 -19.5 57s-21.5 34 -37.5 50l-9 9l49 102h-53l-35 -73c-39.333 23.333 -82.666 35 -129.999 35c-33.333 0 -65.5 -6.33301 -96.5 -19s-58.167 -30.667 -81.5 -54
c-16 -16 -28.5 -32.667 -37.5 -50s-15.5 -36.333 -19.5 -57s-6.5 -44.167 -7.5 -70.5s-1.5 -63.5 -1.5 -111.5s0.5 -85.167 1.5 -111.5s3.5 -49.833 7.5 -70.5s10.5 -39.667 19.5 -57s21.5 -34 37.5 -50l9 -9l-49 -102h53l35 73c39.333 -23.333 82.666 -35 129.999 -35
c33.333 0 65.5 6.33301 96.5 19s58.167 30.667 81.5 54c16 16 28.5 32.667 37.5 50s15.5 36.333 19.5 57s6.5 44.167 7.5 70.5s1.5 63.5 1.5 111.5zM516 356c0 -44 -0.5 -78.5 -1.5 -103.5s-3.33301 -46.833 -7 -65.5s-9.16699 -35.167 -16.5 -49.5
s-17.333 -27.833 -30 -40.5c-36.667 -36.667 -81.667 -55 -135 -55c-40.667 0 -76.667 11 -108 33l253 529c10.667 -12 19 -25 25 -39s10.333 -30 13 -48s4.5 -39.167 5.5 -63.5s1.5 -56.833 1.5 -97.5zM434 637l-253 -529c-10 12 -18.167 25 -24.5 39s-10.833 30 -13.5 48
s-4.5 39.333 -5.5 64s-1.5 57 -1.5 97c0 44 0.5 78.5 1.5 103.5s3.33301 46.833 7 65.5s9.16699 35.167 16.5 49.5s17.333 27.833 30 40.5c36.667 36.667 81.667 55 135 55c41.333 0 77.333 -11 108 -33z" />
    <glyph glyph-name="Ugrave" unicode="&#xd9;" horiz-adv-x="687" 
d="M588 231v481h-54v-474c0 -58.667 -17.333 -106 -52 -142s-80.667 -54 -138 -54s-103.333 18 -138 54s-52 83.333 -52 142v474h-54v-481c0 -34 6 -65.667 18 -95s28.833 -54.5 50.5 -75.5s47.5 -37.333 77.5 -49s62.667 -17.5 98 -17.5s68 5.83301 98 17.5
s55.833 28 77.5 49s38.5 46.167 50.5 75.5s18 61 18 95zM391 780l-97 147h-67l106 -147h58z" />
    <glyph glyph-name="Uacute" unicode="&#xda;" horiz-adv-x="687" 
d="M588 231v481h-54v-474c0 -58.667 -17.333 -106 -52 -142s-80.667 -54 -138 -54s-103.333 18 -138 54s-52 83.333 -52 142v474h-54v-481c0 -34 6 -65.667 18 -95s28.833 -54.5 50.5 -75.5s47.5 -37.333 77.5 -49s62.667 -17.5 98 -17.5s68 5.83301 98 17.5
s55.833 28 77.5 49s38.5 46.167 50.5 75.5s18 61 18 95zM461 927h-67l-97 -147h58z" />
    <glyph glyph-name="Ucircumflex" unicode="&#xdb;" horiz-adv-x="687" 
d="M588 231v481h-54v-474c0 -58.667 -17.333 -106 -52 -142s-80.667 -54 -138 -54s-103.333 18 -138 54s-52 83.333 -52 142v474h-54v-481c0 -34 6 -65.667 18 -95s28.833 -54.5 50.5 -75.5s47.5 -37.333 77.5 -49s62.667 -17.5 98 -17.5s68 5.83301 98 17.5
s55.833 28 77.5 49s38.5 46.167 50.5 75.5s18 61 18 95zM494 780l-123 147h-54l-123 -147h57l93 109l93 -109h57z" />
    <glyph glyph-name="Udieresis" unicode="&#xdc;" horiz-adv-x="687" 
d="M588 231v481h-54v-474c0 -58.667 -17.333 -106 -52 -142s-80.667 -54 -138 -54s-103.333 18 -138 54s-52 83.333 -52 142v474h-54v-481c0 -34 6 -65.667 18 -95s28.833 -54.5 50.5 -75.5s47.5 -37.333 77.5 -49s62.667 -17.5 98 -17.5s68 5.83301 98 17.5
s55.833 28 77.5 49s38.5 46.167 50.5 75.5s18 61 18 95zM477 790v77h-58v-77h58zM269 790v77h-58v-77h58z" />
    <glyph glyph-name="Yacute" unicode="&#xdd;" horiz-adv-x="494" 
d="M484 712h-58l-177 -360l-181 360h-58l210 -417v-295h54v295zM364 927h-67l-97 -147h58z" />
    <glyph glyph-name="Thorn" unicode="&#xde;" horiz-adv-x="646" 
d="M586 359c0 63.333 -20 113.333 -60 150s-91.667 55 -155 55h-207v148h-54v-712h54v154h207c63.333 0 115 18.333 155 55s60 86.667 60 150zM532 359c0 -51.333 -15 -90.333 -45 -117s-70.667 -40 -122 -40h-201v314h201c51.333 0 92 -13.167 122 -39.5
s45 -65.5 45 -117.5z" />
    <glyph glyph-name="germandbls" unicode="&#xdf;" horiz-adv-x="550" 
d="M473 134v177.001c0 33.333 -4.33301 59 -13 77s-25.667 33.667 -51 47c42 28.667 63 69.334 63 122.001c0 53.333 -17.333 93.666 -52 120.999s-78.334 41 -131.001 41c-60 0 -107 -17.167 -141 -51.5s-51 -81.833 -51 -142.5v-525h51v525c0 46 11 82.333 33 109
s56 40 102 40c47.333 0 82 -10.667 104 -32c11.333 -10 20 -22.5 26 -37.5s9 -30.833 9 -47.5c0 -30.667 -9 -55.334 -27 -74.001s-41.667 -28 -71 -28h-39v-45h49c28 0 49.667 -7.66699 65 -23c8.66699 -8 14.667 -17.333 18 -28s5 -24 5 -40v-179
c0 -34 -9.33301 -58.333 -28 -73c-10 -8 -19.5 -13.667 -28.5 -17s-21.167 -5 -36.5 -5h-44v-45h54c20.667 0 38.334 2.66699 53.001 8s28.667 14 42 26c26 24 39 57.333 39 100z" />
    <glyph glyph-name="agrave" unicode="&#xe0;" horiz-adv-x="524" 
d="M431 0v330c0 51.333 -15.5 90.5 -46.5 117.5s-77.833 40.5 -140.5 40.5c-40.667 0 -74.167 -5.5 -100.5 -16.5s-49.5 -30.167 -69.5 -57.5l37 -32c15.333 22 32.833 37.667 52.5 47s46.5 14 80.5 14c48 0 82.667 -9.83301 104 -29.5s32 -49.167 32 -88.5v-54h-156
c-52.667 0 -93.834 -12.167 -123.501 -36.5s-44.5 -58.5 -44.5 -102.5c0 -18 3 -35.333 9 -52s14.667 -30.667 26 -42c15.333 -16 34 -27.333 56 -34s50.667 -10 86 -10c34.667 0 62.834 4 84.501 12s42.5 22 62.5 42v-48h51zM380 168c0 -44 -9.00098 -74.667 -27.001 -92
c-15.333 -15.333 -32.5 -25.333 -51.5 -30s-41.833 -7 -68.5 -7c-43.333 0 -75.166 7.66699 -95.499 23s-30.5 39 -30.5 71c0 64.667 41 97 123 97h150v-62zM295.999 590l-97 147h-67l106 -147h58z" />
    <glyph glyph-name="aacute" unicode="&#xe1;" horiz-adv-x="524" 
d="M431 0v330c0 51.333 -15.5 90.5 -46.5 117.5s-77.833 40.5 -140.5 40.5c-40.667 0 -74.167 -5.5 -100.5 -16.5s-49.5 -30.167 -69.5 -57.5l37 -32c15.333 22 32.833 37.667 52.5 47s46.5 14 80.5 14c48 0 82.667 -9.83301 104 -29.5s32 -49.167 32 -88.5v-54h-156
c-52.667 0 -93.834 -12.167 -123.501 -36.5s-44.5 -58.5 -44.5 -102.5c0 -18 3 -35.333 9 -52s14.667 -30.667 26 -42c15.333 -16 34 -27.333 56 -34s50.667 -10 86 -10c34.667 0 62.834 4 84.501 12s42.5 22 62.5 42v-48h51zM380 168c0 -44 -9.00098 -74.667 -27.001 -92
c-15.333 -15.333 -32.5 -25.333 -51.5 -30s-41.833 -7 -68.5 -7c-43.333 0 -75.166 7.66699 -95.499 23s-30.5 39 -30.5 71c0 64.667 41 97 123 97h150v-62zM365.999 737h-67l-97 -147h58z" />
    <glyph glyph-name="acircumflex" unicode="&#xe2;" horiz-adv-x="524" 
d="M431 0v330c0 51.333 -15.5 90.5 -46.5 117.5s-77.833 40.5 -140.5 40.5c-40.667 0 -74.167 -5.5 -100.5 -16.5s-49.5 -30.167 -69.5 -57.5l37 -32c15.333 22 32.833 37.667 52.5 47s46.5 14 80.5 14c48 0 82.667 -9.83301 104 -29.5s32 -49.167 32 -88.5v-54h-156
c-52.667 0 -93.834 -12.167 -123.501 -36.5s-44.5 -58.5 -44.5 -102.5c0 -18 3 -35.333 9 -52s14.667 -30.667 26 -42c15.333 -16 34 -27.333 56 -34s50.667 -10 86 -10c34.667 0 62.834 4 84.501 12s42.5 22 62.5 42v-48h51zM380 168c0 -44 -9.00098 -74.667 -27.001 -92
c-15.333 -15.333 -32.5 -25.333 -51.5 -30s-41.833 -7 -68.5 -7c-43.333 0 -75.166 7.66699 -95.499 23s-30.5 39 -30.5 71c0 64.667 41 97 123 97h150v-62zM398.999 590l-123 147h-54l-123 -147h57l93 109l93 -109h57z" />
    <glyph glyph-name="atilde" unicode="&#xe3;" horiz-adv-x="524" 
d="M431 0v330c0 51.333 -15.5 90.5 -46.5 117.5s-77.833 40.5 -140.5 40.5c-40.667 0 -74.167 -5.5 -100.5 -16.5s-49.5 -30.167 -69.5 -57.5l37 -32c15.333 22 32.833 37.667 52.5 47s46.5 14 80.5 14c48 0 82.667 -9.83301 104 -29.5s32 -49.167 32 -88.5v-54h-156
c-52.667 0 -93.834 -12.167 -123.501 -36.5s-44.5 -58.5 -44.5 -102.5c0 -18 3 -35.333 9 -52s14.667 -30.667 26 -42c15.333 -16 34 -27.333 56 -34s50.667 -10 86 -10c34.667 0 62.834 4 84.501 12s42.5 22 62.5 42v-48h51zM380 168c0 -44 -9.00098 -74.667 -27.001 -92
c-15.333 -15.333 -32.5 -25.333 -51.5 -30s-41.833 -7 -68.5 -7c-43.333 0 -75.166 7.66699 -95.499 23s-30.5 39 -30.5 71c0 64.667 41 97 123 97h150v-62zM397.999 653l-30.0039 29c-14 -14 -25.167 -23 -33.5 -27s-16.833 -6 -25.5 -6c-9.33301 0 -18 1.66699 -26 5
s-18 8.66602 -30 15.999c-14 8.66699 -25.667 14.834 -35 18.501s-20.666 5.5 -33.999 5.5c-12.667 0 -25.5 -2.83301 -38.5 -8.5s-29.833 -18.834 -50.5 -39.501l30 -29c14 14 25 23 33 27s16.667 6 26 6c8.66699 0 16.834 -1.66699 24.501 -5
s17.834 -8.66602 30.501 -15.999h1c14 -8 25.833 -14 35.5 -18s20.834 -6 33.501 -6c12 0 24.833 3 38.5 9s30.5 19 50.5 39z" />
    <glyph glyph-name="adieresis" unicode="&#xe4;" horiz-adv-x="524" 
d="M431 0v330c0 51.333 -15.5 90.5 -46.5 117.5s-77.833 40.5 -140.5 40.5c-40.667 0 -74.167 -5.5 -100.5 -16.5s-49.5 -30.167 -69.5 -57.5l37 -32c15.333 22 32.833 37.667 52.5 47s46.5 14 80.5 14c48 0 82.667 -9.83301 104 -29.5s32 -49.167 32 -88.5v-54h-156
c-52.667 0 -93.834 -12.167 -123.501 -36.5s-44.5 -58.5 -44.5 -102.5c0 -18 3 -35.333 9 -52s14.667 -30.667 26 -42c15.333 -16 34 -27.333 56 -34s50.667 -10 86 -10c34.667 0 62.834 4 84.501 12s42.5 22 62.5 42v-48h51zM380 168c0 -44 -9.00098 -74.667 -27.001 -92
c-15.333 -15.333 -32.5 -25.333 -51.5 -30s-41.833 -7 -68.5 -7c-43.333 0 -75.166 7.66699 -95.499 23s-30.5 39 -30.5 71c0 64.667 41 97 123 97h150v-62zM381.999 600v77h-58v-77h58zM173.999 600v77h-58v-77h58z" />
    <glyph glyph-name="aring" unicode="&#xe5;" horiz-adv-x="524" 
d="M431 0v330c0 51.333 -15.5 90.5 -46.5 117.5s-77.833 40.5 -140.5 40.5c-40.667 0 -74.167 -5.5 -100.5 -16.5s-49.5 -30.167 -69.5 -57.5l37 -32c15.333 22 32.833 37.667 52.5 47s46.5 14 80.5 14c48 0 82.667 -9.83301 104 -29.5s32 -49.167 32 -88.5v-54h-156
c-52.667 0 -93.834 -12.167 -123.501 -36.5s-44.5 -58.5 -44.5 -102.5c0 -18 3 -35.333 9 -52s14.667 -30.667 26 -42c15.333 -16 34 -27.333 56 -34s50.667 -10 86 -10c34.667 0 62.834 4 84.501 12s42.5 22 62.5 42v-48h51zM380 168c0 -44 -9.00098 -74.667 -27.001 -92
c-15.333 -15.333 -32.5 -25.333 -51.5 -30s-41.833 -7 -68.5 -7c-43.333 0 -75.166 7.66699 -95.499 23s-30.5 39 -30.5 71c0 64.667 41 97 123 97h150v-62zM362.999 677c0 31.333 -11.167 58.166 -33.5 80.499s-49.166 33.5 -80.499 33.5s-58.166 -11.167 -80.499 -33.5
s-33.5 -49.166 -33.5 -80.499s11.167 -58.333 33.5 -81s49.166 -34 80.499 -34s58.166 11.333 80.499 34s33.5 49.667 33.5 81zM321.999 677c0 -20 -7.16699 -37.167 -21.5 -51.5s-31.5 -21.5 -51.5 -21.5s-37.167 7.16699 -51.5 21.5s-21.5 31.5 -21.5 51.5
s7.16699 37 21.5 51s31.5 21 51.5 21s37.167 -7 51.5 -21s21.5 -31 21.5 -51z" />
    <glyph glyph-name="ae" unicode="&#xe6;" horiz-adv-x="834" 
d="M766 230l0.00292969 22.999c0 73.333 -17.167 130.833 -51.5 172.5s-81.5 62.5 -141.5 62.5c-70 0 -122 -28.333 -156 -85c-24.667 56.667 -82.334 85 -173.001 85c-40.667 0 -74.167 -5.5 -100.5 -16.5s-49.5 -30.167 -69.5 -57.5l37 -32
c15.333 22 32.833 37.667 52.5 47s46.5 14 80.5 14c48 0 82.667 -9.83301 104 -29.5s32 -49.167 32 -88.5v-54h-156c-52.667 0 -93.834 -12.167 -123.501 -36.5s-44.5 -58.5 -44.5 -102.5c0 -18 3 -35.333 9 -52s14.667 -30.667 26 -42c15.333 -16 34 -27.333 56 -34
s50.667 -10 86 -10c44.667 0 80.667 6.83301 108 20.5s51 36.834 71 69.501c33.333 -60 90.666 -90 171.999 -90c38.667 0 71 5.83301 97 17.5s52 30.5 78 56.5l-38 30c-20.667 -20.667 -41 -35.5 -61 -44.5s-44 -13.5 -72 -13.5c-50.667 0 -89.5 16.333 -116.5 49
s-40.5 79.667 -40.5 141h335zM715.003 270.999h-284.002c1.33301 22.667 3 39.834 5 51.501s6 24.834 12 39.501c10.667 24.667 27.334 44.334 50.001 59.001s47.667 22 75 22s52.333 -7.33301 75 -22s39.334 -34.334 50.001 -59.001c6 -14.667 10.167 -27.834 12.5 -39.501
s3.83301 -28.834 4.5 -51.501zM380.001 167.999c0 -44 -9.00098 -74.667 -27.001 -92c-15.333 -15.333 -32.5 -25.333 -51.5 -30s-41.833 -7 -68.5 -7c-43.333 0 -75.166 7.66699 -95.499 23s-30.5 39 -30.5 71c0 64.667 41 97 123 97h150v-62z" />
    <glyph glyph-name="ccedilla" unicode="&#xe7;" horiz-adv-x="498" 
d="M440 68l-35 32c-20.667 -22.667 -40 -38.5 -58 -47.5s-40 -13.5 -66 -13.5c-56 0 -98.667 21.333 -128 64c-12 17.333 -20.5 36.5 -25.5 57.5s-7.5 47.833 -7.5 80.5s2.5 59.5 7.5 80.5s13.5 40.167 25.5 57.5c29.333 42.667 72 64 128 64c26 0 48 -4.5 66 -13.5
s37.333 -24.833 58 -47.5l35 32c-25.333 28 -49.666 47.333 -72.999 58s-52 16 -86 16c-65.333 0 -117 -22 -155 -66s-57 -104.333 -57 -181s19 -137 57 -181s89.667 -66 155 -66c34 0 62.667 5.33301 86 16s47.666 30 72.999 58zM308 -70h-55l-72 -150h63z" />
    <glyph glyph-name="egrave" unicode="&#xe8;" horiz-adv-x="523" 
d="M455 230l-0.000976562 23c0 73.333 -17.167 130.833 -51.5 172.5s-81.5 62.5 -141.5 62.5c-60.667 0 -108 -21.833 -142 -65.5s-51 -104.167 -51 -181.5c0 -80.667 17.5 -142 52.5 -184s85.833 -63 152.5 -63c38.667 0 70.834 5.83301 96.501 17.5s51.5 30.5 77.5 56.5
l-38 30c-20.667 -20.667 -41 -35.5 -61 -44.5s-44 -13.5 -72 -13.5c-50.667 0 -89.5 16.333 -116.5 49s-40.5 79.667 -40.5 141h335zM403.999 271h-284.002c1.33301 22.667 3 39.834 5 51.501s6 24.834 12 39.501c10.667 24.667 27.334 44.334 50.001 59.001
s47.667 22 75 22s52.333 -7.33301 75 -22s39.334 -34.334 50.001 -59.001c6 -14.667 10.167 -27.834 12.5 -39.501s3.83301 -28.834 4.5 -51.501zM310.997 590l-97 147h-67l106 -147h58z" />
    <glyph glyph-name="eacute" unicode="&#xe9;" horiz-adv-x="523" 
d="M455 230l-0.000976562 23c0 73.333 -17.167 130.833 -51.5 172.5s-81.5 62.5 -141.5 62.5c-60.667 0 -108 -21.833 -142 -65.5s-51 -104.167 -51 -181.5c0 -80.667 17.5 -142 52.5 -184s85.833 -63 152.5 -63c38.667 0 70.834 5.83301 96.501 17.5s51.5 30.5 77.5 56.5
l-38 30c-20.667 -20.667 -41 -35.5 -61 -44.5s-44 -13.5 -72 -13.5c-50.667 0 -89.5 16.333 -116.5 49s-40.5 79.667 -40.5 141h335zM403.999 271h-284.002c1.33301 22.667 3 39.834 5 51.501s6 24.834 12 39.501c10.667 24.667 27.334 44.334 50.001 59.001
s47.667 22 75 22s52.333 -7.33301 75 -22s39.334 -34.334 50.001 -59.001c6 -14.667 10.167 -27.834 12.5 -39.501s3.83301 -28.834 4.5 -51.501zM380.997 737h-67l-97 -147h58z" />
    <glyph glyph-name="ecircumflex" unicode="&#xea;" horiz-adv-x="523" 
d="M455 230l-0.000976562 23c0 73.333 -17.167 130.833 -51.5 172.5s-81.5 62.5 -141.5 62.5c-60.667 0 -108 -21.833 -142 -65.5s-51 -104.167 -51 -181.5c0 -80.667 17.5 -142 52.5 -184s85.833 -63 152.5 -63c38.667 0 70.834 5.83301 96.501 17.5s51.5 30.5 77.5 56.5
l-38 30c-20.667 -20.667 -41 -35.5 -61 -44.5s-44 -13.5 -72 -13.5c-50.667 0 -89.5 16.333 -116.5 49s-40.5 79.667 -40.5 141h335zM403.999 271h-284.002c1.33301 22.667 3 39.834 5 51.501s6 24.834 12 39.501c10.667 24.667 27.334 44.334 50.001 59.001
s47.667 22 75 22s52.333 -7.33301 75 -22s39.334 -34.334 50.001 -59.001c6 -14.667 10.167 -27.834 12.5 -39.501s3.83301 -28.834 4.5 -51.501zM413.997 590l-123 147h-54l-123 -147h57l93 109l93 -109h57z" />
    <glyph glyph-name="edieresis" unicode="&#xeb;" horiz-adv-x="523" 
d="M455 230l-0.000976562 23c0 73.333 -17.167 130.833 -51.5 172.5s-81.5 62.5 -141.5 62.5c-60.667 0 -108 -21.833 -142 -65.5s-51 -104.167 -51 -181.5c0 -80.667 17.5 -142 52.5 -184s85.833 -63 152.5 -63c38.667 0 70.834 5.83301 96.501 17.5s51.5 30.5 77.5 56.5
l-38 30c-20.667 -20.667 -41 -35.5 -61 -44.5s-44 -13.5 -72 -13.5c-50.667 0 -89.5 16.333 -116.5 49s-40.5 79.667 -40.5 141h335zM403.999 271h-284.002c1.33301 22.667 3 39.834 5 51.501s6 24.834 12 39.501c10.667 24.667 27.334 44.334 50.001 59.001
s47.667 22 75 22s52.333 -7.33301 75 -22s39.334 -34.334 50.001 -59.001c6 -14.667 10.167 -27.834 12.5 -39.501s3.83301 -28.834 4.5 -51.501zM396.997 600v77h-58v-77h58zM188.997 600v77h-58v-77h58z" />
    <glyph glyph-name="igrave" unicode="&#xec;" horiz-adv-x="245" 
d="M148 0v482h-51v-482h51zM173 590l-97 147h-67l106 -147h58z" />
    <glyph glyph-name="iacute" unicode="&#xed;" horiz-adv-x="245" 
d="M148 0v482h-51v-482h51zM235 737h-67l-97 -147h58z" />
    <glyph glyph-name="icircumflex" unicode="&#xee;" horiz-adv-x="245" 
d="M148 0v482h-51v-482h51zM272 590l-123 147h-54l-123 -147h57l93 109l93 -109h57z" />
    <glyph glyph-name="idieresis" unicode="&#xef;" horiz-adv-x="245" 
d="M148 0v482h-51v-482h51zM256 600v77h-58v-77h58zM48 600v77h-58v-77h58z" />
    <glyph glyph-name="eth" unicode="&#xf0;" horiz-adv-x="526" 
d="M457 241c0 22.667 -0.669922 42.168 -2.00293 58.501s-4.16602 32.5 -8.49902 48.5s-10.666 33 -18.999 51s-19.166 38.667 -32.499 62l-72 123h57v38h-79l-52 90h-53l53 -90h-95v-38h117l67 -113c-9.33301 5.33301 -20.666 9.5 -33.999 12.5s-27 4.5 -41 4.5
c-54 0 -98.667 -17.667 -134 -53c-23.333 -23.333 -39.166 -51.333 -47.499 -84s-12.5 -69.334 -12.5 -110.001s4.16699 -77.334 12.5 -110.001s24.166 -60.667 47.499 -84c35.333 -35.333 80 -53 134 -53s98.667 17.667 134 53c23.333 23.333 39.166 51.333 47.499 84
s12.5 69.334 12.5 110.001zM405.997 241.001c0 -36 -2.66699 -67.333 -8 -94s-17 -49 -35 -67c-27.333 -27.333 -60.666 -41 -99.999 -41s-72.666 13.667 -99.999 41c-18 18 -29.667 40.333 -35 67s-8 58 -8 94s2.66699 67.333 8 94s17 49 35 67
c27.333 27.333 60.666 41 99.999 41s72.666 -13.667 99.999 -41c18 -18 29.667 -40.333 35 -67s8 -58 8 -94z" />
    <glyph glyph-name="ntilde" unicode="&#xf1;" horiz-adv-x="559" 
d="M468 0v308.002c0 57.333 -16.667 102 -50 134c-31.333 30.667 -74 46 -128 46c-58.667 0 -106 -21 -142 -63v57h-51v-482h51v299c0 45.333 12 80.666 36 105.999s57.333 38 100 38c43.333 0 76.333 -12.333 99 -37s34 -60.334 34 -107.001v-299h51zM433 653.002
l-30.0039 29c-14 -14 -25.167 -23 -33.5 -27s-16.833 -6 -25.5 -6c-9.33301 0 -18 1.66699 -26 5s-18 8.66602 -30 15.999c-14 8.66699 -25.667 14.834 -35 18.501s-20.666 5.5 -33.999 5.5c-12.667 0 -25.5 -2.83301 -38.5 -8.5s-29.833 -18.834 -50.5 -39.501l30 -29
c14 14 25 23 33 27s16.667 6 26 6c8.66699 0 16.834 -1.66699 24.501 -5s17.834 -8.66602 30.501 -15.999h1c14 -8 25.833 -14 35.5 -18s20.834 -6 33.501 -6c12 0 24.833 3 38.5 9s30.5 19 50.5 39z" />
    <glyph glyph-name="ograve" unicode="&#xf2;" horiz-adv-x="526" 
d="M297 590l-97 147h-67l106 -147h58zM457 241c0 40.667 -4.16699 77.334 -12.5 110.001s-24.166 60.667 -47.499 84c-35.333 35.333 -80 53 -134 53s-98.667 -17.667 -134 -53c-23.333 -23.333 -39.166 -51.333 -47.499 -84s-12.5 -69.334 -12.5 -110.001
s4.16699 -77.334 12.5 -110.001s24.166 -60.667 47.499 -84c35.333 -35.333 80 -53 134 -53s98.667 17.667 134 53c23.333 23.333 39.166 51.333 47.499 84s12.5 69.334 12.5 110.001zM406 241c0 -36 -2.66699 -67.333 -8 -94s-17 -49 -35 -67
c-27.333 -27.333 -60.666 -41 -99.999 -41s-72.666 13.667 -99.999 41c-18 18 -29.667 40.333 -35 67s-8 58 -8 94s2.66699 67.333 8 94s17 49 35 67c27.333 27.333 60.666 41 99.999 41s72.666 -13.667 99.999 -41c18 -18 29.667 -40.333 35 -67s8 -58 8 -94z" />
    <glyph glyph-name="oacute" unicode="&#xf3;" horiz-adv-x="526" 
d="M457 241c0 40.667 -4.16699 77.334 -12.5 110.001s-24.166 60.667 -47.499 84c-35.333 35.333 -80 53 -134 53s-98.667 -17.667 -134 -53c-23.333 -23.333 -39.166 -51.333 -47.499 -84s-12.5 -69.334 -12.5 -110.001s4.16699 -77.334 12.5 -110.001
s24.166 -60.667 47.499 -84c35.333 -35.333 80 -53 134 -53s98.667 17.667 134 53c23.333 23.333 39.166 51.333 47.499 84s12.5 69.334 12.5 110.001zM406 241c0 -36 -2.66699 -67.333 -8 -94s-17 -49 -35 -67c-27.333 -27.333 -60.666 -41 -99.999 -41
s-72.666 13.667 -99.999 41c-18 18 -29.667 40.333 -35 67s-8 58 -8 94s2.66699 67.333 8 94s17 49 35 67c27.333 27.333 60.666 41 99.999 41s72.666 -13.667 99.999 -41c18 -18 29.667 -40.333 35 -67s8 -58 8 -94zM380 737h-67l-97 -147h58z" />
    <glyph glyph-name="ocircumflex" unicode="&#xf4;" horiz-adv-x="526" 
d="M457 241c0 40.667 -4.16699 77.334 -12.5 110.001s-24.166 60.667 -47.499 84c-35.333 35.333 -80 53 -134 53s-98.667 -17.667 -134 -53c-23.333 -23.333 -39.166 -51.333 -47.499 -84s-12.5 -69.334 -12.5 -110.001s4.16699 -77.334 12.5 -110.001
s24.166 -60.667 47.499 -84c35.333 -35.333 80 -53 134 -53s98.667 17.667 134 53c23.333 23.333 39.166 51.333 47.499 84s12.5 69.334 12.5 110.001zM406 241c0 -36 -2.66699 -67.333 -8 -94s-17 -49 -35 -67c-27.333 -27.333 -60.666 -41 -99.999 -41
s-72.666 13.667 -99.999 41c-18 18 -29.667 40.333 -35 67s-8 58 -8 94s2.66699 67.333 8 94s17 49 35 67c27.333 27.333 60.666 41 99.999 41s72.666 -13.667 99.999 -41c18 -18 29.667 -40.333 35 -67s8 -58 8 -94zM413 590l-123 147h-54l-123 -147h57l93 109l93 -109h57z
" />
    <glyph glyph-name="otilde" unicode="&#xf5;" horiz-adv-x="526" 
d="M457 241c0 40.667 -4.16699 77.334 -12.5 110.001s-24.166 60.667 -47.499 84c-35.333 35.333 -80 53 -134 53s-98.667 -17.667 -134 -53c-23.333 -23.333 -39.166 -51.333 -47.499 -84s-12.5 -69.334 -12.5 -110.001s4.16699 -77.334 12.5 -110.001
s24.166 -60.667 47.499 -84c35.333 -35.333 80 -53 134 -53s98.667 17.667 134 53c23.333 23.333 39.166 51.333 47.499 84s12.5 69.334 12.5 110.001zM406 241c0 -36 -2.66699 -67.333 -8 -94s-17 -49 -35 -67c-27.333 -27.333 -60.666 -41 -99.999 -41
s-72.666 13.667 -99.999 41c-18 18 -29.667 40.333 -35 67s-8 58 -8 94s2.66699 67.333 8 94s17 49 35 67c27.333 27.333 60.666 41 99.999 41s72.666 -13.667 99.999 -41c18 -18 29.667 -40.333 35 -67s8 -58 8 -94zM412 653l-30.0039 29c-14 -14 -25.167 -23 -33.5 -27
s-16.833 -6 -25.5 -6c-9.33301 0 -18 1.66699 -26 5s-18 8.66602 -30 15.999c-14 8.66699 -25.667 14.834 -35 18.501s-20.666 5.5 -33.999 5.5c-12.667 0 -25.5 -2.83301 -38.5 -8.5s-29.833 -18.834 -50.5 -39.501l30 -29c14 14 25 23 33 27s16.667 6 26 6
c8.66699 0 16.834 -1.66699 24.501 -5s17.834 -8.66602 30.501 -15.999h1c14 -8 25.833 -14 35.5 -18s20.834 -6 33.501 -6c12 0 24.833 3 38.5 9s30.5 19 50.5 39z" />
    <glyph glyph-name="odieresis" unicode="&#xf6;" horiz-adv-x="526" 
d="M457 241c0 40.667 -4.16699 77.334 -12.5 110.001s-24.166 60.667 -47.499 84c-35.333 35.333 -80 53 -134 53s-98.667 -17.667 -134 -53c-23.333 -23.333 -39.166 -51.333 -47.499 -84s-12.5 -69.334 -12.5 -110.001s4.16699 -77.334 12.5 -110.001
s24.166 -60.667 47.499 -84c35.333 -35.333 80 -53 134 -53s98.667 17.667 134 53c23.333 23.333 39.166 51.333 47.499 84s12.5 69.334 12.5 110.001zM406 241c0 -36 -2.66699 -67.333 -8 -94s-17 -49 -35 -67c-27.333 -27.333 -60.666 -41 -99.999 -41
s-72.666 13.667 -99.999 41c-18 18 -29.667 40.333 -35 67s-8 58 -8 94s2.66699 67.333 8 94s17 49 35 67c27.333 27.333 60.666 41 99.999 41s72.666 -13.667 99.999 -41c18 -18 29.667 -40.333 35 -67s8 -58 8 -94zM396 600v77h-58v-77h58zM188 600v77h-58v-77h58z" />
    <glyph glyph-name="divide" unicode="&#xf7;" 
d="M292 397v70h-70v-70h70zM461 240v47h-408v-47h408zM292 60v70h-70v-70h70z" />
    <glyph glyph-name="oslash" unicode="&#xf8;" horiz-adv-x="526" 
d="M457 241c0 40 -4 76 -12 108s-23 59.667 -45 83l56 94h-48l-40 -68c-30 20 -65 30 -105 30c-54 0 -98.667 -17.667 -134 -53c-23.333 -23.333 -39.166 -51.333 -47.499 -84s-12.5 -69.334 -12.5 -110.001c0 -40 4 -76 12 -108s23 -59.667 45 -83l-56 -94h48l40 67
c30.667 -19.333 65.667 -29 105 -29c54 0 98.667 17.667 134 53c23.333 23.333 39.166 51.333 47.499 84s12.5 69.334 12.5 110.001zM406 241c0 -36 -2.66797 -67.333 -8.00098 -94s-17 -49 -35 -67c-27.333 -27.333 -60.666 -41 -99.999 -41c-30 0 -57 8.33301 -81 25
l192 325c13.333 -18 22 -39.167 26 -63.5s6 -52.5 6 -84.5zM343.999 418l-191.999 -325c-13.333 18.667 -22 40 -26 64s-6 52 -6 84c0 36 2.66699 67.333 8 94s17 49 35 67c27.333 27.333 60.666 41 99.999 41c30 0 57 -8.33301 81 -25z" />
    <glyph glyph-name="ugrave" unicode="&#xf9;" horiz-adv-x="559" 
d="M462 0v481.998h-51v-299c0 -45.333 -11.833 -80.666 -35.5 -105.999s-57.167 -38 -100.5 -38s-76.333 12.333 -99 37s-34 60.334 -34 107.001v299h-51v-308c0 -57.333 16.667 -102 50 -134c32 -30.667 74.667 -46 128 -46c58.667 0 106 21 142 63v-57h51zM323 589.998
l-97 147h-67l106 -147h58z" />
    <glyph glyph-name="uacute" unicode="&#xfa;" horiz-adv-x="559" 
d="M462 0v481.998h-51v-299c0 -45.333 -11.833 -80.666 -35.5 -105.999s-57.167 -38 -100.5 -38s-76.333 12.333 -99 37s-34 60.334 -34 107.001v299h-51v-308c0 -57.333 16.667 -102 50 -134c32 -30.667 74.667 -46 128 -46c58.667 0 106 21 142 63v-57h51zM393 736.998
h-67l-97 -147h58z" />
    <glyph glyph-name="ucircumflex" unicode="&#xfb;" horiz-adv-x="559" 
d="M462 0v481.998h-51v-299c0 -45.333 -11.833 -80.666 -35.5 -105.999s-57.167 -38 -100.5 -38s-76.333 12.333 -99 37s-34 60.334 -34 107.001v299h-51v-308c0 -57.333 16.667 -102 50 -134c32 -30.667 74.667 -46 128 -46c58.667 0 106 21 142 63v-57h51zM426 589.998
l-123 147h-54l-123 -147h57l93 109l93 -109h57z" />
    <glyph glyph-name="udieresis" unicode="&#xfc;" horiz-adv-x="559" 
d="M462 0v481.998h-51v-299c0 -45.333 -11.833 -80.666 -35.5 -105.999s-57.167 -38 -100.5 -38s-76.333 12.333 -99 37s-34 60.334 -34 107.001v299h-51v-308c0 -57.333 16.667 -102 50 -134c32 -30.667 74.667 -46 128 -46c58.667 0 106 21 142 63v-57h51zM409 599.998v77
h-58v-77h58zM201 599.998v77h-58v-77h58z" />
    <glyph glyph-name="yacute" unicode="&#xfd;" horiz-adv-x="430" 
d="M416 482l-56.001 -0.000976562l-145 -422l-145 422h-56l176 -482l-39 -107c-9.33301 -25.333 -19.666 -42.666 -30.999 -51.999s-30.333 -14 -57 -14h-19v-45h24c17.333 0 34 2.5 50 7.5s29.667 12.833 41 23.5c12.667 11.333 23.667 30 33 56zM331.999 736.999h-67
l-97 -147h58z" />
    <glyph glyph-name="thorn" unicode="&#xfe;" horiz-adv-x="540" 
d="M471 241c0 43.333 -4.66699 82.666 -14 117.999s-25.333 64.333 -48 87c-12.667 12.667 -29.334 22.834 -50.001 30.501s-43.334 11.5 -68.001 11.5c-30 0 -56.5 -4.83301 -79.5 -14.5s-44.167 -27.5 -63.5 -53.5v292h-51v-942h51v292
c19.333 -26 40.5 -43.833 63.5 -53.5s49.5 -14.5 79.5 -14.5c24.667 0 47.334 3.83301 68.001 11.5s37.334 17.834 50.001 30.501c22.667 22.667 38.667 51.667 48 87s14 74.666 14 117.999zM420 241c0 -28 -1.66699 -53.667 -5 -77s-9.83301 -44.5 -19.5 -63.5
s-23.667 -34 -42 -45s-41.5 -16.5 -69.5 -16.5s-51.167 5.5 -69.5 16.5s-32.333 26 -42 45s-16.167 40.167 -19.5 63.5s-5 49 -5 77s1.66699 53.667 5 77s9.83301 44.5 19.5 63.5s23.667 34 42 45s41.5 16.5 69.5 16.5s51.167 -5.5 69.5 -16.5s32.333 -26 42 -45
s16.167 -40.167 19.5 -63.5s5 -49 5 -77z" />
    <glyph glyph-name="ydieresis" unicode="&#xff;" horiz-adv-x="430" 
d="M416 482l-56.001 -0.000976562l-145 -422l-145 422h-56l176 -482l-39 -107c-9.33301 -25.333 -19.666 -42.666 -30.999 -51.999s-30.333 -14 -57 -14h-19v-45h24c17.333 0 34 2.5 50 7.5s29.667 12.833 41 23.5c12.667 11.333 23.667 30 33 56zM347.999 599.999v77h-58
v-77h58zM139.999 599.999v77h-58v-77h58z" />
    <glyph glyph-name="dotlessi" unicode="&#x131;" horiz-adv-x="245" 
d="M148 0v482h-51v-482h51z" />
    <glyph glyph-name="Lslash" unicode="&#x141;" horiz-adv-x="578" 
d="M548 0v48h-378v292l164 104v48l-164 -104v324h-54v-358l-76 -48v-48l76 48v-306h432z" />
    <glyph glyph-name="Zcaron" unicode="&#x17d;" horiz-adv-x="559" 
d="M496 0v48h-378l378 616v48h-418v-48h360l-375 -607v-57h433zM437 927h-57l-93 -109l-93 109h-57l123 -147h54z" />
    <glyph glyph-name="zcaron" unicode="&#x17e;" horiz-adv-x="452" 
d="M398 0v45h-291l291 389v48h-328v-45h274l-290 -389v-48h344zM384 737h-57l-93 -109l-93 109h-57l123 -147h54z" />
    <glyph glyph-name="caron" unicode="&#x2c7;" horiz-adv-x="500" 
d="M400 737h-57l-93 -109l-93 109h-57l123 -147h54z" />
    <glyph glyph-name="breve" unicode="&#x2d8;" horiz-adv-x="500" 
d="M415 722h-43c-4 -28 -16.5 -50 -37.5 -66s-48.5 -24 -82.5 -24s-61.5 8 -82.5 24s-33.5 38 -37.5 66h-47c4.66699 -44 20.5 -77.5 47.5 -100.5s66.833 -34.5 119.5 -34.5c52 0 91 11.5 117 34.5s41.333 56.5 46 100.5z" />
    <glyph glyph-name="dotaccent" unicode="&#x2d9;" horiz-adv-x="500" 
d="M281 643v63h-62v-63h62z" />
    <glyph glyph-name="ring" unicode="&#x2da;" horiz-adv-x="500" 
d="M364 677c0 31.333 -11.167 58.166 -33.5 80.499s-49.166 33.5 -80.499 33.5s-58.166 -11.167 -80.499 -33.5s-33.5 -49.166 -33.5 -80.499s11.167 -58.333 33.5 -81s49.166 -34 80.499 -34s58.166 11.333 80.499 34s33.5 49.667 33.5 81zM323 677
c0 -20 -7.16699 -37.167 -21.5 -51.5s-31.5 -21.5 -51.5 -21.5s-37.167 7.16699 -51.5 21.5s-21.5 31.5 -21.5 51.5s7.16699 37 21.5 51s31.5 21 51.5 21s37.167 -7 51.5 -21s21.5 -31 21.5 -51z" />
    <glyph glyph-name="ogonek" unicode="&#x2db;" horiz-adv-x="500" 
d="M319 -220l-72 150h-55l64 -150h63z" />
    <glyph glyph-name="hungarumlaut" unicode="&#x2dd;" horiz-adv-x="500" 
d="M441 737h-67l-97 -147h57zM294 737h-67l-97 -147h58z" />
    <glyph glyph-name="Delta" unicode="&#x394;" horiz-adv-x="591" 
d="M581 0l-262 712h-47l-262 -712h571zM511 48h-431l215 592z" />
    <glyph glyph-name="Omega" unicode="&#x3a9;" horiz-adv-x="652" 
d="M570 0l-0.00488281 47h-91c14.667 12 27 23.5 37 34.5s18.333 23.167 25 36.5c12.667 22.667 20.667 51.334 24 86.001s5 85.334 5 152.001c0 48 -0.5 85.167 -1.5 111.5s-3.5 49.833 -7.5 70.5s-10.5 39.667 -19.5 57s-21.5 34 -37.5 50
c-23.333 23.333 -50.5 41.333 -81.5 54s-63.167 19 -96.5 19s-65.5 -6.33301 -96.5 -19s-58.167 -30.667 -81.5 -54c-16 -16 -28.5 -32.667 -37.5 -50s-15.5 -36.333 -19.5 -57s-6.5 -44.167 -7.5 -70.5s-1.5 -63.5 -1.5 -111.5c0 -66.667 1.66699 -117.334 5 -152.001
s11.333 -63.334 24 -86.001c7.33301 -13.333 15.833 -25.5 25.5 -36.5s21.834 -22.5 36.501 -34.5h-91v-47h186v47c-25.333 12 -46.166 24.667 -62.499 38s-30.5 30 -42.5 50c-11.333 18.667 -18.666 44.667 -21.999 78s-5 81 -5 143c0 44 0.5 78.5 1.5 103.5
s3.33301 46.833 7 65.5s9.16699 35.167 16.5 49.5s17.333 27.833 30 40.5c36.667 36.667 81.667 55 135 55s98.333 -18.333 135 -55c12.667 -12.667 22.667 -26.167 30 -40.5s12.833 -30.833 16.5 -49.5s6 -40.5 7 -65.5s1.5 -59.5 1.5 -103.5
c0 -62 -1.66699 -109.667 -5 -143s-10.666 -59.333 -21.999 -78c-12 -20 -26.167 -36.667 -42.5 -50s-37.166 -26 -62.499 -38v-47h186z" />
    <glyph glyph-name="pi" unicode="&#x3c0;" horiz-adv-x="591" 
d="M481 0v482h-371v-482h48v437h275v-437h48z" />
    <glyph glyph-name="fraction" unicode="&#x2044;" horiz-adv-x="177" 
d="M277 712h-45l-332 -712h45z" />
    <glyph glyph-name="partialdiff" unicode="&#x2202;" horiz-adv-x="540" 
d="M443 241v268c0 63.333 -17.333 114 -52 152s-83 57 -145 57c-34 0 -62 -4.83301 -84 -14.5s-46.667 -26.5 -74 -50.5l33 -33c21.333 19.333 40.5 33 57.5 41s39.5 12 67.5 12c48.667 0 85.167 -15.333 109.5 -46s36.5 -71 36.5 -121v-86
c-19.333 26 -40.5 43.833 -63.5 53.5s-49.5 14.5 -79.5 14.5c-24.667 0 -47.5 -4.66699 -68.5 -14s-38.833 -21.333 -53.5 -36c-22.667 -22.667 -38 -50.167 -46 -82.5s-12 -70.5 -12 -114.5c0 -40.667 4.16699 -77.334 12.5 -110.001s23.5 -60.667 45.5 -84
c34 -35.333 77 -53 129 -53s95 17.667 129 53c22.667 23.333 38 51.333 46 84s12 69.334 12 110.001zM392 241c0 -36.667 -2.5 -68.167 -7.5 -94.5s-16.167 -48.5 -33.5 -66.5c-26 -27.333 -57.667 -41 -95 -41s-69 13.667 -95 41c-16.667 18 -27.667 40.167 -33 66.5
s-8 57.833 -8 94.5s2.66699 68.167 8 94.5s16.333 48.5 33 66.5c26 27.333 57.667 41 95 41s69 -13.667 95 -41c17.333 -18 28.5 -40.167 33.5 -66.5s7.5 -57.833 7.5 -94.5z" />
    <glyph glyph-name="product" unicode="&#x220f;" horiz-adv-x="699" 
d="M589 -230v990h-479v-990h54v942h371v-942h54z" />
    <glyph glyph-name="summation" unicode="&#x2211;" horiz-adv-x="551" 
d="M495 -230v48h-371l195 437v48l-195 409h371v48h-432v-48l207 -433l-207 -461v-48h432z" />
    <glyph glyph-name="periodcentered" unicode="&#x2219;" horiz-adv-x="264" 
d="M169 227v74h-74v-74h74z" />
    <glyph glyph-name="radical" unicode="&#x221a;" horiz-adv-x="550" 
d="M520 664v48h-129l-199 -617l-126 387h-56l159 -482h46l217 664h88z" />
    <glyph glyph-name="infinity" unicode="&#x221e;" horiz-adv-x="792" 
d="M720 260c0 42.667 -13.832 78.333 -41.499 107s-62.834 43 -105.501 43c-34 0 -64 -8.33301 -90 -25s-55 -45 -87 -85c-31.333 39.333 -60.5 67.5 -87.5 84.5s-56.5 25.5 -88.5 25.5c-42.667 0 -78 -14.333 -106 -43s-42 -64.334 -42 -107.001s14 -78.167 42 -106.5
s63.333 -42.5 106 -42.5c32.667 0 62.167 8.33301 88.5 25s55.5 44.667 87.5 84c31.333 -39.333 60.166 -67.166 86.499 -83.499s56.5 -24.5 90.5 -24.5c42.667 0 77.834 14 105.501 42s41.5 63.333 41.5 106zM672.001 259.999c0 -30.667 -9.5 -55.333 -28.5 -74
s-43.833 -28 -74.5 -28c-24.667 0 -47.167 8 -67.5 24s-45.5 42 -75.5 78c30 36.667 55.167 63 75.5 79s42.833 24 67.5 24c30.667 0 55.5 -9.5 74.5 -28.5s28.5 -43.833 28.5 -74.5zM366.001 260c-30 -36 -55.167 -62.0029 -75.5 -78.0029s-42.833 -24 -67.5 -24
c-30.667 0 -55.5 9.33301 -74.5 28s-28.5 43.334 -28.5 74.001s9.5 55.834 28.5 75.501s43.833 29.5 74.5 29.5c24.667 0 47 -8.16699 67 -24.5s45.333 -43.166 76 -80.499z" />
    <glyph glyph-name="integral" unicode="&#x222b;" horiz-adv-x="329" 
d="M299 667v45h-44c-36.667 0 -65.167 -11.5 -85.5 -34.5s-30.5 -53.5 -30.5 -91.5v-691c0 -25.333 -6 -45 -18 -59s-30.667 -21 -56 -21h-35v-45h44c37.333 0 66 11.5 86 34.5s30 53.5 30 91.5v691c0 25.333 6.16699 45 18.5 59s30.833 21 55.5 21h35z" />
    <glyph glyph-name="approxequal" unicode="&#x2248;" 
d="M461 357l-31 31c-18.667 -18.667 -33.334 -30.834 -44.001 -36.501s-23.667 -8.5 -39 -8.5c-10.667 0 -20.834 1.5 -30.501 4.5s-21.834 7.83301 -36.501 14.5l-9 4l-13 6c-20.667 8.66699 -37.5 15 -50.5 19s-25.833 6 -38.5 6c-20.667 0 -38.667 -3.83301 -54 -11.5
s-36 -24.5 -62 -50.5l31 -31c18.667 18.667 33.5 30.834 44.5 36.501s23.833 8.5 38.5 8.5c10.667 0 20.834 -1.5 30.501 -4.5s21.834 -7.83301 36.501 -14.5l9 -4l13 -6c20.667 -8.66699 37.5 -15 50.5 -19s25.833 -6 38.5 -6c20.667 0 38.834 4 54.501 12
s36.167 24.667 61.5 50zM461 197l-31 31c-18.667 -18.667 -33.334 -30.834 -44.001 -36.501s-23.667 -8.5 -39 -8.5c-10.667 0 -20.834 1.5 -30.501 4.5s-21.834 7.83301 -36.501 14.5l-9 4l-13 6c-20.667 8.66699 -37.5 15 -50.5 19s-25.833 6 -38.5 6
c-20.667 0 -38.667 -3.83301 -54 -11.5s-36 -24.5 -62 -50.5l31 -31c18.667 18.667 33.5 30.834 44.5 36.501s23.833 8.5 38.5 8.5c10.667 0 20.834 -1.5 30.501 -4.5s21.834 -7.83301 36.501 -14.5l9 -4l13 -6c20.667 -8.66699 37.5 -15 50.5 -19s25.833 -6 38.5 -6
c20.667 0 38.834 4 54.501 12s36.167 24.667 61.5 50z" />
    <glyph glyph-name="notequal" unicode="&#x2260;" 
d="M461 163v47h-224l106 106h118v47h-71l71 71l-33 33l-104 -104h-271v-47h224l-106 -106h-118v-47h71l-71 -71l33 -33l104 104h271z" />
    <glyph glyph-name="lessequal" unicode="&#x2264;" horiz-adv-x="1027" 
d="M854 -42l-579 579h536l-49 49h-571v-572l48 -48v536l580 -579z" />
    <glyph glyph-name="greaterequal" unicode="&#x2265;" horiz-adv-x="1027" 
d="M836 14v572h-571l-49 -49h536l-579 -579l35 -35l580 579v-536z" />
    <glyph glyph-name="lozenge" unicode="&#x25ca;" horiz-adv-x="654" 
d="M582 356l-255 363l-255 -363l255 -363zM525 356l-198 -287l-198 287l198 285z" />
    <glyph glyph-name="fi" unicode="&#xf001;" horiz-adv-x="547" 
d="M456 649v63h-63v-63h63zM450 0v482h-51v-482h51zM272 444v38h-109v105c0 25.333 6.16699 45 18.5 59s30.833 21 55.5 21h35v45h-44c-36.667 0 -65.167 -11.5 -85.5 -34.5s-30.5 -53.5 -30.5 -91.5v-104h-66v-38h66v-444h51v444h109z" />
    <glyph glyph-name="fl" unicode="&#xf002;" horiz-adv-x="586" 
d="M554 0v45h-35c-27.333 0 -46.5 6.5 -57.5 19.5s-16.5 33.5 -16.5 61.5v586h-51v-587c0 -38.667 9.83301 -69.167 29.5 -91.5s48.5 -33.5 86.5 -33.5h44zM272 444v38h-109v105c0 25.333 6.16699 45 18.5 59s30.833 21 55.5 21h35v45h-44
c-36.667 0 -65.167 -11.5 -85.5 -34.5s-30.5 -53.5 -30.5 -91.5v-104h-66v-38h66v-444h51v444h109z" />
    <glyph glyph-name=".null" horiz-adv-x="0" 
 />
    <glyph glyph-name="glyph2" horiz-adv-x="255" 
 />
    <glyph glyph-name="glyph246" horiz-adv-x="255" 
 />
    </font>
</defs>
</svg>
