<?xml version="1.0" standalone="no"?>
<!DOCTYPE svg PUBLIC "-//W3C//DTD SVG 1.1//EN" "http://www.w3.org/Graphics/SVG/1.1/DTD/svg11.dtd" >
<svg>
<metadata>
Created by FontForge 20090914 at Wed Apr 11 11:56:10 2018
 By www-data
Copyright (c) Dutch Design: Albert-Jan Pool, . Published by FontShop International FontFont release, 1970. All rights reserved.
</metadata>
<defs>
<font id="DIN-Bold" horiz-adv-x="543" >
  <font-face 
    font-family="DIN-Bold"
    font-weight="400"
    font-stretch="normal"
    units-per-em="1000"
    panose-1="2 11 5 0 0 0 0 0 0 0"
    ascent="800"
    descent="-200"
    x-height="521"
    cap-height="712"
    bbox="-115 -206.002 1158 1015"
    underline-thickness="87"
    underline-position="-49"
    unicode-range="U+0020-U+F002"
  />
<missing-glyph horiz-adv-x="502" 
d="M-1 0h500v500h-500v-500zM9 10v480h480v-480h-480z" />
    <glyph glyph-name=".notdef" horiz-adv-x="502" 
d="M-1 0h500v500h-500v-500zM9 10v480h480v-480h-480z" />
    <glyph glyph-name="space" unicode=" " horiz-adv-x="232" 
 />
    <glyph glyph-name="exclam" unicode="!" horiz-adv-x="347" 
d="M272 712h-160l31 -489h98zM261 0v133h-138v-133h138z" />
    <glyph glyph-name="quotedbl" unicode="&#x22;" horiz-adv-x="464" 
d="M395 501v211h-121v-211h121zM190 501v211h-122v-211h122z" />
    <glyph glyph-name="numbersign" unicode="#" horiz-adv-x="691" 
d="M643 420v121h-69l27 177h-136l-28 -177h-116l28 177h-137l-28 -177h-89v-121h70l-16 -108h-89v-122h69l-30 -190h137l30 190h116l-31 -190h137l30 190h89v122h-69l16 108h89zM417 420l-16 -108h-116l17 108h115z" />
    <glyph glyph-name="dollar" unicode="$" horiz-adv-x="619" 
d="M571 210c0 65.333 -18.333 115.334 -55 150.001c-15.333 14.667 -33.833 26.5 -55.5 35.5s-48.5 15.833 -80.5 20.5l-38 6v174c23.333 -1.33301 45.833 -6 67.5 -14s40.167 -19.333 55.5 -34l88 87c-26.667 26 -56 45.5 -88 58.5s-68.333 20.833 -109 23.5v89h-101v-90
c-64.667 -6.66699 -115.5 -29.5 -152.5 -68.5s-55.5 -87.5 -55.5 -145.5c0 -58.667 17 -105 51 -139c32 -32 78 -52 138 -60l32 -4v-181c-32 1.33301 -61.5 6.66602 -88.5 15.999s-50.5 24 -70.5 44l-90 -90c31.333 -32 66 -55.333 104 -70s82 -22.667 132 -24v-108h101v112
c64.667 8 116.667 30.5 156 67.5s59 85.167 59 144.5zM268 428.001c-28.667 4 -50.667 13.333 -66 28c-14 13.333 -21 30.333 -21 51c0 22.667 7.5 42 22.5 58s36.5 26 64.5 30v-167zM435 206.001c0 -50 -31 -78.667 -93 -86v172c0.666992 0 2 -0.333008 4 -1
c16 -2 29 -4.66699 39 -8s19.333 -9 28 -17c14.667 -13.333 22 -33.333 22 -60z" />
    <glyph glyph-name="percent" unicode="%" horiz-adv-x="848" 
d="M796 131v99c0 43.333 -13.833 77 -41.5 101s-62.167 36 -103.5 36s-75.833 -12 -103.5 -36s-41.5 -57.667 -41.5 -101v-99c0 -43.333 13.833 -77 41.5 -101s62.167 -36 103.5 -36s75.833 12 103.5 36s41.5 57.667 41.5 101zM702 135c0 -38 -17 -57 -51 -57s-51 19 -51 57
v91c0 38 17 57 51 57s51 -19 51 -57v-91zM644 712h-102l-337 -712h102zM342 482v99c0 43.333 -13.833 77 -41.5 101s-62.167 36 -103.5 36s-75.833 -12 -103.5 -36s-41.5 -57.667 -41.5 -101v-99c0 -43.333 13.833 -77 41.5 -101s62.167 -36 103.5 -36s75.833 12 103.5 36
s41.5 57.667 41.5 101zM248 486c0 -38 -17 -57 -51 -57s-51 19 -51 57v91c0 38 17 57 51 57s51 -19 51 -57v-91z" />
    <glyph glyph-name="ampersand" unicode="&#x26;" horiz-adv-x="721" 
d="M479 62l52 -61.998h165l-128 151c24 27.333 42 59 54 95s19.333 78 22 126h-123c-2 -54 -14 -95.667 -36 -125l-120 142c8 5.33301 17.167 11.833 27.5 19.5l23.5 17.5c23.333 17.333 41.333 35.833 54 55.5s19 42.5 19 68.5c0 49.333 -16.5 89.666 -49.5 120.999
s-77.167 47 -132.5 47c-58.667 0 -105 -15.333 -139 -46s-51 -70.667 -51 -120c0 -30 6.66699 -56.667 20 -80s30.333 -47 51 -71c-38 -24.667 -68.833 -52.334 -92.5 -83.001s-35.5 -66.667 -35.5 -108c0 -68 19.833 -121 59.5 -159s98.167 -57 175.5 -57
c43.333 0 78 6 104 18s51.333 27.667 76 47zM366 549.002c0 -11.333 -3.66699 -21.999 -11 -31.999s-17.333 -19.333 -30 -28c-3.33301 -2.66699 -8 -6 -14 -10s-11.333 -7.33301 -16 -10l-1 2c-16 18 -27.667 32.667 -35 44s-11 22.666 -11 33.999
c0 17.333 5.16699 31.333 15.5 42s24.833 16 43.5 16c18 0 32.333 -5.5 43 -16.5s16 -24.833 16 -41.5zM400 154.003c-16.667 -14.667 -33.332 -25.332 -49.999 -31.999s-35.334 -10 -56.001 -10c-30.667 0 -56.334 9.33301 -77.001 28s-31 42.667 -31 72
c0 23.333 5.83301 43.166 17.5 59.499s29.834 32.833 54.501 49.5z" />
    <glyph glyph-name="quotesingle" unicode="'" horiz-adv-x="259" 
d="M191 501v211h-123v-211h123z" />
    <glyph glyph-name="parenleft" unicode="(" horiz-adv-x="336" 
d="M281 -7l-5 5c-13.333 13.333 -23.333 24 -30 32s-13.667 18 -21 30c-10 18 -15 46 -15 84v424c0 38 5 66 15 84c7.33301 12 14.5 22.167 21.5 30.5s16.833 18.833 29.5 31.5l5 5l-87 87l-5 -5c-20.667 -20.667 -37.334 -38.167 -50.001 -52.5s-23.667 -29.5 -33 -45.5
c-10.667 -18 -17.667 -37.5 -21 -58.5s-5 -44.5 -5 -70.5v-436c0 -26 1.66699 -49.5 5 -70.5s10.333 -40.5 21 -58.5c9.33301 -16 20.333 -31.167 33 -45.5s29.334 -31.833 50.001 -52.5l5 -5z" />
    <glyph glyph-name="parenright" unicode=")" horiz-adv-x="336" 
d="M256 138v435.998c0 26 -1.66699 49.5 -5 70.5s-10.333 40.5 -21 58.5c-9.33301 16 -20.333 31.167 -33 45.5s-29 31.833 -49 52.5l-6 5l-88 -88l9 -9c12 -12 21.167 -21.667 27.5 -29s12.833 -16.666 19.5 -27.999c10 -18 15 -46 15 -84v-424c0 -38 -5 -66 -15 -84
c-6.66699 -11.333 -13.167 -20.666 -19.5 -27.999s-15.5 -17 -27.5 -29l-9 -9l88 -88l6 5c20 20.667 36.333 38.167 49 52.5s23.667 29.5 33 45.5c10.667 18 17.667 37.5 21 58.5s5 44.5 5 70.5z" />
    <glyph glyph-name="asterisk" unicode="*" horiz-adv-x="494" 
d="M440 460l-111 58l111 58l-46 80l-105 -67l4 125h-92l5 -125l-106 67l-45 -80l110 -58l-110 -58l45 -79l106 66l-5 -125h92l-4 125l105 -66z" />
    <glyph glyph-name="plus" unicode="+" 
d="M493 216v122h-160v160h-122v-160h-161v-122h161v-160h122v160h160z" />
    <glyph glyph-name="comma" unicode="," horiz-adv-x="279" 
d="M211 -55v197h-143v-307z" />
    <glyph glyph-name="hyphen" unicode="-" horiz-adv-x="426" 
d="M367 225v121h-308v-121h308z" />
    <glyph glyph-name="period" unicode="." horiz-adv-x="285" 
d="M217 0v148h-149v-148h149z" />
    <glyph glyph-name="slash" unicode="/" horiz-adv-x="403" 
d="M407 786h-122l-285 -860h122z" />
    <glyph glyph-name="zero" unicode="0" 
d="M488 206v300c0 65.333 -20.833 117 -62.5 155s-92.834 57 -153.501 57s-112 -19 -154 -57s-63 -89.667 -63 -155v-300c0 -65.333 21 -117 63 -155s93.333 -57 154 -57s111.834 19 153.501 57s62.5 89.667 62.5 155zM358 207c0 -29.333 -7.83301 -52.666 -23.5 -69.999
s-36.5 -26 -62.5 -26s-47 8.66699 -63 26s-24 40.666 -24 69.999v297c0 29.333 8 52.833 24 70.5s37 26.5 63 26.5s46.833 -8.83301 62.5 -26.5s23.5 -41.167 23.5 -70.5v-297z" />
    <glyph glyph-name="one" unicode="1" 
d="M378 0v712h-130l-145 -126v-140l145 126v-572h130z" />
    <glyph glyph-name="two" unicode="2" 
d="M492 0l-0.000976562 117.001h-275l199 231c28 32.667 47.667 60 59 82s17 49 17 81c0 63.333 -20 113.666 -60 150.999s-92 56 -156 56c-62.667 0 -114.5 -18.833 -155.5 -56.5s-61.5 -88.167 -61.5 -151.5h130c0 32 8.33301 55.167 25 69.5s37.334 21.5 62.001 21.5
c27.333 0 48.5 -8 63.5 -24s22.5 -37.667 22.5 -65c0 -16 -2.83301 -30.333 -8.5 -43s-15.167 -27 -28.5 -43l-266 -309v-117h433z" />
    <glyph glyph-name="three" unicode="3" 
d="M403 368c25.333 13.333 45.332 31.998 59.999 55.998s22 54 22 90c0 29.333 -5.33301 56.666 -16 81.999s-25.667 47 -45 65s-42.333 32 -69 42s-55.667 15 -87 15c-61.333 0 -112.666 -18.333 -153.999 -55s-62.666 -86 -63.999 -148h130
c1.33301 26.667 10.166 47.667 26.499 63s36.833 23 61.5 23s45.334 -8 62.001 -24s25 -38.333 25 -67c0 -26.667 -7.5 -48.167 -22.5 -64.5s-37.5 -24.5 -67.5 -24.5h-19v-113h19c31.333 0 55.833 -8.83301 73.5 -26.5s26.5 -41.5 26.5 -71.5
c0 -31.333 -8.83301 -55.666 -26.5 -72.999s-40.834 -26 -69.501 -26c-27.333 0 -50.166 7.83301 -68.499 23.5s-27.833 38.834 -28.5 69.501h-130c0.666992 -36 7.16699 -67.333 19.5 -94s29.166 -48.667 50.499 -66s45.333 -30 72 -38s55 -12 85 -12
c64.667 0 118.5 18.333 161.5 55s64.5 89 64.5 157c0 40 -8.33301 73.333 -25 100s-39 47.334 -67 62.001z" />
    <glyph glyph-name="four" unicode="4" 
d="M512 101v123h-65v133h-125v-133h-149l244 488h-142l-244 -488v-123h291v-101h125v101h65z" />
    <glyph glyph-name="five" unicode="5" 
d="M494 240c0 40 -4.33496 75.335 -13.002 106.002s-25.667 58.667 -51 84c-32 32 -76.333 48 -133 48c-22.667 0 -43.5 -3.5 -62.5 -10.5s-33.833 -15.5 -44.5 -25.5v153h288v117h-406v-402h119c5.33301 16.667 15 30.5 29 41.5s33 16.5 57 16.5
c30.667 0 52.834 -10.667 66.501 -32s20.5 -53.333 20.5 -96c0 -24.667 -2 -45.834 -6 -63.501s-11.333 -31.834 -22 -42.501c-15.333 -15.333 -36 -23 -62 -23s-46.167 7.5 -60.5 22.5s-23.166 36.833 -26.499 65.5h-130c2.66699 -30.667 8 -58 16 -82s22 -46 42 -66
c16.667 -16.667 38.667 -30.334 66 -41.001s58.333 -16 93 -16s65.167 5.33301 91.5 16s48.166 24.667 65.499 42c24.667 24.667 41.334 51.334 50.001 80.001s13 64.667 13 108z" />
    <glyph glyph-name="six" unicode="6" 
d="M492 216c0 32 -5 61.166 -15 87.499s-23.833 48.666 -41.5 66.999s-37.834 32.333 -60.501 42s-46 14.5 -70 14.5c-20.667 0 -38.334 -3 -53.001 -9l148 294h-142l-150 -308c-20 -40.667 -35 -75.167 -45 -103.5s-15 -57.166 -15 -86.499
c0 -68.667 20.833 -122.5 62.5 -161.5s94.834 -58.5 159.501 -58.5s117.834 19.833 159.501 59.5s62.5 93.834 62.5 162.501zM362 214.999c0 -32 -8.5 -57.333 -25.5 -76s-39.167 -28 -66.5 -28s-49.5 9.33301 -66.5 28s-25.5 44 -25.5 76c0 32.667 8.5 58.167 25.5 76.5
s39.167 27.5 66.5 27.5s49.5 -9.5 66.5 -28.5s25.5 -44.167 25.5 -75.5z" />
    <glyph glyph-name="seven" unicode="7" 
d="M503 595v117h-453v-229h124v112h188l-231 -595h141z" />
    <glyph glyph-name="eight" unicode="8" 
d="M500 207c0 38.667 -8.66895 70.834 -26.002 96.501s-38.666 46.834 -63.999 63.501c22 15.333 40.833 35.333 56.5 60s23.5 54 23.5 88c0 30.667 -5.66699 58.667 -17 84s-27 46.833 -47 64.5s-43.167 31.167 -69.5 40.5s-54.5 14 -84.5 14s-58.167 -4.66699 -84.5 -14
s-49.666 -22.833 -69.999 -40.5s-36.166 -39.167 -47.499 -64.5s-17 -53.333 -17 -84c0 -34 7.83301 -63.333 23.5 -88s34.5 -44.667 56.5 -60c-25.333 -16.667 -46.5 -37.834 -63.5 -63.501s-25.5 -57.834 -25.5 -96.501c0 -66.667 21.667 -118.834 65 -156.501
s97.666 -56.5 162.999 -56.5c66 0 120.5 18.833 163.5 56.5s64.5 89.834 64.5 156.501zM359.998 511c0 -26 -8.33301 -47.5 -25 -64.5s-37.667 -25.5 -63 -25.5s-46.5 8.5 -63.5 25.5s-25.5 38.5 -25.5 64.5c0 25.333 8.5 46.666 25.5 63.999s38.167 26 63.5 26
s46.333 -8.66699 63 -26s25 -38.666 25 -63.999zM369.998 209c0 -27.333 -9.5 -50.5 -28.5 -69.5s-42.167 -28.5 -69.5 -28.5s-50.5 9.5 -69.5 28.5s-28.5 42.167 -28.5 69.5s9.5 50.666 28.5 69.999s42.167 29 69.5 29s50.5 -9.66699 69.5 -29s28.5 -42.666 28.5 -69.999z
" />
    <glyph glyph-name="nine" unicode="9" 
d="M495 498c0 68.667 -20.833 122.5 -62.5 161.5s-94.834 58.5 -159.501 58.5s-117.834 -19.833 -159.501 -59.5s-62.5 -93.834 -62.5 -162.501c0 -32 5.16699 -61.167 15.5 -87.5s24.333 -48.666 42 -66.999s37.834 -32.333 60.501 -42s46 -14.5 70 -14.5
c20.667 0 38.334 3 53.001 9l-148 -294h141l151 308c19.333 40 34 74.333 44 103s15 57.667 15 87zM365 497c0 -32 -8.5 -57.333 -25.5 -76s-39.167 -28 -66.5 -28s-49.5 9.5 -66.5 28.5s-25.5 44.167 -25.5 75.5c0 32.667 8.5 58.167 25.5 76.5s39.167 27.5 66.5 27.5
s49.5 -9.16699 66.5 -27.5s25.5 -43.833 25.5 -76.5z" />
    <glyph glyph-name="colon" unicode=":" horiz-adv-x="309" 
d="M241 271v148h-148v-148h148zM241 0v148h-148v-148h148z" />
    <glyph glyph-name="semicolon" unicode=";" horiz-adv-x="309" 
d="M241 271v148h-148v-148h148zM238 -55v197h-142v-307z" />
    <glyph glyph-name="less" unicode="&#x3c;" horiz-adv-x="1027" 
d="M976 224v123h-703l326 323h-164l-385 -385l385 -385h164l-326 324h703z" />
    <glyph glyph-name="equal" unicode="=" 
d="M493 333v122h-443v-122h443zM493 116v122h-443v-122h443z" />
    <glyph glyph-name="greater" unicode="&#x3e;" horiz-adv-x="1027" 
d="M977 285l-385 385h-164l326 -323h-704v-123h704l-326 -324h164z" />
    <glyph glyph-name="question" unicode="?" horiz-adv-x="523" 
d="M254 357c-14 -18 -23.835 -34.6709 -29.502 -50.0039s-8.5 -33.333 -8.5 -54v-30h130v21c0 8 1.66699 16.833 5 26.5s7.66602 17.834 12.999 24.501l74 98c16 20.667 28.167 40.834 36.5 60.501s12.5 41.167 12.5 64.5c0 30.667 -5.5 58.5 -16.5 83.5
s-26.333 46.167 -46 63.5s-42.167 30.5 -67.5 39.5s-52.333 13.5 -81 13.5c-29.333 0 -56.666 -4.66699 -81.999 -14s-47.666 -22.666 -66.999 -39.999s-34.333 -38.5 -45 -63.5s-16 -52.5 -16 -82.5h130c0 24 7 43.833 21 59.5s33.667 23.5 59 23.5
c24.667 0 44.334 -7.66699 59.001 -23s22 -35 22 -59c0 -10.667 -2.66699 -21.667 -8 -33s-12.333 -22.666 -21 -33.999zM349.998 -0.00390625v133h-138v-133h138z" />
    <glyph glyph-name="at" unicode="@" horiz-adv-x="758" 
d="M700 -3v469.001c0 43.333 -4.66699 80.166 -14 110.499s-25 56.5 -47 78.5s-48.333 37.667 -79 47s-67 14 -109 14h-144c-42.667 0 -79.167 -4.66699 -109.5 -14s-56.5 -25 -78.5 -47s-37.833 -48.5 -47.5 -79.5s-14.5 -67.5 -14.5 -109.5v-299
c0 -43.333 5.83301 -77.833 17.5 -103.5s32.167 -51.834 61.5 -78.501l90 90c-16.667 14.667 -28.167 28.667 -34.5 42s-9.5 32.333 -9.5 57v289c0 22.667 2.33301 41.834 7 57.501s14 30.5 28 44.5c13.333 13.333 28 22.5 44 27.5s34.667 7.5 56 7.5h124
c43.333 0 76.666 -11.667 99.999 -35c12.667 -12.667 21.667 -27.334 27 -44.001s8 -36 8 -58v-45c-29.333 32.667 -68.666 49 -117.999 49c-25.333 0 -49 -4.5 -71 -13.5s-40.333 -21.5 -55 -37.5c-18.667 -20.667 -31 -44.5 -37 -71.5s-9 -64.833 -9 -113.5
c0 -49.333 3 -87.666 9 -114.999s18.667 -51.333 38 -72c31.333 -33.333 73.333 -50 126 -50c26.667 0 49.167 4.16699 67.5 12.5s35.833 21.5 52.5 39.5v-46zM576 231.001c0 -42 -6.16699 -74.001 -18.5 -96.001s-33.833 -33 -64.5 -33c-30 0 -51.167 10.833 -63.5 32.5
s-18.5 53.834 -18.5 96.501s6.16699 74.667 18.5 96s33.5 32 63.5 32c30.667 0 52.167 -10.833 64.5 -32.5s18.5 -53.5 18.5 -95.5z" />
    <glyph glyph-name="A" unicode="A" horiz-adv-x="638" 
d="M633 0l-260 712h-109l-259 -712h145l43 126h253l42 -126h145zM409 243h-177l90 259z" />
    <glyph glyph-name="B" unicode="B" horiz-adv-x="658" 
d="M599 205c0 42.667 -9.66699 76.8311 -29 102.498s-42.333 44.834 -69 57.501c22 10.667 42.167 28.834 60.5 54.501s27.5 56.5 27.5 92.5c0 61.333 -19.333 110 -58 146s-92.667 54 -162 54h-286v-712h298c65.333 0 118 18 158 54s60 86.333 60 151zM450 505.997
c0 -24.667 -8 -44.5 -24 -59.5s-38.667 -22.5 -68 -22.5h-136v164h136c29.333 0 52 -7.5 68 -22.5s24 -34.833 24 -59.5zM460 211.997c0 -25.333 -8 -46.334 -24 -63.001s-39 -25 -69 -25h-145v175h145c30 0 53 -8.16699 69 -24.5s24 -37.166 24 -62.499z" />
    <glyph glyph-name="C" unicode="C" horiz-adv-x="620" 
d="M583 219l-141 -0.00195312c-7.33301 -30.667 -20.833 -55.167 -40.5 -73.5s-46.167 -27.5 -79.5 -27.5c-38 0 -67.667 12.333 -89 37c-7.33301 8 -13.166 16.667 -17.499 26s-7.66602 21 -9.99902 35s-4.16602 32 -5.49902 54s-2 50.667 -2 86s0.666992 64 2 86
s3.16602 40 5.49902 54s5.66602 25.667 9.99902 35s10.166 18 17.499 26c21.333 24.667 51 37 89 37c33.333 0 59.833 -9.16699 79.5 -27.5s33.167 -42.833 40.5 -73.5h141c-12 72.667 -41.5 128.334 -88.5 167.001s-104.833 58 -173.5 58c-76 0 -140 -26 -192 -78
c-30.667 -30.667 -50 -66.167 -58 -106.5s-12 -99.5 -12 -177.5s4 -137 12 -177s27.333 -75.667 58 -107c52 -52 116 -78 192 -78c68 0 125.667 19.333 173 58s77 94.334 89 167.001z" />
    <glyph glyph-name="D" unicode="D" horiz-adv-x="659" 
d="M600 359c0 40.667 -0.664062 73.834 -1.99707 99.501s-4.33301 49.667 -9 72s-11.834 42.833 -21.501 61.5s-22.834 36 -39.501 52c-22.667 22.667 -50.167 39.667 -82.5 51s-67.5 17 -105.5 17h-257v-712h257c38 0 73.167 5.66699 105.5 17s59.833 28.333 82.5 51
c31.333 31.333 51.166 67.666 59.499 108.999s12.5 102 12.5 182zM461.003 359c0 -58 -1.83301 -100.499 -5.5 -127.499s-11.834 -48.167 -24.501 -63.5c-24 -29.333 -58.667 -44 -104 -44h-105v464h105c45.333 0 80 -14.667 104 -44
c12.667 -15.333 20.834 -35.833 24.501 -61.5s5.5 -66.834 5.5 -123.501z" />
    <glyph glyph-name="E" unicode="E" horiz-adv-x="605" 
d="M552 0v124h-330v173h281v124h-281v167h330v124h-469v-712h469z" />
    <glyph glyph-name="F" unicode="F" horiz-adv-x="590" 
d="M552 588v124h-469v-712h139v289h281v124h-281v175h330z" />
    <glyph glyph-name="G" unicode="G" horiz-adv-x="648" 
d="M590 292v104h-269v-116h131v-27c0 -39.333 -10.667 -71 -32 -95c-24.667 -26.667 -57.667 -40 -99 -40c-38 0 -67.667 12.333 -89 37c-7.33301 8 -13 16.5 -17 25.5s-7.33301 20.833 -10 35.5s-4.5 32.667 -5.5 54s-1.5 50 -1.5 86s0.5 64.833 1.5 86.5
s2.83301 39.5 5.5 53.5s6.16699 25.667 10.5 35s9.83301 17.666 16.5 24.999c22 25.333 51.667 38 89 38c68.667 0 111.334 -34.667 128.001 -104h140c-4.66699 30.667 -13.667 59.834 -27 87.501s-31 52 -53 73s-48.833 37.5 -80.5 49.5s-67.5 18 -107.5 18
c-76 0 -140 -26 -192 -78c-30.667 -30.667 -50 -66.167 -58 -106.5s-12 -99.5 -12 -177.5s4 -137 12 -177s27.333 -75.667 58 -107c52 -52 116 -78 192 -78c40 0 76.667 6.5 110 19.5s63.666 33.5 90.999 61.5c24.667 26 42.167 55.667 52.5 89s15.5 76 15.5 128z" />
    <glyph glyph-name="H" unicode="H" horiz-adv-x="685" 
d="M602 0v712h-139v-291h-241v291h-139v-712h139v298h241v-298h139z" />
    <glyph glyph-name="I" unicode="I" horiz-adv-x="305" 
d="M222 0v712h-139v-712h139z" />
    <glyph glyph-name="J" unicode="J" horiz-adv-x="511" 
d="M437 234l0.00195312 478h-139v-472c0 -40 -10 -70.333 -30 -91s-47.333 -31 -82 -31c-20.667 0 -37.667 3.33301 -51 10s-26.666 16.667 -39.999 30l-92 -91c26.667 -26 54.167 -44.667 82.5 -56s61.833 -17 100.5 -17c33.333 0 65.166 5.16699 95.499 15.5
s57.166 25.833 80.499 46.5s41.666 46 54.999 76s20 64 20 102z" />
    <glyph glyph-name="K" unicode="K" horiz-adv-x="665" 
d="M659 0l-253 429l236 283h-169l-251 -310v310h-139v-712h139v214l92 110l183 -324h162z" />
    <glyph glyph-name="L" unicode="L" horiz-adv-x="575" 
d="M545 0v124h-323v588h-139v-712h462z" />
    <glyph glyph-name="M" unicode="M" horiz-adv-x="811" 
d="M728 0v712h-137l-185 -385l-186 385h-137v-712h139v415l137 -270h94l136 270v-415h139z" />
    <glyph glyph-name="N" unicode="N" horiz-adv-x="711" 
d="M628 0v712h-139v-436l-282 436h-124v-712h139v437l282 -437h124z" />
    <glyph glyph-name="O" unicode="O" horiz-adv-x="644" 
d="M585 356c0 78.667 -3.83301 137.833 -11.5 177.5s-27.5 75.167 -59.5 106.5c-26 26 -54.667 45.5 -86 58.5s-66.666 19.5 -105.999 19.5s-74.833 -6.5 -106.5 -19.5s-60.5 -32.5 -86.5 -58.5c-30.667 -30.667 -50 -66.167 -58 -106.5s-12 -99.5 -12 -177.5
s4 -137 12 -177s27.333 -75.667 58 -107c26 -26 54.833 -45.5 86.5 -58.5s67.167 -19.5 106.5 -19.5s74.666 6.5 105.999 19.5s60 32.5 86 58.5c32 32 51.833 67.833 59.5 107.5s11.5 98.5 11.5 176.5zM446 355.999c0 -34.667 -0.5 -63.165 -1.5 -85.498
s-2.83301 -40.333 -5.5 -54s-6.16699 -25.167 -10.5 -34.5s-10.166 -18 -17.499 -26c-22 -25.333 -51.667 -38 -89 -38c-18.667 0 -35.834 3.33301 -51.501 10s-28.5 16 -38.5 28c-7.33301 8 -13 16.5 -17 25.5s-7.33301 20.667 -10 35s-4.5 32.166 -5.5 53.499
s-1.5 50 -1.5 86s0.5 64.833 1.5 86.5s2.83301 39.5 5.5 53.5s6.16699 25.667 10.5 35s9.83301 17.666 16.5 24.999c10 12 22.833 21.333 38.5 28s32.834 10 51.501 10c37.333 0 67 -12.667 89 -38c7.33301 -8 13.166 -16.667 17.499 -26s7.83301 -20.833 10.5 -34.5
s4.5 -31.5 5.5 -53.5s1.5 -50.667 1.5 -86z" />
    <glyph glyph-name="P" unicode="P" horiz-adv-x="628" 
d="M594 490c0 30.667 -5.33301 59.3311 -16 85.998s-26.167 50.334 -46.5 71.001s-45.166 36.667 -74.499 48s-62 17 -98 17h-276v-712h139v268h137c36 0 68.667 5.83301 98 17.5s54.166 27.667 74.499 48s35.833 43.833 46.5 70.5s16 55.334 16 86.001zM455 489.997
c0 -29.333 -9.33301 -52.833 -28 -70.5s-43.667 -26.5 -75 -26.5h-130v195h130c31.333 0 56.333 -9 75 -27s28 -41.667 28 -71z" />
    <glyph glyph-name="Q" unicode="Q" horiz-adv-x="643" 
d="M602 43l-61.001 60.998c19.333 28.667 31.5 60.834 36.5 96.501s7.5 87.5 7.5 155.5c0 78.667 -3.83301 137.834 -11.5 177.501s-27.5 75.167 -59.5 106.5c-26 26 -54.667 45.5 -86 58.5s-66.666 19.5 -105.999 19.5s-74.833 -6.5 -106.5 -19.5s-60.5 -32.5 -86.5 -58.5
c-30.667 -30.667 -50 -66.167 -58 -106.5s-12 -99.5 -12 -177.5s4 -137 12 -177s27.333 -75.667 58 -107c26 -26 54.833 -45.5 86.5 -58.5s67.167 -19.5 106.5 -19.5c56 0 104 13 144 39l63 -63zM445.999 355.998c0 -38.667 -0.832031 -68.665 -2.49902 -89.998
s-5.16699 -39.333 -10.5 -54l-53 53l-74 -73l62 -61c-12.667 -8.66699 -28 -13 -46 -13c-18.667 0 -35.834 3.33301 -51.501 10s-28.5 16 -38.5 28c-7.33301 8 -13 16.5 -17 25.5s-7.33301 20.667 -10 35s-4.5 32.166 -5.5 53.499s-1.5 50 -1.5 86s0.5 64.833 1.5 86.5
s2.83301 39.5 5.5 53.5s6.16699 25.667 10.5 35s9.83301 17.666 16.5 24.999c10 12 22.833 21.333 38.5 28s32.834 10 51.501 10c37.333 0 67 -12.667 89 -38c7.33301 -8 13.166 -16.667 17.499 -26s7.83301 -20.833 10.5 -34.5s4.5 -31.5 5.5 -53.5s1.5 -50.667 1.5 -86z
" />
    <glyph glyph-name="R" unicode="R" horiz-adv-x="654" 
d="M622 0l-159 307c37.333 13.333 68.333 36 93 68s37 71.667 37 119c0 30 -5.16699 58.167 -15.5 84.5s-25.5 49.5 -45.5 69.5s-44.5 35.667 -73.5 47s-61.167 17 -96.5 17h-279v-712h139v284h100l139 -284h161zM454 494c0 -28 -9.33301 -50.667 -28 -68s-43 -26 -73 -26
h-131v188h131c30 0 54.333 -8.66699 73 -26s28 -40 28 -68z" />
    <glyph glyph-name="S" unicode="S" horiz-adv-x="591" 
d="M543 210c0 66 -18.3311 116.337 -54.998 151.004c-15.333 14.667 -33.833 26.334 -55.5 35.001s-48.5 15.334 -80.5 20.001l-41 6l-43 6c-28.667 4 -50.334 13.5 -65.001 28.5s-22 31.833 -22 50.5c0 26 9.5 47.5 28.5 64.5s46.167 25.5 81.5 25.5
c28.667 0 55.167 -3.33301 79.5 -10s46.5 -19.667 66.5 -39l88 87c-30 29.333 -63.333 50.5 -100 63.5s-80 19.5 -130 19.5c-76 0 -136.333 -19.833 -181 -59.5s-67 -91.834 -67 -156.501c0 -59.333 17 -106 51 -140c31.333 -30.667 77.333 -50.334 138 -59.001l46 -6l40 -6
c31.333 -4.66699 53.333 -13.834 66 -27.501s19 -32.834 19 -57.501c0 -58.667 -42 -88 -126 -88c-35.333 0 -67.5 4.66699 -96.5 14s-54.167 24.666 -75.5 45.999l-90 -90c34 -34 71.833 -58.167 113.5 -72.5s90.5 -21.5 146.5 -21.5c77.333 0 140.666 19.167 189.999 57.5
s74 91.166 74 158.499z" />
    <glyph glyph-name="T" unicode="T" horiz-adv-x="571" 
d="M541 588v124h-511v-124h186v-588h139v588h186z" />
    <glyph glyph-name="U" unicode="U" horiz-adv-x="668" 
d="M596 244l-0.000976562 468h-138v-463c0 -40.667 -11.167 -72.667 -33.5 -96s-52.5 -35 -90.5 -35c-37.333 0 -67.166 11.667 -89.499 35s-33.5 55.333 -33.5 96v463h-139v-468c0 -37.333 6.66699 -71.333 20 -102s32 -57.167 56 -79.5s52 -39.333 84 -51
s66 -17.5 102 -17.5s70 5.83301 102 17.5s60 28.667 84 51s42.667 48.833 56 79.5s20 64.667 20 102z" />
    <glyph glyph-name="V" unicode="V" horiz-adv-x="581" 
d="M578 712h-145l-143 -464l-143 464h-144l235 -712h104z" />
    <glyph glyph-name="W" unicode="W" horiz-adv-x="887" 
d="M881 712h-145l-111 -449l-130 449h-104l-130 -449l-110 449h-145l190 -712h116l131 432l131 -432h116z" />
    <glyph glyph-name="X" unicode="X" horiz-adv-x="603" 
d="M598 0l-222 365l207 347h-157l-125 -230l-124 230h-158l207 -347l-221 -365h159l137 248l138 -248h159z" />
    <glyph glyph-name="Y" unicode="Y" horiz-adv-x="572" 
d="M569 712h-151l-131 -287l-133 287h-151l214 -420v-292h138v292z" />
    <glyph glyph-name="Z" unicode="Z" horiz-adv-x="548" 
d="M508 0v124h-305l305 478v110h-455v-124h291l-304 -476v-112h468z" />
    <glyph glyph-name="bracketleft" unicode="[" horiz-adv-x="378" 
d="M337 -74v117h-127v626h127v117h-257v-860h257z" />
    <glyph glyph-name="backslash" unicode="\" horiz-adv-x="403" 
d="M403 -74l-281 847h-122l281 -847h122z" />
    <glyph glyph-name="bracketright" unicode="]" horiz-adv-x="378" 
d="M299 -74v860h-257v-116h127v-628h-127v-116h257z" />
    <glyph glyph-name="asciicircum" unicode="^" horiz-adv-x="602" 
d="M539 389l-178 330h-120l-178 -330h136l102 188l102 -188h136z" />
    <glyph glyph-name="underscore" unicode="_" horiz-adv-x="602" 
d="M602 -178v87h-602v-87h602z" />
    <glyph glyph-name="grave" unicode="`" horiz-adv-x="500" 
d="M305 604l-64 170h-137l114 -170h87z" />
    <glyph glyph-name="a" unicode="a" horiz-adv-x="534" 
d="M467 0v342.999c0 122.667 -74 184 -222 184c-44.667 0 -81 -5.16699 -109 -15.5s-54.333 -29.166 -79 -56.499l83 -81c14 16 28.167 27.167 42.5 33.5s33.5 9.5 57.5 9.5c34.667 0 59.5 -6.5 74.5 -19.5s22.5 -33.833 22.5 -62.5v-26h-123
c-58 0 -102.167 -14.167 -132.5 -42.5s-45.5 -64.5 -45.5 -108.5c0 -48 14.333 -87 43 -117c30.667 -30.667 75 -46 133 -46c29.333 0 53.5 3.83301 72.5 11.5s37.5 20.5 55.5 38.5v-45h127zM337 191.999c0 -32 -6.33203 -54.001 -18.999 -66.001
c-10.667 -10 -22 -16.667 -34 -20s-28 -5 -48 -5c-24.667 0 -43.334 5.33301 -56.001 16s-19 25.334 -19 44.001c0 39.333 24.333 59 73 59h103v-28z" />
    <glyph glyph-name="b" unicode="b" horiz-adv-x="560" 
d="M509 261c0 53.333 -2.99902 97.501 -8.99902 132.501s-20.667 63.833 -44 86.5c-14.667 14.667 -33.167 26.167 -55.5 34.5s-46.166 12.5 -71.499 12.5c-26.667 0 -50.167 -4 -70.5 -12s-38.833 -21.333 -55.5 -40v237h-130v-712h126v49
c18 -20 37.167 -34.167 57.5 -42.5s44.5 -12.5 72.5 -12.5c25.333 0 49.166 4.16699 71.499 12.5s40.833 19.833 55.5 34.5c23.333 23.333 38.666 56.666 45.999 99.999c3.33301 17.333 5.33301 35.333 6 54s1 40.667 1 66zM379.001 261.001c0 -24 -1 -44.667 -3 -62
s-6 -32.666 -12 -45.999s-15 -23.666 -27 -30.999s-27.333 -11 -46 -11s-34 3.66699 -46 11s-21 17.666 -27 30.999s-10 28.666 -12 45.999s-3 38 -3 62s1 44.667 3 62s6 32.5 12 45.5s15 23.167 27 30.5s27.333 11 46 11s34 -3.66699 46 -11s21 -17.5 27 -30.5
s10 -28.167 12 -45.5s3 -38 3 -62z" />
    <glyph glyph-name="c" unicode="c" horiz-adv-x="480" 
d="M452 65l-87.999 87c-14 -14.667 -27.333 -25.167 -40 -31.5s-27.334 -9.5 -44.001 -9.5c-30.667 0 -55.334 11.333 -74.001 34c-19.333 24 -29 62.667 -29 116c0 52.667 9.66699 91 29 115c18.667 22.667 43.334 34 74.001 34c16.667 0 31.334 -3.16699 44.001 -9.5
s26 -16.833 40 -31.5l88 88c-22.667 24 -48 41.667 -76 53s-60 17 -96 17c-28.667 0 -56.5 -4.33301 -83.5 -13s-51.833 -23 -74.5 -43s-40.834 -47.5 -54.501 -82.5s-20.5 -77.5 -20.5 -127.5s6.83301 -92.5 20.5 -127.5s31.834 -62.667 54.501 -83
s47.5 -34.833 74.5 -43.5s54.833 -13 83.5 -13c69.333 0 126.666 23.667 171.999 71z" />
    <glyph glyph-name="d" unicode="d" horiz-adv-x="561" 
d="M488 0l-0.00292969 711.999h-130v-237c-16.667 18.667 -35.167 32 -55.5 40s-44.166 12 -71.499 12c-25.333 0 -49.166 -4.16699 -71.499 -12.5s-40.833 -19.833 -55.5 -34.5c-22.667 -22.667 -37.167 -51.5 -43.5 -86.5s-9.5 -79.167 -9.5 -132.5
c0 -25.333 0.5 -47.333 1.5 -66s2.83301 -36.667 5.5 -54c8 -43.333 23.333 -76.666 46 -99.999c14.667 -14.667 33.334 -26.167 56.001 -34.5s46.667 -12.5 72 -12.5c28 0 52 4.16699 72 12.5s39 22.5 57 42.5v-49h127zM357.997 260.999c0 -23.333 -1 -43.8301 -3 -61.4971
s-6 -32.834 -12 -45.501c-13.333 -28.667 -38 -43 -74 -43c-18.667 0 -34 3.66699 -46 11s-21 17.666 -27 30.999s-10 28.666 -12 45.999s-3 38 -3 62s1 44.667 3 62s6 32.5 12 45.5s15 23.167 27 30.5s27.333 11 46 11c36 0 60.667 -14.333 74 -43
c6 -12.667 10 -27.5 12 -44.5s3 -37.5 3 -61.5z" />
    <glyph glyph-name="e" unicode="e" horiz-adv-x="548" 
d="M501 220l0.000976562 58.001c0 73.333 -20.167 133.166 -60.5 179.499s-95.833 69.5 -166.5 69.5c-68.667 0 -123.667 -23.333 -165 -70s-62 -112 -62 -196c0 -50.667 6.5 -93.5 19.5 -128.5s30.667 -62.5 53 -82.5s47.666 -34.333 75.999 -43s59.166 -13 92.499 -13
c44.667 0 81.667 6.5 111 19.5s58.333 33.833 87 62.5l-79 77c-17.333 -17.333 -34.5 -29.833 -51.5 -37.5s-39.167 -11.5 -66.5 -11.5c-35.333 0 -63.166 10.667 -83.499 32s-30.5 49.333 -30.5 84h326zM373.001 309.001h-198.002
c0.666992 11.333 1.83398 21.166 3.50098 29.499s4.5 17.166 8.5 26.499c7.33301 16.667 18.5 29.834 33.5 39.501s32.833 14.5 53.5 14.5c21.333 0 39.333 -4.83301 54 -14.5s25.667 -22.834 33 -39.501c4 -9.33301 6.83301 -18.166 8.5 -26.499
s2.83398 -18.166 3.50098 -29.499z" />
    <glyph glyph-name="f" unicode="f" horiz-adv-x="342" 
d="M315 407v99h-96v57c0 31.333 15 47 45 47h51v110h-74c-49.333 0 -87 -14.667 -113 -44s-39 -64.333 -39 -105v-65h-54v-99h54v-407h130v407h96z" />
    <glyph glyph-name="g" unicode="g" horiz-adv-x="555" 
d="M482 19l0.00390625 502.002h-126v-49c-18 20 -36.833 34.167 -56.5 42.5s-43.167 12.5 -70.5 12.5c-25.333 0 -48.833 -4 -70.5 -12s-39.834 -19.333 -54.501 -34c-22.667 -22.667 -37.167 -49.334 -43.5 -80.001s-9.5 -72.667 -9.5 -126s3.16699 -95.5 9.5 -126.5
s20.833 -57.833 43.5 -80.5c14.667 -14.667 32.667 -26 54 -34s44.666 -12 69.999 -12c26 0 49 4 69 12s38.333 21.333 55 40v-53c0 -30 -8.5 -55.5 -25.5 -76.5s-43.5 -31.5 -79.5 -31.5c-22 0 -40.833 3.16699 -56.5 9.5s-30.834 16.5 -45.501 30.5l-81 -82
c26 -25.333 53.667 -43 83 -53s64.666 -15 105.999 -15c69.333 0 124.833 20.167 166.5 60.5s62.5 92.166 62.5 155.499zM352.004 275.002c0 -20 -0.99707 -37.668 -2.99707 -53.001s-5.83301 -29.333 -11.5 -42s-14.334 -22.667 -26.001 -30s-26.834 -11 -45.501 -11
c-18 0 -32.833 3.66699 -44.5 11s-20.334 17.333 -26.001 30s-9.5 26.5 -11.5 41.5s-3 32.833 -3 53.5s1 38.5 3 53.5s5.83301 28.667 11.5 41s14.167 22.166 25.5 29.499s26.333 11 45 11s33.667 -3.66699 45 -11s20 -17.166 26 -29.499s10 -26.166 12 -41.499s3 -33 3 -53
z" />
    <glyph glyph-name="h" unicode="h" horiz-adv-x="569" 
d="M502 0v337c0 56.667 -15.167 102.5 -45.5 137.5s-73.166 52.5 -128.499 52.5c-48 0 -89.667 -18 -125 -54v239h-130v-712h130v318c0 31.333 8.16699 54.5 24.5 69.5s36.166 22.5 59.499 22.5s43.333 -7.33301 60 -22s25 -38 25 -70v-318h130z" />
    <glyph glyph-name="i" unicode="i" horiz-adv-x="275" 
d="M204 610v106h-133v-106h133zM203 0v521h-130v-521h130z" />
    <glyph glyph-name="j" unicode="j" horiz-adv-x="275" 
d="M204 610v106h-133v-106h133zM203 -46v567h-130v-559c0 -31.333 -15.333 -47 -46 -47h-50v-110h74c50 0 87.833 14.667 113.5 44s38.5 64.333 38.5 105z" />
    <glyph glyph-name="k" unicode="k" horiz-adv-x="559" 
d="M547 0l-200 311l186 210h-157l-173 -213v404h-130v-712h130v155l55 62l128 -217h161z" />
    <glyph glyph-name="l" unicode="l" horiz-adv-x="325" 
d="M294 0v110h-50c-30.667 0 -46 15.667 -46 47v555h-130v-563c0 -40.667 12.833 -75.667 38.5 -105s63.5 -44 113.5 -44h74z" />
    <glyph glyph-name="m" unicode="m" horiz-adv-x="876" 
d="M809 0l0.00195312 333c0 30 -4.5 57.167 -13.5 81.5s-23.5 46.5 -43.5 66.5c-14.667 14.667 -33.167 26 -55.5 34s-46.5 12 -72.5 12c-32.667 0 -61.334 -5.33301 -86.001 -16s-48 -27.334 -70 -50.001c-32 44 -78 66 -138 66c-24 0 -47.5 -4.66699 -70.5 -14
s-42.833 -22.666 -59.5 -39.999v48h-127v-521h130v315c0 32.667 8.5 56.667 25.5 72s37.5 23 61.5 23c23.333 0 43.5 -7.66699 60.5 -23s25.5 -39.333 25.5 -72v-315h130v318c0 31.333 8.66699 54.5 26 69.5s37.666 22.5 60.999 22.5s43.5 -7.66699 60.5 -23
s25.5 -39.333 25.5 -72v-315h130z" />
    <glyph glyph-name="n" unicode="n" horiz-adv-x="573" 
d="M506 0l0.00195312 332.999c0 30.667 -3.83301 58 -11.5 82s-21.5 46 -41.5 66c-30.667 30.667 -71.667 46 -123 46c-24.667 0 -48.334 -4.66699 -71.001 -14s-42.334 -22.666 -59.001 -39.999v48h-127v-521h130v315c0 32.667 8.5 56.667 25.5 72s37.5 23 61.5 23
c23.333 0 43.5 -7.66699 60.5 -23s25.5 -39.333 25.5 -72v-315h130z" />
    <glyph glyph-name="o" unicode="o" 
d="M492 261c0 49.333 -4.16699 89.5 -12.5 120.5s-23.833 58.167 -46.5 81.5c-18 18.667 -40.5 34 -67.5 46s-58.5 18 -94.5 18s-67.333 -5.83301 -94 -17.5s-49 -27.167 -67 -46.5c-22.667 -23.333 -38.167 -50.5 -46.5 -81.5s-12.5 -71.167 -12.5 -120.5
c0 -50 4.16699 -90.5 12.5 -121.5s23.833 -58.167 46.5 -81.5c18 -18.667 40.333 -34 67 -46s58 -18 94 -18s67.5 6 94.5 18s49.5 27.333 67.5 46c22.667 23.333 38.167 50.5 46.5 81.5s12.5 71.5 12.5 121.5zM362 261c0 -32 -1.83301 -58 -5.5 -78
s-11.834 -36.333 -24.501 -49c-15.333 -15.333 -35.666 -23 -60.999 -23c-24.667 0 -44.667 7.66699 -60 23c-12 12.667 -20 29 -24 49s-6 46 -6 78s2 58 6 78s12 36 24 48c15.333 15.333 35.333 23 60 23c25.333 0 45.666 -7.66699 60.999 -23
c12.667 -12 20.834 -28 24.501 -48s5.5 -46 5.5 -78z" />
    <glyph glyph-name="p" unicode="p" horiz-adv-x="560" 
d="M509 261c0 53.333 -2.99902 97.501 -8.99902 132.501s-20.667 63.833 -44 86.5c-14.667 14.667 -33.167 26.167 -55.5 34.5s-46.166 12.5 -71.499 12.5c-28 0 -52.167 -4.16699 -72.5 -12.5s-39.5 -22.5 -57.5 -42.5v49h-126v-712h130v237
c16.667 -18.667 35.167 -32 55.5 -40s43.833 -12 70.5 -12c25.333 0 49.166 4.16699 71.499 12.5s40.833 19.833 55.5 34.5c23.333 23.333 38.666 56.666 45.999 99.999c3.33301 17.333 5.33301 35.333 6 54s1 40.667 1 66zM379.001 261.001c0 -24 -1 -44.667 -3 -62
s-6 -32.666 -12 -45.999s-15 -23.666 -27 -30.999s-27.333 -11 -46 -11s-34 3.66699 -46 11s-21 17.666 -27 30.999s-10 28.666 -12 45.999s-3 38 -3 62s1 44.667 3 62s6 32.5 12 45.5s15 23.167 27 30.5s27.333 11 46 11s34 -3.66699 46 -11s21 -17.5 27 -30.5
s10 -28.167 12 -45.5s3 -38 3 -62z" />
    <glyph glyph-name="q" unicode="q" horiz-adv-x="561" 
d="M488 -191l0.00292969 711.999h-127v-49c-18 20 -37 34.167 -57 42.5s-44 12.5 -72 12.5c-25.333 0 -49.333 -4.16699 -72 -12.5s-41.334 -19.833 -56.001 -34.5c-22.667 -22.667 -37.167 -51.5 -43.5 -86.5s-9.5 -79.167 -9.5 -132.5c0 -25.333 0.5 -47.333 1.5 -66
s2.83301 -36.667 5.5 -54c8 -43.333 23.333 -76.666 46 -99.999c14.667 -14.667 33.167 -26.167 55.5 -34.5s46.166 -12.5 71.499 -12.5c27.333 0 51.166 4 71.499 12s38.833 21.333 55.5 40v-237h130zM358.003 260.999c0 -23.333 -1 -43.8301 -3 -61.4971
s-6 -32.834 -12 -45.501c-13.333 -28.667 -38 -43 -74 -43c-18.667 0 -34 3.66699 -46 11s-21 17.666 -27 30.999s-10 28.666 -12 45.999s-3 38 -3 62s1 44.667 3 62s6 32.5 12 45.5s15 23.167 27 30.5s27.333 11 46 11c36 0 60.667 -14.333 74 -43
c6 -12.667 10 -27.5 12 -44.5s3 -37.5 3 -61.5z" />
    <glyph glyph-name="r" unicode="r" horiz-adv-x="455" 
d="M454 478c-17.333 18 -35.666 30.666 -54.999 37.999s-42 11 -68 11c-26.667 0 -51.834 -5.33301 -75.501 -16s-42.167 -24 -55.5 -40v50h-127v-521h130v314c0 30.667 8.5 54.334 25.5 71.001s36.5 25 58.5 25c14.667 0 27.167 -2.33301 37.5 -7s20.833 -12.667 31.5 -24z
" />
    <glyph glyph-name="s" unicode="s" horiz-adv-x="501" 
d="M465 164c0 44.667 -12.999 80.168 -38.999 106.501s-64.667 41.833 -116 46.5l-41 4l-41 4c-20.667 2 -34.834 7.16699 -42.501 15.5s-11.5 18.166 -11.5 29.499c0 14 6.16699 25.833 18.5 35.5s30.833 14.5 55.5 14.5c25.333 0 48.333 -2.66699 69 -8s38 -14.333 52 -27
l80 81c-23.333 22 -51.5 37.667 -84.5 47s-71.167 14 -114.5 14c-56 0 -103.5 -14.667 -142.5 -44s-58.5 -70 -58.5 -122c0 -46 13 -80.667 39 -104s63.667 -37.333 113 -42l42 -4l40 -4c19.333 -2 33.333 -7 42 -15s13 -19 13 -33c0 -18 -9 -31.5 -27 -40.5
s-39.667 -13.5 -65 -13.5c-26 0 -50.833 3.33301 -74.5 10s-45.167 19.667 -64.5 39l-85 -85c30 -30 62.5 -50 97.5 -60s76.5 -15 124.5 -15c64.667 0 117.667 14.5 159 43.5s62 71.167 62 126.5z" />
    <glyph glyph-name="t" unicode="t" horiz-adv-x="352" 
d="M307 0v110h-47c-30 0 -45 15.667 -45 47v250h92v99h-92v154h-130v-154h-55v-99h55v-258c0 -40.667 12.833 -75.667 38.5 -105s63.167 -44 112.5 -44h71z" />
    <glyph glyph-name="u" unicode="u" horiz-adv-x="573" 
d="M500 0l-0.00195312 521.001h-130v-315c0 -32.667 -8.5 -56.667 -25.5 -72s-37.5 -23 -61.5 -23c-23.333 0 -43.5 7.66699 -60.5 23s-25.5 39.333 -25.5 72v315h-130v-333c0 -30.667 3.83301 -58 11.5 -82s21.5 -46 41.5 -66c30.667 -30.667 71.667 -46 123 -46
c24.667 0 48.334 4.66699 71.001 14s42.334 22.666 59.001 39.999v-48h127z" />
    <glyph glyph-name="v" unicode="v" horiz-adv-x="493" 
d="M489 521h-137l-105 -322l-106 322h-137l192 -521h102z" />
    <glyph glyph-name="w" unicode="w" horiz-adv-x="759" 
d="M755 521h-137l-84 -322l-107 322h-95l-106 -322l-84 322h-138l160 -521h107l109 327l109 -327h107z" />
    <glyph glyph-name="x" unicode="x" horiz-adv-x="527" 
d="M515 0l-180 266l173 255h-156l-89 -149l-88 149h-156l173 -255l-180 -266h156l95 156l96 -156h156z" />
    <glyph glyph-name="y" unicode="y" horiz-adv-x="494" 
d="M490 521h-137l-104 -322l-108 322h-137l178 -484l-22 -64c-6.66699 -18.667 -14.5 -31.167 -23.5 -37.5s-22.833 -9.5 -41.5 -9.5h-30v-117h51c22.667 0 43.5 3 62.5 9s35.5 16.333 49.5 31c14.667 14.667 27.667 37 39 67z" />
    <glyph glyph-name="z" unicode="z" horiz-adv-x="478" 
d="M434 0v117h-234l234 305v99h-384v-117h218l-231 -305v-99h397z" />
    <glyph glyph-name="braceleft" unicode="{" horiz-adv-x="457" 
d="M414 -74v117.001h-53c-15.333 0 -27.333 1 -36 3s-15.667 5.66699 -21 11c-10.667 12 -16 33.333 -16 64v135c0 16.667 -2.16699 31 -6.5 43s-10 21.667 -17 29s-14.167 13 -21.5 17s-15.333 7.66699 -24 11c8.66699 3.33301 16.667 7 24 11s14.5 9.66699 21.5 17
s12.667 17 17 29s6.5 26.333 6.5 43v135c0 31.333 5.33301 52.666 16 63.999c5.33301 5.33301 12.333 9 21 11s20.667 3 36 3h53v117h-102c-50 0 -87.333 -12.333 -112 -37c-28 -28 -42 -65 -42 -111v-145c0 -28.667 -5.66699 -48.667 -17 -60
c-12.667 -12.667 -30 -19 -52 -19h-46v-116h46c22 0 39.333 -6.33301 52 -19c11.333 -11.333 17 -31.333 17 -60v-145c0 -46 14 -83 42 -111c24.667 -24.667 62 -37 112 -37h102z" />
    <glyph glyph-name="bar" unicode="|" horiz-adv-x="350" 
d="M240 -74v860h-130v-860h130z" />
    <glyph glyph-name="braceright" unicode="}" horiz-adv-x="457" 
d="M414 298v115.999h-46c-22 0 -39.333 6.33301 -52 19c-11.333 11.333 -17 31.333 -17 60v145c0 46 -14 83 -42 111c-24.667 24.667 -62 37 -112 37h-102v-117h53c15.333 0 27.333 -1 36 -3s15.667 -5.66699 21 -11c10.667 -11.333 16 -32.666 16 -63.999v-135
c0 -16.667 2.16699 -31 6.5 -43s10 -21.667 17 -29s14.167 -13 21.5 -17s15.333 -7.66699 24 -11c-8.66699 -3.33301 -16.667 -7 -24 -11s-14.5 -9.66699 -21.5 -17s-12.667 -17 -17 -29s-6.5 -26.333 -6.5 -43v-135c0 -30.667 -5.33301 -52 -16 -64
c-5.33301 -5.33301 -12.333 -9 -21 -11s-20.667 -3 -36 -3h-53v-117h102c50 0 87.333 12.333 112 37c28 28 42 65 42 111v145c0 28.667 5.66699 48.667 17 60c12.667 12.667 30 19 52 19h46z" />
    <glyph glyph-name="asciitilde" unicode="~" horiz-adv-x="606" 
d="M569 281l-82.998 82c-17.333 -17.333 -32.333 -28.666 -45 -33.999s-26.667 -8 -42 -8c-13.333 0 -26.166 2 -38.499 6s-26.5 10 -42.5 18c-22.667 12 -42.834 20.667 -60.501 26s-36.5 8 -56.5 8c-30 0 -57 -6.5 -81 -19.5s-51.667 -35.167 -83 -66.5l82 -82
c17.333 17.333 32.166 28.666 44.499 33.999s26.166 8 41.499 8c13.333 0 26.5 -2 39.5 -6s27.167 -10 42.5 -18c22.667 -12 42.834 -20.667 60.501 -26s36.5 -8 56.5 -8c30 0 57.167 6.5 81.5 19.5s52.166 35.167 83.499 66.5z" />
    <glyph glyph-name="FL20ACh" horiz-adv-x="684" 
d="M632 219l-140.001 -0.00390625c-7.33301 -28.667 -20.666 -52.667 -39.999 -72s-46.333 -29 -81 -29c-19.333 0 -36.333 3.33301 -51 10s-27 15.667 -37 27c-8.66699 9.33301 -15.334 20 -20.001 32s-8 28.667 -10 50h149v83h-154v75h154v83h-148
c2 20 5.16699 35.833 9.5 47.5s10.833 22.167 19.5 31.5c10 11.333 22.333 20.333 37 27s31.667 10 51 10c34.667 0 61.5 -9.66699 80.5 -29s32.167 -43.333 39.5 -72h141c-12.667 74.667 -42.667 130.834 -90 168.501s-104.333 56.5 -171 56.5
c-39.333 0 -74.833 -6.66699 -106.5 -20s-60.167 -32.666 -85.5 -57.999c-22.667 -22.667 -38.667 -47 -48 -73s-15.666 -55.667 -18.999 -89h-73v-83h69v-75h-69v-83h73c3.33301 -34 9.5 -64.167 18.5 -90.5s25.167 -51.166 48.5 -74.499
c25.333 -25.333 53.833 -44.666 85.5 -57.999s67.167 -20 106.5 -20c32.667 0 63.5 4.66699 92.5 14s55 23.5 78 42.5s42.333 42.5 58 70.5s26.5 60.667 32.5 98z" />
    <glyph glyph-name="FL20ACh" unicode="&#x20ac;" horiz-adv-x="684" 
d="M632 219l-140.001 -0.00390625c-7.33301 -28.667 -20.666 -52.667 -39.999 -72s-46.333 -29 -81 -29c-19.333 0 -36.333 3.33301 -51 10s-27 15.667 -37 27c-8.66699 9.33301 -15.334 20 -20.001 32s-8 28.667 -10 50h149v83h-154v75h154v83h-148
c2 20 5.16699 35.833 9.5 47.5s10.833 22.167 19.5 31.5c10 11.333 22.333 20.333 37 27s31.667 10 51 10c34.667 0 61.5 -9.66699 80.5 -29s32.167 -43.333 39.5 -72h141c-12.667 74.667 -42.667 130.834 -90 168.501s-104.333 56.5 -171 56.5
c-39.333 0 -74.833 -6.66699 -106.5 -20s-60.167 -32.666 -85.5 -57.999c-22.667 -22.667 -38.667 -47 -48 -73s-15.666 -55.667 -18.999 -89h-73v-83h69v-75h-69v-83h73c3.33301 -34 9.5 -64.167 18.5 -90.5s25.167 -51.166 48.5 -74.499
c25.333 -25.333 53.833 -44.666 85.5 -57.999s67.167 -20 106.5 -20c32.667 0 63.5 4.66699 92.5 14s55 23.5 78 42.5s42.333 42.5 58 70.5s26.5 60.667 32.5 98z" />
    <glyph glyph-name="quotesinglbase" horiz-adv-x="271" 
d="M204 0v124h-136v-228z" />
    <glyph glyph-name="quotesinglbase" unicode="&#x201a;" horiz-adv-x="271" 
d="M204 0v124h-136v-228z" />
    <glyph glyph-name="florin" horiz-adv-x="427" 
d="M397 610l-0.000976562 109l-74 1c-50 0 -90.167 -14.5 -120.5 -43.5s-49.166 -64.167 -56.499 -105.5l-31 -174h-84v-100h67l-87 -488h130l87 488h113v100h-96l29 166c5.33301 31.333 23.333 47 54 47h69z" />
    <glyph glyph-name="florin" unicode="&#x192;" horiz-adv-x="427" 
d="M397 610l-0.000976562 109l-74 1c-50 0 -90.167 -14.5 -120.5 -43.5s-49.166 -64.167 -56.499 -105.5l-31 -174h-84v-100h67l-87 -488h130l87 488h113v100h-96l29 166c5.33301 31.333 23.333 47 54 47h69z" />
    <glyph glyph-name="quotedblbase" horiz-adv-x="485" 
d="M414 0v124h-136v-228zM203 0v124h-135v-228z" />
    <glyph glyph-name="quotedblbase" unicode="&#x201e;" horiz-adv-x="485" 
d="M414 0v124h-136v-228zM203 0v124h-135v-228z" />
    <glyph glyph-name="ellipsis" unicode="&#x85;" horiz-adv-x="846" 
d="M778 0v141h-141v-141h141zM493 0v141h-141v-141h141zM210 0v141h-142v-141h142z" />
    <glyph glyph-name="ellipsis" unicode="&#x2026;" horiz-adv-x="846" 
d="M778 0v141h-141v-141h141zM493 0v141h-141v-141h141zM210 0v141h-142v-141h142z" />
    <glyph glyph-name="dagger" horiz-adv-x="579" 
d="M522 410v117h-168v185h-130v-185h-167v-117h167v-410h130v410h168z" />
    <glyph glyph-name="dagger" unicode="&#x2020;" horiz-adv-x="579" 
d="M522 410v117h-168v185h-130v-185h-167v-117h167v-410h130v410h168z" />
    <glyph glyph-name="daggerdbl" horiz-adv-x="579" 
d="M522 -6v117h-168v299h168v117h-168v185h-130v-185h-167v-117h167v-299h-167v-117h167v-185h130v185h168z" />
    <glyph glyph-name="daggerdbl" unicode="&#x2021;" horiz-adv-x="579" 
d="M522 -6v117h-168v299h168v117h-168v185h-130v-185h-167v-117h167v-299h-167v-117h167v-185h130v185h168z" />
    <glyph glyph-name="circumflex" horiz-adv-x="500" 
d="M434 604l-132 169h-104l-132 -169h101l83 91l83 -91h101z" />
    <glyph glyph-name="circumflex" unicode="&#x2c6;" horiz-adv-x="500" 
d="M434 604l-132 169h-104l-132 -169h101l83 91l83 -91h101z" />
    <glyph glyph-name="perthousand" horiz-adv-x="1211" 
d="M1158 131v99c0 43.333 -13.833 77 -41.5 101s-62.167 36 -103.5 36s-75.833 -12 -103.5 -36s-41.5 -57.667 -41.5 -101v-99c0 -43.333 13.833 -77 41.5 -101s62.167 -36 103.5 -36s75.833 12 103.5 36s41.5 57.667 41.5 101zM1064 134c0 -37.333 -17 -56 -51 -56
s-51 19 -51 57v91c0 38 17 57 51 57s51 -19 51 -57v-92zM796 131v99c0 43.333 -13.833 77 -41.5 101s-62.167 36 -103.5 36s-75.833 -12 -103.5 -36s-41.5 -57.667 -41.5 -101v-99c0 -43.333 13.833 -77 41.5 -101s62.167 -36 103.5 -36s75.833 12 103.5 36
s41.5 57.667 41.5 101zM702 135c0 -38 -17 -57 -51 -57s-51 19 -51 57v91c0 38 17 57 51 57s51 -19 51 -57v-91zM644 712h-102l-337 -712h102zM342 482v99c0 43.333 -13.833 77 -41.5 101s-62.167 36 -103.5 36s-75.833 -12 -103.5 -36s-41.5 -57.667 -41.5 -101v-99
c0 -43.333 13.833 -77 41.5 -101s62.167 -36 103.5 -36s75.833 12 103.5 36s41.5 57.667 41.5 101zM248 486c0 -38 -17 -57 -51 -57s-51 19 -51 57v91c0 38 17 57 51 57s51 -19 51 -57v-91z" />
    <glyph glyph-name="perthousand" unicode="&#x2030;" horiz-adv-x="1211" 
d="M1158 131v99c0 43.333 -13.833 77 -41.5 101s-62.167 36 -103.5 36s-75.833 -12 -103.5 -36s-41.5 -57.667 -41.5 -101v-99c0 -43.333 13.833 -77 41.5 -101s62.167 -36 103.5 -36s75.833 12 103.5 36s41.5 57.667 41.5 101zM1064 134c0 -37.333 -17 -56 -51 -56
s-51 19 -51 57v91c0 38 17 57 51 57s51 -19 51 -57v-92zM796 131v99c0 43.333 -13.833 77 -41.5 101s-62.167 36 -103.5 36s-75.833 -12 -103.5 -36s-41.5 -57.667 -41.5 -101v-99c0 -43.333 13.833 -77 41.5 -101s62.167 -36 103.5 -36s75.833 12 103.5 36
s41.5 57.667 41.5 101zM702 135c0 -38 -17 -57 -51 -57s-51 19 -51 57v91c0 38 17 57 51 57s51 -19 51 -57v-91zM644 712h-102l-337 -712h102zM342 482v99c0 43.333 -13.833 77 -41.5 101s-62.167 36 -103.5 36s-75.833 -12 -103.5 -36s-41.5 -57.667 -41.5 -101v-99
c0 -43.333 13.833 -77 41.5 -101s62.167 -36 103.5 -36s75.833 12 103.5 36s41.5 57.667 41.5 101zM248 486c0 -38 -17 -57 -51 -57s-51 19 -51 57v91c0 38 17 57 51 57s51 -19 51 -57v-91z" />
    <glyph glyph-name="Scaron" horiz-adv-x="591" 
d="M543 210c0 66 -18.3311 116.337 -54.998 151.004c-15.333 14.667 -33.833 26.334 -55.5 35.001s-48.5 15.334 -80.5 20.001l-41 6l-43 6c-28.667 4 -50.334 13.5 -65.001 28.5s-22 31.833 -22 50.5c0 26 9.5 47.5 28.5 64.5s46.167 25.5 81.5 25.5
c28.667 0 55.167 -3.33301 79.5 -10s46.5 -19.667 66.5 -39l88 87c-30 29.333 -63.333 50.5 -100 63.5s-80 19.5 -130 19.5c-76 0 -136.333 -19.833 -181 -59.5s-67 -91.834 -67 -156.501c0 -59.333 17 -106 51 -140c31.333 -30.667 77.333 -50.334 138 -59.001l46 -6l40 -6
c31.333 -4.66699 53.333 -13.834 66 -27.501s19 -32.834 19 -57.501c0 -58.667 -42 -88 -126 -88c-35.333 0 -67.5 4.66699 -96.5 14s-54.167 24.666 -75.5 45.999l-90 -90c34 -34 71.833 -58.167 113.5 -72.5s90.5 -21.5 146.5 -21.5c77.333 0 140.666 19.167 189.999 57.5
s74 91.166 74 158.499zM478.002 950.004h-101l-83 -90l-83 90h-101l132 -169h104z" />
    <glyph glyph-name="Scaron" unicode="&#x160;" horiz-adv-x="591" 
d="M543 210c0 66 -18.3311 116.337 -54.998 151.004c-15.333 14.667 -33.833 26.334 -55.5 35.001s-48.5 15.334 -80.5 20.001l-41 6l-43 6c-28.667 4 -50.334 13.5 -65.001 28.5s-22 31.833 -22 50.5c0 26 9.5 47.5 28.5 64.5s46.167 25.5 81.5 25.5
c28.667 0 55.167 -3.33301 79.5 -10s46.5 -19.667 66.5 -39l88 87c-30 29.333 -63.333 50.5 -100 63.5s-80 19.5 -130 19.5c-76 0 -136.333 -19.833 -181 -59.5s-67 -91.834 -67 -156.501c0 -59.333 17 -106 51 -140c31.333 -30.667 77.333 -50.334 138 -59.001l46 -6l40 -6
c31.333 -4.66699 53.333 -13.834 66 -27.501s19 -32.834 19 -57.501c0 -58.667 -42 -88 -126 -88c-35.333 0 -67.5 4.66699 -96.5 14s-54.167 24.666 -75.5 45.999l-90 -90c34 -34 71.833 -58.167 113.5 -72.5s90.5 -21.5 146.5 -21.5c77.333 0 140.666 19.167 189.999 57.5
s74 91.166 74 158.499zM478.002 950.004h-101l-83 -90l-83 90h-101l132 -169h104z" />
    <glyph glyph-name="guilsinglleft" horiz-adv-x="350" 
d="M283 27v155l-94 93l94 93v155l-249 -248z" />
    <glyph glyph-name="guilsinglleft" unicode="&#x2039;" horiz-adv-x="350" 
d="M283 27v155l-94 93l94 93v155l-249 -248z" />
    <glyph glyph-name="OE" horiz-adv-x="966" 
d="M584 123v174.999h279v122h-279v169h327v123h-465v-44c-16 17.333 -35.333 30 -58 38s-46 12 -70 12c-40 0 -75.167 -6.16699 -105.5 -18.5s-58.166 -31.166 -83.499 -56.499c-31.333 -31.333 -50.833 -67.5 -58.5 -108.5s-11.5 -100.5 -11.5 -178.5
c0 -78.667 3.83301 -138.334 11.5 -179.001s27.167 -76.667 58.5 -108c25.333 -25.333 53.166 -44.166 83.499 -56.499s65.5 -18.5 105.5 -18.5c23.333 0 46.5 4.16699 69.5 12.5s42.5 20.833 58.5 37.5v-44h466v123h-328zM446 355.999c0 -34.667 -0.5 -63.165 -1.5 -85.498
s-2.83301 -40.333 -5.5 -54s-6.16699 -25.167 -10.5 -34.5s-10.166 -18 -17.499 -26c-22 -25.333 -51.667 -38 -89 -38c-18.667 0 -35.834 3.33301 -51.501 10s-28.5 16 -38.5 28c-7.33301 8 -13 16.5 -17 25.5s-7.33301 20.667 -10 35s-4.5 32.166 -5.5 53.499
s-1.5 50 -1.5 86s0.5 64.833 1.5 86.5s2.83301 39.5 5.5 53.5s6.16699 25.667 10.5 35s9.83301 17.666 16.5 24.999c10 12 22.833 21.333 38.5 28s32.834 10 51.501 10c37.333 0 67 -12.667 89 -38c7.33301 -8 13.166 -16.667 17.499 -26s7.83301 -20.833 10.5 -34.5
s4.5 -31.5 5.5 -53.5s1.5 -50.667 1.5 -86z" />
    <glyph glyph-name="OE" unicode="&#x152;" horiz-adv-x="966" 
d="M584 123v174.999h279v122h-279v169h327v123h-465v-44c-16 17.333 -35.333 30 -58 38s-46 12 -70 12c-40 0 -75.167 -6.16699 -105.5 -18.5s-58.166 -31.166 -83.499 -56.499c-31.333 -31.333 -50.833 -67.5 -58.5 -108.5s-11.5 -100.5 -11.5 -178.5
c0 -78.667 3.83301 -138.334 11.5 -179.001s27.167 -76.667 58.5 -108c25.333 -25.333 53.166 -44.166 83.499 -56.499s65.5 -18.5 105.5 -18.5c23.333 0 46.5 4.16699 69.5 12.5s42.5 20.833 58.5 37.5v-44h466v123h-328zM446 355.999c0 -34.667 -0.5 -63.165 -1.5 -85.498
s-2.83301 -40.333 -5.5 -54s-6.16699 -25.167 -10.5 -34.5s-10.166 -18 -17.499 -26c-22 -25.333 -51.667 -38 -89 -38c-18.667 0 -35.834 3.33301 -51.501 10s-28.5 16 -38.5 28c-7.33301 8 -13 16.5 -17 25.5s-7.33301 20.667 -10 35s-4.5 32.166 -5.5 53.499
s-1.5 50 -1.5 86s0.5 64.833 1.5 86.5s2.83301 39.5 5.5 53.5s6.16699 25.667 10.5 35s9.83301 17.666 16.5 24.999c10 12 22.833 21.333 38.5 28s32.834 10 51.501 10c37.333 0 67 -12.667 89 -38c7.33301 -8 13.166 -16.667 17.499 -26s7.83301 -20.833 10.5 -34.5
s4.5 -31.5 5.5 -53.5s1.5 -50.667 1.5 -86z" />
    <glyph glyph-name="quoteleft" horiz-adv-x="273" 
d="M204 589v228l-136 -105v-123h136z" />
    <glyph glyph-name="quoteleft" unicode="&#x2018;" horiz-adv-x="273" 
d="M204 589v228l-136 -105v-123h136z" />
    <glyph glyph-name="quoteright" horiz-adv-x="273" 
d="M204 588v124h-136v-227z" />
    <glyph glyph-name="quoteright" unicode="&#x2019;" horiz-adv-x="273" 
d="M204 588v124h-136v-227z" />
    <glyph glyph-name="quotedblleft" horiz-adv-x="482" 
d="M414 589v228l-136 -105v-123h136zM203 589v228l-135 -105v-123h135z" />
    <glyph glyph-name="quotedblleft" unicode="&#x201c;" horiz-adv-x="482" 
d="M414 589v228l-136 -105v-123h136zM203 589v228l-135 -105v-123h135z" />
    <glyph glyph-name="quotedblright" horiz-adv-x="482" 
d="M414 588v124h-136v-227zM203 588v124h-135v-227z" />
    <glyph glyph-name="quotedblright" unicode="&#x201d;" horiz-adv-x="482" 
d="M414 588v124h-136v-227zM203 588v124h-135v-227z" />
    <glyph glyph-name="bullet" horiz-adv-x="493" 
d="M409 334c0 22 -4.16699 43 -12.5 63s-20 37.5 -35 52.5s-32.5 26.667 -52.5 35s-41 12.5 -63 12.5s-43 -4.16699 -63 -12.5s-37.5 -20 -52.5 -35s-26.667 -32.5 -35 -52.5s-12.5 -41 -12.5 -63s4.16699 -43 12.5 -63s20 -37.5 35 -52.5s32.5 -26.667 52.5 -35
s41 -12.5 63 -12.5s43 4.16699 63 12.5s37.5 20 52.5 35s26.667 32.5 35 52.5s12.5 41 12.5 63z" />
    <glyph glyph-name="bullet" unicode="&#x2022;" horiz-adv-x="493" 
d="M409 334c0 22 -4.16699 43 -12.5 63s-20 37.5 -35 52.5s-32.5 26.667 -52.5 35s-41 12.5 -63 12.5s-43 -4.16699 -63 -12.5s-37.5 -20 -52.5 -35s-26.667 -32.5 -35 -52.5s-12.5 -41 -12.5 -63s4.16699 -43 12.5 -63s20 -37.5 35 -52.5s32.5 -26.667 52.5 -35
s41 -12.5 63 -12.5s43 4.16699 63 12.5s37.5 20 52.5 35s26.667 32.5 35 52.5s12.5 41 12.5 63z" />
    <glyph glyph-name="endash" 
d="M493 225v121h-443v-121h443z" />
    <glyph glyph-name="endash" unicode="&#x2013;" 
d="M493 225v121h-443v-121h443z" />
    <glyph glyph-name="emdash" horiz-adv-x="1027" 
d="M968 226v125h-909v-125h909z" />
    <glyph glyph-name="emdash" unicode="&#x2014;" horiz-adv-x="1027" 
d="M968 226v125h-909v-125h909z" />
    <glyph glyph-name="tilde" horiz-adv-x="500" 
d="M430 674l-58.001 57c-12 -12 -22.333 -19.833 -31 -23.5s-18 -5.5 -28 -5.5c-16.667 0 -35 6 -55 18c-14 8.66699 -26.667 14.667 -38 18s-24.333 5 -39 5c-19.333 0 -37.333 -4.33301 -54 -13s-36 -24 -58 -46l56 -57c12 12 22.333 19.833 31 23.5s18 5.5 28 5.5
c16.667 0 35.334 -6 56.001 -18c14.667 -8.66699 27.667 -14.667 39 -18s24 -5 38 -5c19.333 0 37.5 4.33301 54.5 13s36.5 24 58.5 46z" />
    <glyph glyph-name="tilde" unicode="&#x2dc;" horiz-adv-x="500" 
d="M430 674l-58.001 57c-12 -12 -22.333 -19.833 -31 -23.5s-18 -5.5 -28 -5.5c-16.667 0 -35 6 -55 18c-14 8.66699 -26.667 14.667 -38 18s-24.333 5 -39 5c-19.333 0 -37.333 -4.33301 -54 -13s-36 -24 -58 -46l56 -57c12 12 22.333 19.833 31 23.5s18 5.5 28 5.5
c16.667 0 35.334 -6 56.001 -18c14.667 -8.66699 27.667 -14.667 39 -18s24 -5 38 -5c19.333 0 37.5 4.33301 54.5 13s36.5 24 58.5 46z" />
    <glyph glyph-name="trademark" horiz-adv-x="924" 
d="M860 285v427h-95l-122 -228l-122 228h-95v-427h95v252l80 -157h84l80 157v-252h95zM360 627v85h-315v-85h110v-342h95v342h110z" />
    <glyph glyph-name="trademark" unicode="&#x2122;" horiz-adv-x="924" 
d="M860 285v427h-95l-122 -228l-122 228h-95v-427h95v252l80 -157h84l80 157v-252h95zM360 627v85h-315v-85h110v-342h95v342h110z" />
    <glyph glyph-name="scaron" horiz-adv-x="501" 
d="M465 164c0 44.667 -12.999 80.168 -38.999 106.501s-64.667 41.833 -116 46.5l-41 4l-41 4c-20.667 2 -34.834 7.16699 -42.501 15.5s-11.5 18.166 -11.5 29.499c0 14 6.16699 25.833 18.5 35.5s30.833 14.5 55.5 14.5c25.333 0 48.333 -2.66699 69 -8s38 -14.333 52 -27
l80 81c-23.333 22 -51.5 37.667 -84.5 47s-71.167 14 -114.5 14c-56 0 -103.5 -14.667 -142.5 -44s-58.5 -70 -58.5 -122c0 -46 13 -80.667 39 -104s63.667 -37.333 113 -42l42 -4l40 -4c19.333 -2 33.333 -7 42 -15s13 -19 13 -33c0 -18 -9 -31.5 -27 -40.5
s-39.667 -13.5 -65 -13.5c-26 0 -50.833 3.33301 -74.5 10s-45.167 19.667 -64.5 39l-85 -85c30 -30 62.5 -50 97.5 -60s76.5 -15 124.5 -15c64.667 0 117.667 14.5 159 43.5s62 71.167 62 126.5zM434.001 773.001h-101l-83 -90l-83 90h-101l132 -169h104z" />
    <glyph glyph-name="scaron" unicode="&#x161;" horiz-adv-x="501" 
d="M465 164c0 44.667 -12.999 80.168 -38.999 106.501s-64.667 41.833 -116 46.5l-41 4l-41 4c-20.667 2 -34.834 7.16699 -42.501 15.5s-11.5 18.166 -11.5 29.499c0 14 6.16699 25.833 18.5 35.5s30.833 14.5 55.5 14.5c25.333 0 48.333 -2.66699 69 -8s38 -14.333 52 -27
l80 81c-23.333 22 -51.5 37.667 -84.5 47s-71.167 14 -114.5 14c-56 0 -103.5 -14.667 -142.5 -44s-58.5 -70 -58.5 -122c0 -46 13 -80.667 39 -104s63.667 -37.333 113 -42l42 -4l40 -4c19.333 -2 33.333 -7 42 -15s13 -19 13 -33c0 -18 -9 -31.5 -27 -40.5
s-39.667 -13.5 -65 -13.5c-26 0 -50.833 3.33301 -74.5 10s-45.167 19.667 -64.5 39l-85 -85c30 -30 62.5 -50 97.5 -60s76.5 -15 124.5 -15c64.667 0 117.667 14.5 159 43.5s62 71.167 62 126.5zM434.001 773.001h-101l-83 -90l-83 90h-101l132 -169h104z" />
    <glyph glyph-name="guilsinglright" horiz-adv-x="350" 
d="M316 275l-249 248v-155l95 -93l-95 -93v-155z" />
    <glyph glyph-name="guilsinglright" unicode="&#x203a;" horiz-adv-x="350" 
d="M316 275l-249 248v-155l95 -93l-95 -93v-155z" />
    <glyph glyph-name="oe" horiz-adv-x="863" 
d="M816 220l-0.000976562 58c0 73.333 -20.167 133.166 -60.5 179.499s-95.833 69.5 -166.5 69.5c-66.667 0 -119 -23 -157 -69c-16.667 20.667 -38.834 37.334 -66.501 50.001s-59.167 19 -94.5 19c-36 0 -67.333 -5.83301 -94 -17.5s-49 -27.167 -67 -46.5
c-22.667 -23.333 -38.167 -50.5 -46.5 -81.5s-12.5 -71.167 -12.5 -120.5c0 -50 4.16699 -90.5 12.5 -121.5s23.833 -58.167 46.5 -81.5c18 -18.667 40.333 -34 67 -46s58 -18 94 -18c34.667 0 65.5 5.83301 92.5 17.5s48.833 27.834 65.5 48.501
c20.667 -22.667 46 -39.334 76 -50.001s62.667 -16 98 -16c44.667 0 81.667 6.5 111 19.5s58.333 33.833 87 62.5l-80 77c-18 -18 -35.167 -30.667 -51.5 -38s-38.166 -11 -65.499 -11c-35.333 0 -63.166 10.667 -83.499 32s-30.5 49.333 -30.5 84h326zM686.999 309
h-196.999c0.666992 12 1.66699 22 3 30s4 16.667 8 26c7.33301 16.667 18.666 29.834 33.999 39.501s33.333 14.5 54 14.5c21.333 0 39.333 -4.83301 54 -14.5s25.667 -22.834 33 -39.501c4 -9.33301 6.66699 -18 8 -26s2.33301 -18 3 -30zM362 261
c0 -32 -1.83301 -58 -5.5 -78s-11.834 -36.333 -24.501 -49c-15.333 -15.333 -35.666 -23 -60.999 -23c-24.667 0 -44.667 7.66699 -60 23c-12 12.667 -20 29 -24 49s-6 46 -6 78s2 58 6 78s12 36 24 48c15.333 15.333 35.333 23 60 23c25.333 0 45.666 -7.66699 60.999 -23
c12.667 -12 20.834 -28 24.501 -48s5.5 -46 5.5 -78z" />
    <glyph glyph-name="oe" unicode="&#x153;" horiz-adv-x="863" 
d="M816 220l-0.000976562 58c0 73.333 -20.167 133.166 -60.5 179.499s-95.833 69.5 -166.5 69.5c-66.667 0 -119 -23 -157 -69c-16.667 20.667 -38.834 37.334 -66.501 50.001s-59.167 19 -94.5 19c-36 0 -67.333 -5.83301 -94 -17.5s-49 -27.167 -67 -46.5
c-22.667 -23.333 -38.167 -50.5 -46.5 -81.5s-12.5 -71.167 -12.5 -120.5c0 -50 4.16699 -90.5 12.5 -121.5s23.833 -58.167 46.5 -81.5c18 -18.667 40.333 -34 67 -46s58 -18 94 -18c34.667 0 65.5 5.83301 92.5 17.5s48.833 27.834 65.5 48.501
c20.667 -22.667 46 -39.334 76 -50.001s62.667 -16 98 -16c44.667 0 81.667 6.5 111 19.5s58.333 33.833 87 62.5l-80 77c-18 -18 -35.167 -30.667 -51.5 -38s-38.166 -11 -65.499 -11c-35.333 0 -63.166 10.667 -83.499 32s-30.5 49.333 -30.5 84h326zM686.999 309
h-196.999c0.666992 12 1.66699 22 3 30s4 16.667 8 26c7.33301 16.667 18.666 29.834 33.999 39.501s33.333 14.5 54 14.5c21.333 0 39.333 -4.83301 54 -14.5s25.667 -22.834 33 -39.501c4 -9.33301 6.66699 -18 8 -26s2.33301 -18 3 -30zM362 261
c0 -32 -1.83301 -58 -5.5 -78s-11.834 -36.333 -24.501 -49c-15.333 -15.333 -35.666 -23 -60.999 -23c-24.667 0 -44.667 7.66699 -60 23c-12 12.667 -20 29 -24 49s-6 46 -6 78s2 58 6 78s12 36 24 48c15.333 15.333 35.333 23 60 23c25.333 0 45.666 -7.66699 60.999 -23
c12.667 -12 20.834 -28 24.501 -48s5.5 -46 5.5 -78z" />
    <glyph glyph-name="Ydieresis" horiz-adv-x="572" 
d="M569 712h-151l-131 -287l-133 287h-151l214 -420v-292h138v292zM451 783v125h-111v-125h111zM230 783v125h-111v-125h111z" />
    <glyph glyph-name="Ydieresis" unicode="&#x178;" horiz-adv-x="572" 
d="M569 712h-151l-131 -287l-133 287h-151l214 -420v-292h138v292zM451 783v125h-111v-125h111zM230 783v125h-111v-125h111z" />
    <glyph glyph-name="nonbreakingspace" unicode="&#xa0;" horiz-adv-x="232" 
 />
    <glyph glyph-name="exclamdown" unicode="&#xa1;" horiz-adv-x="347" 
d="M224 388v133h-137v-133h137zM236 -191l-32 489h-97l-32 -489h161z" />
    <glyph glyph-name="cent" unicode="&#xa2;" horiz-adv-x="499" 
d="M469 180l-86 83.9941c-10.667 -11.333 -20.667 -20.166 -30 -26.499s-20.666 -11.166 -33.999 -14.499v286c13.333 -3.33301 24.666 -8.16602 33.999 -14.499s19.333 -15.166 30 -26.499l86 84c-38.667 40.667 -84 65.667 -136 75v85h-101v-85
c-55.333 -11.333 -100 -39.166 -134 -83.499s-51 -103.5 -51 -177.5s17 -133.167 51 -177.5s78.667 -72.166 134 -83.499v-105h101v105c52 9.33301 97.333 34.333 136 75zM246 224.994c-15.333 4 -28 12.667 -38 26c-20.667 26 -31 64.333 -31 115s10.333 89 31 115
c11.333 13.333 24 22 38 26v-282z" />
    <glyph glyph-name="sterling" unicode="&#xa3;" horiz-adv-x="579" 
d="M534 0l-0.00292969 124h-295v173h113v100h-113v75c0 40 10.167 70.333 30.5 91s47.833 31 82.5 31c21.333 0 38.5 -3.33301 51.5 -10s26.167 -16.667 39.5 -30l91 91c-26 26.667 -53.167 45.5 -81.5 56.5s-61.833 16.5 -100.5 16.5
c-33.333 0 -65.166 -5.16699 -95.499 -15.5s-57.166 -25.833 -80.499 -46.5s-41.666 -46 -54.999 -76s-20 -64 -20 -102v-81h-61v-100h61v-297h433z" />
    <glyph glyph-name="currency" unicode="&#xa4;" horiz-adv-x="669" 
d="M610 96l-73 73c21.333 36 32 75 32 117s-10.667 81 -32 117l73 73l-85 86l-74 -73c-36 21.333 -75 32 -117 32c-41.333 0 -80 -10.667 -116 -32l-74 73l-86 -86l74 -73c-22 -37.333 -33 -76.333 -33 -117s11 -79.667 33 -117l-74 -73l86 -86l74 73
c36 -21.333 74.667 -32 116 -32c42 0 81 10.667 117 32l74 -73zM452 286c0 -32.667 -11.5 -60.334 -34.5 -83.001s-50.833 -34 -83.5 -34s-60.334 11.333 -83.001 34s-34 50.334 -34 83.001s11.333 60.334 34 83.001s50.334 34 83.001 34s60.5 -11.333 83.5 -34
s34.5 -50.334 34.5 -83.001z" />
    <glyph glyph-name="yen" unicode="&#xa5;" horiz-adv-x="571" 
d="M568 712h-150l-132 -288l-132 288h-151l137 -270h-75v-100h126l26 -50v-51h-152v-100h152v-141h138v141h151v100h-151v51l26 50h125v100h-74z" />
    <glyph glyph-name="brokenbar" unicode="&#xa6;" horiz-adv-x="353" 
d="M240 436v350h-130v-350h130zM240 -74v350h-130v-350h130z" />
    <glyph glyph-name="section" unicode="&#xa7;" horiz-adv-x="531" 
d="M383 125c22.667 12.667 43.3311 32.334 61.998 59.001s28 56.667 28 90c0 51.333 -11.833 91.5 -35.5 120.5s-60.5 51.5 -110.5 67.5l-62 20c-44.667 14.667 -67 36.667 -67 66c0 17.333 6.16699 31.5 18.5 42.5s29.5 16.5 51.5 16.5
c20.667 0 37.334 -4.83301 50.001 -14.5s19.334 -25.167 20.001 -46.5h122c-0.666992 50.667 -17.167 92 -49.5 124s-79.833 48 -142.5 48c-61.333 0 -108.666 -16.667 -141.999 -50s-50 -74.333 -50 -123c0 -34 6.83301 -61.167 20.5 -81.5s32.167 -36.833 55.5 -49.5
c-23.333 -12.667 -44.333 -32.167 -63 -58.5s-28 -56.5 -28 -90.5c0 -51.333 11.833 -91.333 35.5 -120s60.5 -51.334 110.5 -68.001l62 -21c25.333 -8 43.333 -18.5 54 -31.5s16 -27.167 16 -42.5c0 -19.333 -6.5 -34.833 -19.5 -46.5s-30.833 -17.5 -53.5 -17.5
c-22 0 -39.5 5.83301 -52.5 17.5s-20.167 26.834 -21.5 45.501h-125c0.666992 -30.667 6.66699 -57.334 18 -80.001s26.333 -41.167 45 -55.5s39.667 -25 63 -32s47.666 -10.5 72.999 -10.5s49.833 3.83301 73.5 11.5s44.834 19.167 63.501 34.5s33.5 34.5 44.5 57.5
s16.5 49.5 16.5 79.5c0 36 -7.33301 65.167 -22 87.5s-34.334 39.5 -59.001 51.5zM347.997 269c0 -16.667 -2.33398 -30.167 -7.00098 -40.5s-10.667 -19.166 -18 -26.499c-14 -14 -32.667 -21 -56 -21c-24 0 -43 7 -57 21c-7.33301 7.33301 -13.166 16.166 -17.499 26.499
s-6.5 23.833 -6.5 40.5c0 16 2 29.333 6 40s10 20 18 28c14 14 33 21 57 21c22 0 40.667 -7 56 -21c8 -8 14.167 -17.333 18.5 -28s6.5 -24 6.5 -40z" />
    <glyph glyph-name="dieresis" unicode="&#xa8;" horiz-adv-x="500" 
d="M416 606v125h-111v-125h111zM195 606v125h-111v-125h111z" />
    <glyph glyph-name="copyright" unicode="&#xa9;" horiz-adv-x="844" 
d="M784 356c0 49.333 -9.33301 96 -28 140s-44.667 82.667 -78 116s-72 59.333 -116 78s-90.667 28 -140 28s-96 -9.33301 -140 -28s-82.667 -44.667 -116 -78s-59.333 -72 -78 -116s-28 -90.667 -28 -140s9.33301 -96 28 -140s44.667 -82.667 78 -116s72 -59.333 116 -78
s90.667 -28 140 -28s96 9.33301 140 28s82.667 44.667 116 78s59.333 72 78 116s28 90.667 28 140zM697 356c0 -39.333 -7 -76.333 -21 -111s-33.5 -64.667 -58.5 -90s-54.333 -45 -88 -59s-69.5 -21 -107.5 -21s-74 7 -108 21s-63.5 33.667 -88.5 59s-44.5 55.333 -58.5 90
s-21 71.667 -21 111s7 76.333 21 111s33.667 64.667 59 90s54.833 45 88.5 59s69.5 21 107.5 21s73.833 -7 107.5 -21s63 -33.667 88 -59s44.5 -55.333 58.5 -90s21 -71.667 21 -111zM561 212l-56 56.002c-14 -12 -26.5 -20.333 -37.5 -25s-23.833 -7 -38.5 -7
c-30.667 0 -54 10.667 -70 32s-24 50.666 -24 87.999s8 66.666 24 87.999s39.333 32 70 32c14.667 0 27.5 -2.33301 38.5 -7s23.5 -13 37.5 -25l56 56c-20.667 18 -41.167 31.333 -61.5 40s-43.833 13 -70.5 13c-52 0 -94.833 -17.333 -128.5 -52s-50.5 -83 -50.5 -145
s16.833 -110.167 50.5 -144.5s76.5 -51.5 128.5 -51.5c26.667 0 50.5 4.33301 71.5 13s41.167 21.667 60.5 39z" />
    <glyph glyph-name="ordfeminine" unicode="&#xaa;" horiz-adv-x="454" 
d="M392 296l-0.000976562 274c0 98 -59 147 -177 147c-35.333 0 -64.333 -4.16699 -87 -12.5s-44 -23.5 -64 -45.5l67 -65c11.333 12.667 22.5 21.5 33.5 26.5s26.167 7.5 45.5 7.5c27.333 0 47 -5.16699 59 -15.5s18 -26.833 18 -49.5v-20h-97
c-46 0 -81.167 -11.333 -105.5 -34s-36.5 -51.667 -36.5 -87c0 -38 11.667 -68.667 35 -92c24.667 -25.333 59.667 -38 105 -38c23.333 0 42.333 3 57 9s29.334 16.333 44.001 31v-36h103zM286.999 449c0 -24.667 -5 -41.667 -15 -51c-8 -7.33301 -17 -12.333 -27 -15
s-22.667 -4 -38 -4c-38 0 -57 15.333 -57 46c0 31.333 18.667 47 56 47h81v-23z" />
    <glyph glyph-name="guillemotleft" unicode="&#xab;" horiz-adv-x="628" 
d="M562 27v155l-96 93l96 93v155l-250 -248zM283 27v155l-94 93l94 93v155l-249 -248z" />
    <glyph glyph-name="logicalnot" unicode="&#xac;" 
d="M497 94v266h-451v-121h330v-145h121z" />
    <glyph glyph-name="minus" unicode="&#xad;" 
d="M493 225v121h-443v-121h443z" />
    <glyph glyph-name="registered" unicode="&#xae;" horiz-adv-x="844" 
d="M784 356c0 49.333 -9.33301 96 -28 140s-44.667 82.667 -78 116s-72 59.333 -116 78s-90.667 28 -140 28s-96 -9.33301 -140 -28s-82.667 -44.667 -116 -78s-59.333 -72 -78 -116s-28 -90.667 -28 -140s9.33301 -96 28 -140s44.667 -82.667 78 -116s72 -59.333 116 -78
s90.667 -28 140 -28s96 9.33301 140 28s82.667 44.667 116 78s59.333 72 78 116s28 90.667 28 140zM698 356c0 -39.333 -7 -76.333 -21 -111s-33.5 -64.667 -58.5 -90s-54.333 -45 -88 -59s-69.834 -21 -108.501 -21s-74.834 7 -108.501 21s-63 33.667 -88 59
s-44.5 55.333 -58.5 90s-21 71.667 -21 111s7 76.333 21 111s33.5 64.667 58.5 90s54.333 45 88 59s69.834 21 108.501 21s74.834 -7 108.501 -21s63 -33.667 88 -59s44.5 -55.333 58.5 -90s21 -71.667 21 -111zM585 164l-81 161.999c20.667 8 37.667 20.833 51 38.5
s20 38.834 20 63.501c0 33.333 -11.833 61.833 -35.5 85.5s-54.5 35.5 -92.5 35.5h-157v-385h86v149h41l70 -149h98zM489 427.999c0 -14 -5 -25.833 -15 -35.5s-22.667 -14.5 -38 -14.5h-60v100h60c15.333 0 28 -4.83301 38 -14.5s15 -21.5 15 -35.5z" />
    <glyph glyph-name="macron" unicode="&#xaf;" horiz-adv-x="500" 
d="M408 630v87h-316v-87h316z" />
    <glyph glyph-name="degree" unicode="&#xb0;" horiz-adv-x="478" 
d="M423 542c0 25.333 -4.66699 49.166 -14 71.499s-22.5 42 -39.5 59s-36.667 30.333 -59 40s-46.166 14.5 -71.499 14.5s-49.166 -4.83301 -71.499 -14.5s-42 -23 -59 -40s-30.167 -36.667 -39.5 -59s-14 -46.166 -14 -71.499s4.66699 -49.166 14 -71.499
s22.5 -42 39.5 -59s36.667 -30.167 59 -39.5s46.166 -14 71.499 -14s49.166 4.66699 71.499 14s42 22.5 59 39.5s30.167 36.667 39.5 59s14 46.166 14 71.499zM318 542c0 -22.667 -7.66699 -41.667 -23 -57s-34 -23 -56 -23s-40.667 7.66699 -56 23s-23 34.333 -23 57
s7.5 41.667 22.5 57s33.5 23 55.5 23s40.833 -7.66699 56.5 -23s23.5 -34.333 23.5 -57z" />
    <glyph glyph-name="plusminus" unicode="&#xb1;" 
d="M493 341v121h-160v161h-122v-161h-161v-121h161v-161h122v161h160zM493 0v122h-443v-122h443z" />
    <glyph glyph-name="twosuperior" unicode="&#xb2;" horiz-adv-x="358" 
d="M315 285v85h-157l105 114c18.667 20.667 32 38 40 52s12 31.333 12 52c0 39.333 -12.667 70.5 -38 93.5s-58 34.5 -98 34.5c-39.333 0 -71.833 -11.5 -97.5 -34.5s-38.5 -54.5 -38.5 -94.5h94c0 16 4 27.333 12 34s18 10 30 10c28 0 42 -14.333 42 -43
c0 -8.66699 -1.66699 -16.5 -5 -23.5s-9 -14.833 -17 -23.5l-156 -171v-85h272z" />
    <glyph glyph-name="threesuperior" unicode="&#xb3;" horiz-adv-x="368" 
d="M325 412c0 23.333 -4.66504 42.502 -13.998 57.502s-21.333 27.167 -36 36.5c13.333 8 24.166 18.667 32.499 32s12.5 30.666 12.5 51.999c0 36.667 -12.833 66.834 -38.5 90.501s-58.167 35.5 -97.5 35.5c-38.667 0 -71 -11.5 -97 -34.5s-39 -53.833 -39 -92.5h94
c0 13.333 4 23.666 12 30.999s18 11 30 11s22 -3.83301 30 -11.5s12 -18.5 12 -32.5c0 -11.333 -3.66699 -21.333 -11 -30s-18.333 -13 -33 -13h-13v-81h13c14.667 0 26.5 -4.5 35.5 -13.5s13.5 -20.5 13.5 -34.5c0 -15.333 -4.16699 -27.5 -12.5 -36.5
s-19.833 -13.5 -34.5 -13.5c-13.333 0 -24.5 4.16699 -33.5 12.5s-13.5 20.166 -13.5 35.499h-94c0 -44 13.667 -77 41 -99s60.666 -33 99.999 -33c40 0 73.5 11.333 100.5 34s40.5 55 40.5 97z" />
    <glyph glyph-name="acute" unicode="&#xb4;" horiz-adv-x="500" 
d="M396 774h-137l-64 -170h87z" />
    <glyph glyph-name="mu" unicode="&#xb5;" horiz-adv-x="576" 
d="M503 0l-0.00195312 521.001h-130v-315c0 -32.667 -8.5 -56.667 -25.5 -72s-37.5 -23 -61.5 -23c-23.333 0 -43.5 7.66699 -60.5 23s-25.5 39.333 -25.5 72v315h-130v-712h130v199c12.667 -9.33301 28 -14 46 -14c24.667 0 48.334 4.66699 71.001 14
s42.334 22.666 59.001 39.999v-48h127z" />
    <glyph glyph-name="paragraph" unicode="&#xb6;" horiz-adv-x="668" 
d="M585 -191v902.999h-319c-70 0 -126 -17.833 -168 -53.5s-63 -85.5 -63 -149.5c0 -27.333 5.16699 -53.166 15.5 -77.499s24.333 -45.833 42 -64.5s38 -33.167 61 -43.5s46.833 -15.5 71.5 -15.5v-499h130v779h100v-779h130z" />
    <glyph glyph-name="cedilla" unicode="&#xb8;" horiz-adv-x="500" 
d="M325 -60h-96l-69 -146h121z" />
    <glyph glyph-name="onesuperior" unicode="&#xb9;" horiz-adv-x="292" 
d="M223 285v427h-95l-90 -78v-106l90 78v-321h95z" />
    <glyph glyph-name="ordmasculine" unicode="&#xba;" horiz-adv-x="462" 
d="M407 504c0 39.333 -3.50195 71.333 -10.502 96s-19.5 46.667 -37.5 66c-14.667 15.333 -32.5 27.666 -53.5 36.999s-45.833 14 -74.5 14c-28 0 -52.667 -4.66699 -74 -14s-39.333 -21.666 -54 -36.999c-18 -19.333 -30.5 -41.333 -37.5 -66s-10.5 -56.667 -10.5 -96
s3.33301 -71.166 10 -95.499s19.334 -46.166 38.001 -65.499c14.667 -15.333 32.667 -27.666 54 -36.999s46 -14 74 -14c28.667 0 53.5 4.66699 74.5 14s38.833 21.666 53.5 36.999c18.667 19.333 31.334 41.166 38.001 65.499s10 56.166 10 95.499zM301.998 504
c0 -25.333 -1.5 -46 -4.5 -62s-9.16699 -28.667 -18.5 -38c-12 -12 -28 -18 -48 -18s-36 6 -48 18c-9.33301 9.33301 -15.5 22 -18.5 38s-4.5 36.667 -4.5 62s1.5 46.166 4.5 62.499s9.16699 29.166 18.5 38.499c12 12 28 18 48 18s36 -6 48 -18
c9.33301 -9.33301 15.5 -22.166 18.5 -38.499s4.5 -37.166 4.5 -62.499z" />
    <glyph glyph-name="guillemotright" unicode="&#xbb;" horiz-adv-x="628" 
d="M595 275l-250 248v-155l94 -93l-94 -93v-155zM316 275l-249 248v-155l95 -93l-95 -93v-155z" />
    <glyph glyph-name="onequarter" unicode="&#xbc;" horiz-adv-x="836" 
d="M796 57v89h-33v62h-90v-62h-74l144 281h-103l-143 -281v-89h176v-57h90v57h33zM625 712h-102l-337 -712h102zM223 285v427h-95l-90 -78v-106l90 78v-321h95z" />
    <glyph glyph-name="onehalf" unicode="&#xbd;" horiz-adv-x="862" 
d="M819 0v85.001h-157l105 114c18.667 20.667 32 38 40 52s12 31.333 12 52c0 39.333 -12.667 70.5 -38 93.5s-58 34.5 -98 34.5c-39.333 0 -71.833 -11.5 -97.5 -34.5s-38.5 -54.5 -38.5 -94.5h95c0 16 4 27.333 12 34s17.667 10 29 10
c13.333 0 23.833 -3.83301 31.5 -11.5s11.5 -18.167 11.5 -31.5c0 -8.66699 -1.66699 -16.334 -5 -23.001s-9.33301 -14.667 -18 -24l-156 -171v-85h272zM620 712.001h-101l-337 -712h101zM223 285.001v427h-95l-90 -78v-106l90 78v-321h95z" />
    <glyph glyph-name="threequarters" unicode="&#xbe;" horiz-adv-x="865" 
d="M825 57v89h-33v62h-90v-62h-74l144 281h-103l-143 -281v-89h176v-57h90v57h33zM657 712h-102l-337 -712h102zM325 412c0 23.333 -4.66504 42.502 -13.998 57.502s-21.333 27.167 -36 36.5c13.333 8 24.166 18.667 32.499 32s12.5 30.666 12.5 51.999
c0 36.667 -12.833 66.834 -38.5 90.501s-58.167 35.5 -97.5 35.5c-38.667 0 -71 -11.5 -97 -34.5s-39 -53.833 -39 -92.5h94c0 13.333 4 23.666 12 30.999s18 11 30 11s22 -3.83301 30 -11.5s12 -18.5 12 -32.5c0 -11.333 -3.66699 -21.333 -11 -30s-18.333 -13 -33 -13h-13
v-81h13c14.667 0 26.5 -4.5 35.5 -13.5s13.5 -20.5 13.5 -34.5c0 -15.333 -4.16699 -27.5 -12.5 -36.5s-19.833 -13.5 -34.5 -13.5c-13.333 0 -24.5 4.16699 -33.5 12.5s-13.5 20.166 -13.5 35.499h-94c0 -44 13.667 -77 41 -99s60.666 -33 99.999 -33
c40 0 73.5 11.333 100.5 34s40.5 55 40.5 97z" />
    <glyph glyph-name="questiondown" unicode="&#xbf;" horiz-adv-x="523" 
d="M311 388v133h-138v-133h138zM269 164c14 18 23.8301 34.6699 29.4971 50.0029s8.5 33.333 8.5 54v30h-130v-20c0 -8 -1.66699 -16.833 -5 -26.5s-7.66602 -17.834 -12.999 -24.501l-74 -99c-16 -20.667 -28.167 -40.834 -36.5 -60.501s-12.5 -41.167 -12.5 -64.5
c0 -61.333 20.333 -110 61 -146s90.334 -54 149.001 -54c29.333 0 56.833 4.66699 82.5 14s48.167 22.833 67.5 40.5s34.333 39 45 64s16 52.5 16 82.5h-130c0 -24 -7.16699 -44 -21.5 -60s-34.166 -24 -59.499 -24c-24.667 0 -44.167 7.66699 -58.5 23s-21.5 35 -21.5 59
c0 10.667 2.66699 21.667 8 33s12.333 22.666 21 33.999z" />
    <glyph glyph-name="Agrave" unicode="&#xc0;" horiz-adv-x="638" 
d="M633 0l-260 712h-109l-259 -712h145l43 126h253l42 -126h145zM409 243h-177l90 259zM372 781l-64 170h-137l114 -170h87z" />
    <glyph glyph-name="Aacute" unicode="&#xc1;" horiz-adv-x="638" 
d="M633 0l-260 712h-109l-259 -712h145l43 126h253l42 -126h145zM409 243h-177l90 259zM463 951h-137l-64 -170h87z" />
    <glyph glyph-name="Acircumflex" unicode="&#xc2;" horiz-adv-x="638" 
d="M633 0l-260 712h-109l-259 -712h145l43 126h253l42 -126h145zM409 243h-177l90 259zM501 781l-132 169h-104l-132 -169h101l83 91l83 -91h101z" />
    <glyph glyph-name="Atilde" unicode="&#xc3;" horiz-adv-x="638" 
d="M633 0l-260 712h-109l-259 -712h145l43 126h253l42 -126h145zM409 243h-177l90 259zM497 851l-58.001 57c-12 -12 -22.333 -19.833 -31 -23.5s-18 -5.5 -28 -5.5c-16.667 0 -35 6 -55 18c-14 8.66699 -26.667 14.667 -38 18s-24.333 5 -39 5
c-19.333 0 -37.333 -4.33301 -54 -13s-36 -24 -58 -46l56 -57c12 12 22.333 19.833 31 23.5s18 5.5 28 5.5c16.667 0 35.334 -6 56.001 -18c14.667 -8.66699 27.667 -14.667 39 -18s24 -5 38 -5c19.333 0 37.5 4.33301 54.5 13s36.5 24 58.5 46z" />
    <glyph glyph-name="Adieresis" unicode="&#xc4;" horiz-adv-x="638" 
d="M633 0l-260 712h-109l-259 -712h145l43 126h253l42 -126h145zM409 243h-177l90 259zM483 783v125h-111v-125h111zM262 783v125h-111v-125h111z" />
    <glyph glyph-name="Aring" unicode="&#xc5;" horiz-adv-x="638" 
d="M633 0l-260 712h-109l-259 -712h145l43 126h253l42 -126h145zM409 243h-177l90 259zM448 884c0 36.667 -12.833 67.667 -38.5 93s-56.5 38 -92.5 38s-66.833 -12.833 -92.5 -38.5s-38.5 -56.5 -38.5 -92.5s12.833 -66.833 38.5 -92.5s56.5 -38.5 92.5 -38.5
s66.833 12.833 92.5 38.5s38.5 56.5 38.5 92.5zM375 884c0 -16 -5.66699 -29.833 -17 -41.5s-25 -17.5 -41 -17.5s-29.667 5.83301 -41 17.5s-17 25.5 -17 41.5s5.66699 29.667 17 41s25 17 41 17s29.667 -5.66699 41 -17s17 -25 17 -41z" />
    <glyph glyph-name="AE" unicode="&#xc6;" horiz-adv-x="979" 
d="M926 0v124h-330v172h282v124h-282v168h330v124h-551l-372 -712h149l81 156h225v-156h468zM458 273h-165l165 315v-315z" />
    <glyph glyph-name="Ccedilla" unicode="&#xc7;" horiz-adv-x="620" 
d="M583 219l-141 -0.00195312c-7.33301 -30.667 -20.833 -55.167 -40.5 -73.5s-46.167 -27.5 -79.5 -27.5c-38 0 -67.667 12.333 -89 37c-7.33301 8 -13.166 16.667 -17.499 26s-7.66602 21 -9.99902 35s-4.16602 32 -5.49902 54s-2 50.667 -2 86s0.666992 64 2 86
s3.16602 40 5.49902 54s5.66602 25.667 9.99902 35s10.166 18 17.499 26c21.333 24.667 51 37 89 37c33.333 0 59.833 -9.16699 79.5 -27.5s33.167 -42.833 40.5 -73.5h141c-12 72.667 -41.5 128.334 -88.5 167.001s-104.833 58 -173.5 58c-76 0 -140 -26 -192 -78
c-30.667 -30.667 -50 -66.167 -58 -106.5s-12 -99.5 -12 -177.5s4 -137 12 -177s27.333 -75.667 58 -107c52 -52 116 -78 192 -78c68 0 125.667 19.333 173 58s77 94.334 89 167.001zM379 -60.002h-96l-69 -146h121z" />
    <glyph glyph-name="Egrave" unicode="&#xc8;" horiz-adv-x="605" 
d="M552 0v124h-330v173h281v124h-281v167h330v124h-469v-712h469zM365 781l-64 170h-137l114 -170h87z" />
    <glyph glyph-name="Eacute" unicode="&#xc9;" horiz-adv-x="605" 
d="M552 0v124h-330v173h281v124h-281v167h330v124h-469v-712h469zM455 951h-137l-64 -170h87z" />
    <glyph glyph-name="Ecircumflex" unicode="&#xca;" horiz-adv-x="605" 
d="M552 0v124h-330v173h281v124h-281v167h330v124h-469v-712h469zM494 781l-132 169h-104l-132 -169h101l83 91l83 -91h101z" />
    <glyph glyph-name="Edieresis" unicode="&#xcb;" horiz-adv-x="605" 
d="M552 0v124h-330v173h281v124h-281v167h330v124h-469v-712h469zM476 783v125h-111v-125h111zM255 783v125h-111v-125h111z" />
    <glyph glyph-name="Igrave" unicode="&#xcc;" horiz-adv-x="305" 
d="M222 0v712h-139v-712h139zM234 781l-64 170h-137l114 -170h87z" />
    <glyph glyph-name="Iacute" unicode="&#xcd;" horiz-adv-x="305" 
d="M222 0v712h-139v-712h139zM275 951h-137l-64 -170h87z" />
    <glyph glyph-name="Icircumflex" unicode="&#xce;" horiz-adv-x="305" 
d="M222 0v712h-139v-712h139zM335 781l-132 169h-104l-132 -169h101l83 91l83 -91h101z" />
    <glyph glyph-name="Idieresis" unicode="&#xcf;" horiz-adv-x="305" 
d="M222 0v712h-139v-712h139zM319 783v125h-111v-125h111zM98 783v125h-111v-125h111z" />
    <glyph glyph-name="Eth" unicode="&#xd0;" horiz-adv-x="682" 
d="M623 356c0 41.333 -0.500977 74.165 -1.50098 98.498s-3.5 46.5 -7.5 66.5s-10.167 38.667 -18.5 56s-20.166 34.333 -35.499 51c-48.667 56 -114.334 84 -197.001 84h-257v-299h-69v-106h69v-307h255c40.667 0 78 7.16699 112 21.5s63 34.833 87 61.5
c14.667 16.667 26.334 33.5 35.001 50.5s15 35.833 19 56.5s6.5 43.334 7.5 68.001s1.5 57.334 1.5 98.001zM483.999 353.999c0 -33.333 -0.333984 -59.668 -1.00098 -79.001s-1.66699 -34.833 -3 -46.5s-3.5 -21.334 -6.5 -29.001s-7.16699 -15.5 -12.5 -23.5
c-23.333 -35.333 -60.333 -53 -111 -53h-105v184h116v106h-116v176h105c48 0 84.333 -17.333 109 -52c6 -8 10.5 -16.167 13.5 -24.5s5.33301 -18.666 7 -30.999s2.83398 -28.666 3.50098 -48.999s1 -46.5 1 -78.5z" />
    <glyph glyph-name="Ntilde" unicode="&#xd1;" horiz-adv-x="711" 
d="M628 0v712h-139v-436l-282 436h-124v-712h139v437l282 -437h124zM536 851l-58.001 57c-12 -12 -22.333 -19.833 -31 -23.5s-18 -5.5 -28 -5.5c-16.667 0 -35 6 -55 18c-14 8.66699 -26.667 14.667 -38 18s-24.333 5 -39 5c-19.333 0 -37.333 -4.33301 -54 -13
s-36 -24 -58 -46l56 -57c12 12 22.333 19.833 31 23.5s18 5.5 28 5.5c16.667 0 35.334 -6 56.001 -18c14.667 -8.66699 27.667 -14.667 39 -18s24 -5 38 -5c19.333 0 37.5 4.33301 54.5 13s36.5 24 58.5 46z" />
    <glyph glyph-name="Ograve" unicode="&#xd2;" horiz-adv-x="644" 
d="M585 356c0 78.667 -3.83301 137.833 -11.5 177.5s-27.5 75.167 -59.5 106.5c-26 26 -54.667 45.5 -86 58.5s-66.666 19.5 -105.999 19.5s-74.833 -6.5 -106.5 -19.5s-60.5 -32.5 -86.5 -58.5c-30.667 -30.667 -50 -66.167 -58 -106.5s-12 -99.5 -12 -177.5
s4 -137 12 -177s27.333 -75.667 58 -107c26 -26 54.833 -45.5 86.5 -58.5s67.167 -19.5 106.5 -19.5s74.666 6.5 105.999 19.5s60 32.5 86 58.5c32 32 51.833 67.833 59.5 107.5s11.5 98.5 11.5 176.5zM446 355.999c0 -34.667 -0.5 -63.165 -1.5 -85.498
s-2.83301 -40.333 -5.5 -54s-6.16699 -25.167 -10.5 -34.5s-10.166 -18 -17.499 -26c-22 -25.333 -51.667 -38 -89 -38c-18.667 0 -35.834 3.33301 -51.501 10s-28.5 16 -38.5 28c-7.33301 8 -13 16.5 -17 25.5s-7.33301 20.667 -10 35s-4.5 32.166 -5.5 53.499
s-1.5 50 -1.5 86s0.5 64.833 1.5 86.5s2.83301 39.5 5.5 53.5s6.16699 25.667 10.5 35s9.83301 17.666 16.5 24.999c10 12 22.833 21.333 38.5 28s32.834 10 51.501 10c37.333 0 67 -12.667 89 -38c7.33301 -8 13.166 -16.667 17.499 -26s7.83301 -20.833 10.5 -34.5
s4.5 -31.5 5.5 -53.5s1.5 -50.667 1.5 -86zM377 781.001l-64 170h-137l114 -170h87z" />
    <glyph glyph-name="Oacute" unicode="&#xd3;" horiz-adv-x="644" 
d="M585 356c0 78.667 -3.83301 137.833 -11.5 177.5s-27.5 75.167 -59.5 106.5c-26 26 -54.667 45.5 -86 58.5s-66.666 19.5 -105.999 19.5s-74.833 -6.5 -106.5 -19.5s-60.5 -32.5 -86.5 -58.5c-30.667 -30.667 -50 -66.167 -58 -106.5s-12 -99.5 -12 -177.5
s4 -137 12 -177s27.333 -75.667 58 -107c26 -26 54.833 -45.5 86.5 -58.5s67.167 -19.5 106.5 -19.5s74.666 6.5 105.999 19.5s60 32.5 86 58.5c32 32 51.833 67.833 59.5 107.5s11.5 98.5 11.5 176.5zM446 355.999c0 -34.667 -0.5 -63.165 -1.5 -85.498
s-2.83301 -40.333 -5.5 -54s-6.16699 -25.167 -10.5 -34.5s-10.166 -18 -17.499 -26c-22 -25.333 -51.667 -38 -89 -38c-18.667 0 -35.834 3.33301 -51.501 10s-28.5 16 -38.5 28c-7.33301 8 -13 16.5 -17 25.5s-7.33301 20.667 -10 35s-4.5 32.166 -5.5 53.499
s-1.5 50 -1.5 86s0.5 64.833 1.5 86.5s2.83301 39.5 5.5 53.5s6.16699 25.667 10.5 35s9.83301 17.666 16.5 24.999c10 12 22.833 21.333 38.5 28s32.834 10 51.501 10c37.333 0 67 -12.667 89 -38c7.33301 -8 13.166 -16.667 17.499 -26s7.83301 -20.833 10.5 -34.5
s4.5 -31.5 5.5 -53.5s1.5 -50.667 1.5 -86zM468 951.001h-137l-64 -170h87z" />
    <glyph glyph-name="Ocircumflex" unicode="&#xd4;" horiz-adv-x="644" 
d="M585 356c0 78.667 -3.83301 137.833 -11.5 177.5s-27.5 75.167 -59.5 106.5c-26 26 -54.667 45.5 -86 58.5s-66.666 19.5 -105.999 19.5s-74.833 -6.5 -106.5 -19.5s-60.5 -32.5 -86.5 -58.5c-30.667 -30.667 -50 -66.167 -58 -106.5s-12 -99.5 -12 -177.5
s4 -137 12 -177s27.333 -75.667 58 -107c26 -26 54.833 -45.5 86.5 -58.5s67.167 -19.5 106.5 -19.5s74.666 6.5 105.999 19.5s60 32.5 86 58.5c32 32 51.833 67.833 59.5 107.5s11.5 98.5 11.5 176.5zM446 355.999c0 -34.667 -0.5 -63.165 -1.5 -85.498
s-2.83301 -40.333 -5.5 -54s-6.16699 -25.167 -10.5 -34.5s-10.166 -18 -17.499 -26c-22 -25.333 -51.667 -38 -89 -38c-18.667 0 -35.834 3.33301 -51.501 10s-28.5 16 -38.5 28c-7.33301 8 -13 16.5 -17 25.5s-7.33301 20.667 -10 35s-4.5 32.166 -5.5 53.499
s-1.5 50 -1.5 86s0.5 64.833 1.5 86.5s2.83301 39.5 5.5 53.5s6.16699 25.667 10.5 35s9.83301 17.666 16.5 24.999c10 12 22.833 21.333 38.5 28s32.834 10 51.501 10c37.333 0 67 -12.667 89 -38c7.33301 -8 13.166 -16.667 17.499 -26s7.83301 -20.833 10.5 -34.5
s4.5 -31.5 5.5 -53.5s1.5 -50.667 1.5 -86zM506 781.001l-132 169h-104l-132 -169h101l83 91l83 -91h101z" />
    <glyph glyph-name="Otilde" unicode="&#xd5;" horiz-adv-x="644" 
d="M585 356c0 78.667 -3.83301 137.833 -11.5 177.5s-27.5 75.167 -59.5 106.5c-26 26 -54.667 45.5 -86 58.5s-66.666 19.5 -105.999 19.5s-74.833 -6.5 -106.5 -19.5s-60.5 -32.5 -86.5 -58.5c-30.667 -30.667 -50 -66.167 -58 -106.5s-12 -99.5 -12 -177.5
s4 -137 12 -177s27.333 -75.667 58 -107c26 -26 54.833 -45.5 86.5 -58.5s67.167 -19.5 106.5 -19.5s74.666 6.5 105.999 19.5s60 32.5 86 58.5c32 32 51.833 67.833 59.5 107.5s11.5 98.5 11.5 176.5zM446 355.999c0 -34.667 -0.5 -63.165 -1.5 -85.498
s-2.83301 -40.333 -5.5 -54s-6.16699 -25.167 -10.5 -34.5s-10.166 -18 -17.499 -26c-22 -25.333 -51.667 -38 -89 -38c-18.667 0 -35.834 3.33301 -51.501 10s-28.5 16 -38.5 28c-7.33301 8 -13 16.5 -17 25.5s-7.33301 20.667 -10 35s-4.5 32.166 -5.5 53.499
s-1.5 50 -1.5 86s0.5 64.833 1.5 86.5s2.83301 39.5 5.5 53.5s6.16699 25.667 10.5 35s9.83301 17.666 16.5 24.999c10 12 22.833 21.333 38.5 28s32.834 10 51.501 10c37.333 0 67 -12.667 89 -38c7.33301 -8 13.166 -16.667 17.499 -26s7.83301 -20.833 10.5 -34.5
s4.5 -31.5 5.5 -53.5s1.5 -50.667 1.5 -86zM502 851.001l-58.001 57c-12 -12 -22.333 -19.833 -31 -23.5s-18 -5.5 -28 -5.5c-16.667 0 -35 6 -55 18c-14 8.66699 -26.667 14.667 -38 18s-24.333 5 -39 5c-19.333 0 -37.333 -4.33301 -54 -13s-36 -24 -58 -46l56 -57
c12 12 22.333 19.833 31 23.5s18 5.5 28 5.5c16.667 0 35.334 -6 56.001 -18c14.667 -8.66699 27.667 -14.667 39 -18s24 -5 38 -5c19.333 0 37.5 4.33301 54.5 13s36.5 24 58.5 46z" />
    <glyph glyph-name="Odieresis" unicode="&#xd6;" horiz-adv-x="644" 
d="M585 356c0 78.667 -3.83301 137.833 -11.5 177.5s-27.5 75.167 -59.5 106.5c-26 26 -54.667 45.5 -86 58.5s-66.666 19.5 -105.999 19.5s-74.833 -6.5 -106.5 -19.5s-60.5 -32.5 -86.5 -58.5c-30.667 -30.667 -50 -66.167 -58 -106.5s-12 -99.5 -12 -177.5
s4 -137 12 -177s27.333 -75.667 58 -107c26 -26 54.833 -45.5 86.5 -58.5s67.167 -19.5 106.5 -19.5s74.666 6.5 105.999 19.5s60 32.5 86 58.5c32 32 51.833 67.833 59.5 107.5s11.5 98.5 11.5 176.5zM446 355.999c0 -34.667 -0.5 -63.165 -1.5 -85.498
s-2.83301 -40.333 -5.5 -54s-6.16699 -25.167 -10.5 -34.5s-10.166 -18 -17.499 -26c-22 -25.333 -51.667 -38 -89 -38c-18.667 0 -35.834 3.33301 -51.501 10s-28.5 16 -38.5 28c-7.33301 8 -13 16.5 -17 25.5s-7.33301 20.667 -10 35s-4.5 32.166 -5.5 53.499
s-1.5 50 -1.5 86s0.5 64.833 1.5 86.5s2.83301 39.5 5.5 53.5s6.16699 25.667 10.5 35s9.83301 17.666 16.5 24.999c10 12 22.833 21.333 38.5 28s32.834 10 51.501 10c37.333 0 67 -12.667 89 -38c7.33301 -8 13.166 -16.667 17.499 -26s7.83301 -20.833 10.5 -34.5
s4.5 -31.5 5.5 -53.5s1.5 -50.667 1.5 -86zM488 783.001v125h-111v-125h111zM267 783.001v125h-111v-125h111z" />
    <glyph glyph-name="multiply" unicode="&#xd7;" 
d="M494 145l-141 141l141 141l-82 82l-141 -141l-140 141l-82 -82l141 -141l-141 -141l82 -82l140 141l141 -141z" />
    <glyph glyph-name="Oslash" unicode="&#xd8;" horiz-adv-x="652" 
d="M585 356c0 78.667 -3.83203 137.833 -11.499 177.5s-27.5 75.167 -59.5 106.5l-5 5l53 111h-98l-29 -60c-32 14.667 -69.667 22 -113 22c-39.333 0 -74.833 -6.5 -106.5 -19.5s-60.5 -32.5 -86.5 -58.5c-30.667 -30.667 -50 -66.167 -58 -106.5s-12 -99.5 -12 -177.5
s4 -137 12 -177s27.333 -75.667 58 -107l5 -5l-53 -111h99l29 60c32 -14.667 69.667 -22 113 -22c39.333 0 74.666 6.5 105.999 19.5s60 32.5 86 58.5c32 32 51.833 67.833 59.5 107.5s11.5 98.5 11.5 176.5zM385.001 577.999l-178.002 -372.999
c-3.33301 14 -5.66602 32.5 -6.99902 55.5s-2 54.833 -2 95.5c0 36 0.5 64.833 1.5 86.5s2.83301 39.5 5.5 53.5s6.16699 25.667 10.5 35s9.83301 17.666 16.5 24.999c10 12 22.833 21.333 38.5 28s32.834 10 51.501 10c24.667 0 45.667 -5.33301 63 -16zM445.999 356
c0 -34.667 -0.500977 -63.167 -1.50098 -85.5s-2.83301 -40.333 -5.5 -54s-6.16699 -25.167 -10.5 -34.5s-10.166 -18 -17.499 -26c-22 -25.333 -51.667 -38 -89 -38c-24 0 -45.333 5.66699 -64 17l178 372c3.33301 -14.667 5.83301 -34 7.5 -58s2.5 -55 2.5 -93z" />
    <glyph glyph-name="Ugrave" unicode="&#xd9;" horiz-adv-x="668" 
d="M596 244l-0.000976562 468h-138v-463c0 -40.667 -11.167 -72.667 -33.5 -96s-52.5 -35 -90.5 -35c-37.333 0 -67.166 11.667 -89.499 35s-33.5 55.333 -33.5 96v463h-139v-468c0 -37.333 6.66699 -71.333 20 -102s32 -57.167 56 -79.5s52 -39.333 84 -51
s66 -17.5 102 -17.5s70 5.83301 102 17.5s60 28.667 84 51s42.667 48.833 56 79.5s20 64.667 20 102zM388.999 781l-64 170h-137l114 -170h87z" />
    <glyph glyph-name="Uacute" unicode="&#xda;" horiz-adv-x="668" 
d="M596 244l-0.000976562 468h-138v-463c0 -40.667 -11.167 -72.667 -33.5 -96s-52.5 -35 -90.5 -35c-37.333 0 -67.166 11.667 -89.499 35s-33.5 55.333 -33.5 96v463h-139v-468c0 -37.333 6.66699 -71.333 20 -102s32 -57.167 56 -79.5s52 -39.333 84 -51
s66 -17.5 102 -17.5s70 5.83301 102 17.5s60 28.667 84 51s42.667 48.833 56 79.5s20 64.667 20 102zM479.999 951h-137l-64 -170h87z" />
    <glyph glyph-name="Ucircumflex" unicode="&#xdb;" horiz-adv-x="668" 
d="M596 244l-0.000976562 468h-138v-463c0 -40.667 -11.167 -72.667 -33.5 -96s-52.5 -35 -90.5 -35c-37.333 0 -67.166 11.667 -89.499 35s-33.5 55.333 -33.5 96v463h-139v-468c0 -37.333 6.66699 -71.333 20 -102s32 -57.167 56 -79.5s52 -39.333 84 -51
s66 -17.5 102 -17.5s70 5.83301 102 17.5s60 28.667 84 51s42.667 48.833 56 79.5s20 64.667 20 102zM517.999 781l-132 169h-104l-132 -169h101l83 91l83 -91h101z" />
    <glyph glyph-name="Udieresis" unicode="&#xdc;" horiz-adv-x="668" 
d="M596 244l-0.000976562 468h-138v-463c0 -40.667 -11.167 -72.667 -33.5 -96s-52.5 -35 -90.5 -35c-37.333 0 -67.166 11.667 -89.499 35s-33.5 55.333 -33.5 96v463h-139v-468c0 -37.333 6.66699 -71.333 20 -102s32 -57.167 56 -79.5s52 -39.333 84 -51
s66 -17.5 102 -17.5s70 5.83301 102 17.5s60 28.667 84 51s42.667 48.833 56 79.5s20 64.667 20 102zM499.999 783v125h-111v-125h111zM278.999 783v125h-111v-125h111z" />
    <glyph glyph-name="Yacute" unicode="&#xdd;" horiz-adv-x="572" 
d="M569 712h-151l-131 -287l-133 287h-151l214 -420v-292h138v292zM431 951h-137l-64 -170h87z" />
    <glyph glyph-name="Thorn" unicode="&#xde;" horiz-adv-x="633" 
d="M594 360c0 30.667 -5.33105 59.333 -15.998 86s-26.334 50.167 -47.001 70.5s-45.5 36.166 -74.5 47.499s-61.5 17 -97.5 17h-137v131h-139v-712h139v138h137c36 0 68.667 5.83301 98 17.5s54.166 27.667 74.499 48s35.833 43.833 46.5 70.5s16 55.334 16 86.001z
M455.002 359.999c0 -29.333 -9.33301 -53 -28 -71s-43.667 -27 -75 -27h-130v195h130c31.333 0 56.333 -8.83301 75 -26.5s28 -41.167 28 -70.5z" />
    <glyph glyph-name="germandbls" unicode="&#xdf;" horiz-adv-x="574" 
d="M516 161l0.000976562 160.001c0 29.333 -5.16699 52.166 -15.5 68.499s-25.833 29.833 -46.5 40.5c18 11.333 32.667 26 44 44s17 41 17 69c0 58 -19.667 101.667 -59 131s-92 44 -158 44c-68.667 0 -123.334 -16.167 -164.001 -48.5s-61 -81.833 -61 -148.5v-521h130
v511c0 31.333 7.16699 54.833 21.5 70.5s38.166 23.5 71.499 23.5c32 0 55.333 -7 70 -21c12.667 -11.333 19 -26.333 19 -45c0 -20 -5.66699 -35 -17 -45s-25.666 -15 -42.999 -15h-28v-102h28c19.333 0 34.333 -5.33301 45 -16c10 -10 15 -25 15 -45v-144
c0 -20.667 -5.66699 -36.334 -17 -47.001c-10.667 -10 -25.667 -15 -45 -15h-26v-110h52c56 0 98 14 126 42c27.333 26.667 41 66.334 41 119.001z" />
    <glyph glyph-name="agrave" unicode="&#xe0;" horiz-adv-x="534" 
d="M467 0v342.999c0 122.667 -74 184 -222 184c-44.667 0 -81 -5.16699 -109 -15.5s-54.333 -29.166 -79 -56.499l83 -81c14 16 28.167 27.167 42.5 33.5s33.5 9.5 57.5 9.5c34.667 0 59.5 -6.5 74.5 -19.5s22.5 -33.833 22.5 -62.5v-26h-123
c-58 0 -102.167 -14.167 -132.5 -42.5s-45.5 -64.5 -45.5 -108.5c0 -48 14.333 -87 43 -117c30.667 -30.667 75 -46 133 -46c29.333 0 53.5 3.83301 72.5 11.5s37.5 20.5 55.5 38.5v-45h127zM337 191.999c0 -32 -6.33203 -54.001 -18.999 -66.001
c-10.667 -10 -22 -16.667 -34 -20s-28 -5 -48 -5c-24.667 0 -43.334 5.33301 -56.001 16s-19 25.334 -19 44.001c0 39.333 24.333 59 73 59h103v-28zM316.001 603.998l-64 170h-137l114 -170h87z" />
    <glyph glyph-name="aacute" unicode="&#xe1;" horiz-adv-x="534" 
d="M467 0v342.999c0 122.667 -74 184 -222 184c-44.667 0 -81 -5.16699 -109 -15.5s-54.333 -29.166 -79 -56.499l83 -81c14 16 28.167 27.167 42.5 33.5s33.5 9.5 57.5 9.5c34.667 0 59.5 -6.5 74.5 -19.5s22.5 -33.833 22.5 -62.5v-26h-123
c-58 0 -102.167 -14.167 -132.5 -42.5s-45.5 -64.5 -45.5 -108.5c0 -48 14.333 -87 43 -117c30.667 -30.667 75 -46 133 -46c29.333 0 53.5 3.83301 72.5 11.5s37.5 20.5 55.5 38.5v-45h127zM337 191.999c0 -32 -6.33203 -54.001 -18.999 -66.001
c-10.667 -10 -22 -16.667 -34 -20s-28 -5 -48 -5c-24.667 0 -43.334 5.33301 -56.001 16s-19 25.334 -19 44.001c0 39.333 24.333 59 73 59h103v-28zM407.001 773.998h-137l-64 -170h87z" />
    <glyph glyph-name="acircumflex" unicode="&#xe2;" horiz-adv-x="534" 
d="M467 0v342.999c0 122.667 -74 184 -222 184c-44.667 0 -81 -5.16699 -109 -15.5s-54.333 -29.166 -79 -56.499l83 -81c14 16 28.167 27.167 42.5 33.5s33.5 9.5 57.5 9.5c34.667 0 59.5 -6.5 74.5 -19.5s22.5 -33.833 22.5 -62.5v-26h-123
c-58 0 -102.167 -14.167 -132.5 -42.5s-45.5 -64.5 -45.5 -108.5c0 -48 14.333 -87 43 -117c30.667 -30.667 75 -46 133 -46c29.333 0 53.5 3.83301 72.5 11.5s37.5 20.5 55.5 38.5v-45h127zM337 191.999c0 -32 -6.33203 -54.001 -18.999 -66.001
c-10.667 -10 -22 -16.667 -34 -20s-28 -5 -48 -5c-24.667 0 -43.334 5.33301 -56.001 16s-19 25.334 -19 44.001c0 39.333 24.333 59 73 59h103v-28zM445.001 603.998l-132 169h-104l-132 -169h101l83 91l83 -91h101z" />
    <glyph glyph-name="atilde" unicode="&#xe3;" horiz-adv-x="534" 
d="M467 0v342.999c0 122.667 -74 184 -222 184c-44.667 0 -81 -5.16699 -109 -15.5s-54.333 -29.166 -79 -56.499l83 -81c14 16 28.167 27.167 42.5 33.5s33.5 9.5 57.5 9.5c34.667 0 59.5 -6.5 74.5 -19.5s22.5 -33.833 22.5 -62.5v-26h-123
c-58 0 -102.167 -14.167 -132.5 -42.5s-45.5 -64.5 -45.5 -108.5c0 -48 14.333 -87 43 -117c30.667 -30.667 75 -46 133 -46c29.333 0 53.5 3.83301 72.5 11.5s37.5 20.5 55.5 38.5v-45h127zM337 191.999c0 -32 -6.33203 -54.001 -18.999 -66.001
c-10.667 -10 -22 -16.667 -34 -20s-28 -5 -48 -5c-24.667 0 -43.334 5.33301 -56.001 16s-19 25.334 -19 44.001c0 39.333 24.333 59 73 59h103v-28zM441.001 673.998l-58.001 57c-12 -12 -22.333 -19.833 -31 -23.5s-18 -5.5 -28 -5.5c-16.667 0 -35 6 -55 18
c-14 8.66699 -26.667 14.667 -38 18s-24.333 5 -39 5c-19.333 0 -37.333 -4.33301 -54 -13s-36 -24 -58 -46l56 -57c12 12 22.333 19.833 31 23.5s18 5.5 28 5.5c16.667 0 35.334 -6 56.001 -18c14.667 -8.66699 27.667 -14.667 39 -18s24 -5 38 -5
c19.333 0 37.5 4.33301 54.5 13s36.5 24 58.5 46z" />
    <glyph glyph-name="adieresis" unicode="&#xe4;" horiz-adv-x="534" 
d="M467 0v342.999c0 122.667 -74 184 -222 184c-44.667 0 -81 -5.16699 -109 -15.5s-54.333 -29.166 -79 -56.499l83 -81c14 16 28.167 27.167 42.5 33.5s33.5 9.5 57.5 9.5c34.667 0 59.5 -6.5 74.5 -19.5s22.5 -33.833 22.5 -62.5v-26h-123
c-58 0 -102.167 -14.167 -132.5 -42.5s-45.5 -64.5 -45.5 -108.5c0 -48 14.333 -87 43 -117c30.667 -30.667 75 -46 133 -46c29.333 0 53.5 3.83301 72.5 11.5s37.5 20.5 55.5 38.5v-45h127zM337 191.999c0 -32 -6.33203 -54.001 -18.999 -66.001
c-10.667 -10 -22 -16.667 -34 -20s-28 -5 -48 -5c-24.667 0 -43.334 5.33301 -56.001 16s-19 25.334 -19 44.001c0 39.333 24.333 59 73 59h103v-28zM427.001 605.998v125h-111v-125h111zM206.001 605.998v125h-111v-125h111z" />
    <glyph glyph-name="aring" unicode="&#xe5;" horiz-adv-x="534" 
d="M467 0v342.999c0 122.667 -74 184 -222 184c-44.667 0 -81 -5.16699 -109 -15.5s-54.333 -29.166 -79 -56.499l83 -81c14 16 28.167 27.167 42.5 33.5s33.5 9.5 57.5 9.5c34.667 0 59.5 -6.5 74.5 -19.5s22.5 -33.833 22.5 -62.5v-26h-123
c-58 0 -102.167 -14.167 -132.5 -42.5s-45.5 -64.5 -45.5 -108.5c0 -48 14.333 -87 43 -117c30.667 -30.667 75 -46 133 -46c29.333 0 53.5 3.83301 72.5 11.5s37.5 20.5 55.5 38.5v-45h127zM337 191.999c0 -32 -6.33203 -54.001 -18.999 -66.001
c-10.667 -10 -22 -16.667 -34 -20s-28 -5 -48 -5c-24.667 0 -43.334 5.33301 -56.001 16s-19 25.334 -19 44.001c0 39.333 24.333 59 73 59h103v-28zM392.001 714.998c0 36.667 -12.833 67.667 -38.5 93s-56.5 38 -92.5 38s-66.833 -12.833 -92.5 -38.5
s-38.5 -56.5 -38.5 -92.5s12.833 -66.833 38.5 -92.5s56.5 -38.5 92.5 -38.5s66.833 12.833 92.5 38.5s38.5 56.5 38.5 92.5zM319.001 714.998c0 -16 -5.66699 -29.833 -17 -41.5s-25 -17.5 -41 -17.5s-29.667 5.83301 -41 17.5s-17 25.5 -17 41.5s5.66699 29.667 17 41
s25 17 41 17s29.667 -5.66699 41 -17s17 -25 17 -41z" />
    <glyph glyph-name="ae" unicode="&#xe6;" horiz-adv-x="838" 
d="M791 220l-0.000976562 58c0 73.333 -20.167 133.166 -60.5 179.499s-95.833 69.5 -166.5 69.5c-61.333 0 -110.666 -19 -147.999 -57c-34.667 38 -91.667 57 -171 57c-44.667 0 -81 -5.16699 -109 -15.5s-54.333 -29.166 -79 -56.499l83 -81
c14 16 28.167 27.167 42.5 33.5s33.5 9.5 57.5 9.5c34.667 0 59.5 -6.5 74.5 -19.5s22.5 -33.833 22.5 -62.5v-26h-123c-58 0 -102.167 -14.167 -132.5 -42.5s-45.5 -64.5 -45.5 -108.5c0 -48 14.333 -87 43 -117c31.333 -31.333 75.666 -47 132.999 -47
c40 0 73.833 4.83301 101.5 14.5s54.834 29.167 81.501 58.5c22 -25.333 48.667 -43.833 80 -55.5s65.666 -17.5 102.999 -17.5c44.667 0 81.667 6.5 111 19.5s58.333 33.833 87 62.5l-79 77c-17.333 -17.333 -34.5 -29.833 -51.5 -37.5s-39.167 -11.5 -66.5 -11.5
c-35.333 0 -63.166 10.667 -83.499 32s-30.5 49.333 -30.5 84h326zM662.999 309h-198.002c0.666992 11.333 1.83398 21.166 3.50098 29.499s4.5 17.166 8.5 26.499c7.33301 16.667 18.5 29.834 33.5 39.501s32.833 14.5 53.5 14.5c21.333 0 39.333 -4.83301 54 -14.5
s25.667 -22.834 33 -39.501c4 -9.33301 6.83301 -18.166 8.5 -26.499s2.83398 -18.166 3.50098 -29.499zM336.997 192c0 -32 -6.33203 -54.001 -18.999 -66.001c-10.667 -10 -22 -16.667 -34 -20s-28 -5 -48 -5c-24.667 0 -43.334 5.33301 -56.001 16s-19 25.334 -19 44.001
c0 39.333 24.333 59 73 59h103v-28z" />
    <glyph glyph-name="ccedilla" unicode="&#xe7;" horiz-adv-x="482" 
d="M452 65l-87.999 87c-14 -14.667 -27.333 -25.167 -40 -31.5s-27.334 -9.5 -44.001 -9.5c-30.667 0 -55.334 11.333 -74.001 34c-19.333 24 -29 62.667 -29 116c0 52.667 9.66699 91 29 115c18.667 22.667 43.334 34 74.001 34c16.667 0 31.334 -3.16699 44.001 -9.5
s26 -16.833 40 -31.5l88 88c-22.667 24 -48 41.667 -76 53s-60 17 -96 17c-28.667 0 -56.5 -4.33301 -83.5 -13s-51.833 -23 -74.5 -43s-40.834 -47.5 -54.501 -82.5s-20.5 -77.5 -20.5 -127.5s6.83301 -92.5 20.5 -127.5s31.834 -62.667 54.501 -83
s47.5 -34.833 74.5 -43.5s54.833 -13 83.5 -13c69.333 0 126.666 23.667 171.999 71zM325.001 -60h-96l-69 -146h121z" />
    <glyph glyph-name="egrave" unicode="&#xe8;" horiz-adv-x="548" 
d="M501 220l0.000976562 58.001c0 73.333 -20.167 133.166 -60.5 179.499s-95.833 69.5 -166.5 69.5c-68.667 0 -123.667 -23.333 -165 -70s-62 -112 -62 -196c0 -50.667 6.5 -93.5 19.5 -128.5s30.667 -62.5 53 -82.5s47.666 -34.333 75.999 -43s59.166 -13 92.499 -13
c44.667 0 81.667 6.5 111 19.5s58.333 33.833 87 62.5l-79 77c-17.333 -17.333 -34.5 -29.833 -51.5 -37.5s-39.167 -11.5 -66.5 -11.5c-35.333 0 -63.166 10.667 -83.499 32s-30.5 49.333 -30.5 84h326zM373.001 309.001h-198.002
c0.666992 11.333 1.83398 21.166 3.50098 29.499s4.5 17.166 8.5 26.499c7.33301 16.667 18.5 29.834 33.5 39.501s32.833 14.5 53.5 14.5c21.333 0 39.333 -4.83301 54 -14.5s25.667 -22.834 33 -39.501c4 -9.33301 6.83301 -18.166 8.5 -26.499
s2.83398 -18.166 3.50098 -29.499zM331.999 604.001l-64 170h-137l114 -170h87z" />
    <glyph glyph-name="eacute" unicode="&#xe9;" horiz-adv-x="548" 
d="M501 220l0.000976562 58.001c0 73.333 -20.167 133.166 -60.5 179.499s-95.833 69.5 -166.5 69.5c-68.667 0 -123.667 -23.333 -165 -70s-62 -112 -62 -196c0 -50.667 6.5 -93.5 19.5 -128.5s30.667 -62.5 53 -82.5s47.666 -34.333 75.999 -43s59.166 -13 92.499 -13
c44.667 0 81.667 6.5 111 19.5s58.333 33.833 87 62.5l-79 77c-17.333 -17.333 -34.5 -29.833 -51.5 -37.5s-39.167 -11.5 -66.5 -11.5c-35.333 0 -63.166 10.667 -83.499 32s-30.5 49.333 -30.5 84h326zM373.001 309.001h-198.002
c0.666992 11.333 1.83398 21.166 3.50098 29.499s4.5 17.166 8.5 26.499c7.33301 16.667 18.5 29.834 33.5 39.501s32.833 14.5 53.5 14.5c21.333 0 39.333 -4.83301 54 -14.5s25.667 -22.834 33 -39.501c4 -9.33301 6.83301 -18.166 8.5 -26.499
s2.83398 -18.166 3.50098 -29.499zM422.999 774.001h-137l-64 -170h87z" />
    <glyph glyph-name="ecircumflex" unicode="&#xea;" horiz-adv-x="548" 
d="M501 220l0.000976562 58.001c0 73.333 -20.167 133.166 -60.5 179.499s-95.833 69.5 -166.5 69.5c-68.667 0 -123.667 -23.333 -165 -70s-62 -112 -62 -196c0 -50.667 6.5 -93.5 19.5 -128.5s30.667 -62.5 53 -82.5s47.666 -34.333 75.999 -43s59.166 -13 92.499 -13
c44.667 0 81.667 6.5 111 19.5s58.333 33.833 87 62.5l-79 77c-17.333 -17.333 -34.5 -29.833 -51.5 -37.5s-39.167 -11.5 -66.5 -11.5c-35.333 0 -63.166 10.667 -83.499 32s-30.5 49.333 -30.5 84h326zM373.001 309.001h-198.002
c0.666992 11.333 1.83398 21.166 3.50098 29.499s4.5 17.166 8.5 26.499c7.33301 16.667 18.5 29.834 33.5 39.501s32.833 14.5 53.5 14.5c21.333 0 39.333 -4.83301 54 -14.5s25.667 -22.834 33 -39.501c4 -9.33301 6.83301 -18.166 8.5 -26.499
s2.83398 -18.166 3.50098 -29.499zM460.999 604.001l-132 169h-104l-132 -169h101l83 91l83 -91h101z" />
    <glyph glyph-name="edieresis" unicode="&#xeb;" horiz-adv-x="548" 
d="M501 220l0.000976562 58.001c0 73.333 -20.167 133.166 -60.5 179.499s-95.833 69.5 -166.5 69.5c-68.667 0 -123.667 -23.333 -165 -70s-62 -112 -62 -196c0 -50.667 6.5 -93.5 19.5 -128.5s30.667 -62.5 53 -82.5s47.666 -34.333 75.999 -43s59.166 -13 92.499 -13
c44.667 0 81.667 6.5 111 19.5s58.333 33.833 87 62.5l-79 77c-17.333 -17.333 -34.5 -29.833 -51.5 -37.5s-39.167 -11.5 -66.5 -11.5c-35.333 0 -63.166 10.667 -83.499 32s-30.5 49.333 -30.5 84h326zM373.001 309.001h-198.002
c0.666992 11.333 1.83398 21.166 3.50098 29.499s4.5 17.166 8.5 26.499c7.33301 16.667 18.5 29.834 33.5 39.501s32.833 14.5 53.5 14.5c21.333 0 39.333 -4.83301 54 -14.5s25.667 -22.834 33 -39.501c4 -9.33301 6.83301 -18.166 8.5 -26.499
s2.83398 -18.166 3.50098 -29.499zM442.999 606.001v125h-111v-125h111zM221.999 606.001v125h-111v-125h111z" />
    <glyph glyph-name="igrave" unicode="&#xec;" horiz-adv-x="275" 
d="M203 0v521h-130v-521h130zM220 604l-64 170h-137l114 -170h87z" />
    <glyph glyph-name="iacute" unicode="&#xed;" horiz-adv-x="275" 
d="M203 0v521h-130v-521h130zM260 774h-137l-64 -170h87z" />
    <glyph glyph-name="icircumflex" unicode="&#xee;" horiz-adv-x="275" 
d="M203 0v521h-130v-521h130zM324 604l-132 169h-104l-132 -169h101l83 91l83 -91h101z" />
    <glyph glyph-name="idieresis" unicode="&#xef;" horiz-adv-x="275" 
d="M203 0v521h-130v-521h130zM303 606v125h-111v-125h111zM82 606v125h-111v-125h111z" />
    <glyph glyph-name="eth" unicode="&#xf0;" 
d="M486 254c0 25.333 -1.00098 47.5 -3.00098 66.5s-5.16699 37 -9.5 54s-10.5 34.667 -18.5 53s-18.333 39.833 -31 64.5l-40 77h46v91h-92l-31 60h-139l31 -60h-68v-91h114l34 -62c-0.666992 0 -3.66699 0.333008 -9 1h-9c-19.333 0 -38.666 -2.66699 -57.999 -8
c-38 -10 -67.667 -26.333 -89 -49c-22 -22.667 -37.167 -49.167 -45.5 -79.5s-12.5 -69.5 -12.5 -117.5c0 -48.667 4.16699 -88.167 12.5 -118.5s23.5 -56.833 45.5 -79.5c18 -18.667 40 -33.667 66 -45s56.333 -17 91 -17s65 5.66699 91 17s48 26.333 66 45
c22 22.667 37.167 49.167 45.5 79.5s12.5 69.833 12.5 118.5zM355.999 254c0 -30.667 -1.66699 -55.499 -5 -74.499s-10.666 -34.5 -21.999 -46.5c-14.667 -14.667 -34 -22 -58 -22c-23.333 0 -42.333 7.33301 -57 22c-11.333 12 -18.833 27.5 -22.5 46.5
s-5.5 43.833 -5.5 74.5c0 30 1.83301 54.5 5.5 73.5s11.167 34.5 22.5 46.5c14.667 14.667 33.667 22 57 22c24 0 43.333 -7.33301 58 -22c11.333 -12 18.666 -27.333 21.999 -46s5 -43.334 5 -74.001z" />
    <glyph glyph-name="ntilde" unicode="&#xf1;" horiz-adv-x="573" 
d="M506 0l0.00195312 332.999c0 30.667 -3.83301 58 -11.5 82s-21.5 46 -41.5 66c-30.667 30.667 -71.667 46 -123 46c-24.667 0 -48.334 -4.66699 -71.001 -14s-42.334 -22.666 -59.001 -39.999v48h-127v-521h130v315c0 32.667 8.5 56.667 25.5 72s37.5 23 61.5 23
c23.333 0 43.5 -7.66699 60.5 -23s25.5 -39.333 25.5 -72v-315h130zM470.002 673.999l-58.001 57c-12 -12 -22.333 -19.833 -31 -23.5s-18 -5.5 -28 -5.5c-16.667 0 -35 6 -55 18c-14 8.66699 -26.667 14.667 -38 18s-24.333 5 -39 5c-19.333 0 -37.333 -4.33301 -54 -13
s-36 -24 -58 -46l56 -57c12 12 22.333 19.833 31 23.5s18 5.5 28 5.5c16.667 0 35.334 -6 56.001 -18c14.667 -8.66699 27.667 -14.667 39 -18s24 -5 38 -5c19.333 0 37.5 4.33301 54.5 13s36.5 24 58.5 46z" />
    <glyph glyph-name="ograve" unicode="&#xf2;" 
d="M492 261c0 49.333 -4.16699 89.5 -12.5 120.5s-23.833 58.167 -46.5 81.5c-18 18.667 -40.5 34 -67.5 46s-58.5 18 -94.5 18s-67.333 -5.83301 -94 -17.5s-49 -27.167 -67 -46.5c-22.667 -23.333 -38.167 -50.5 -46.5 -81.5s-12.5 -71.167 -12.5 -120.5
c0 -50 4.16699 -90.5 12.5 -121.5s23.833 -58.167 46.5 -81.5c18 -18.667 40.333 -34 67 -46s58 -18 94 -18s67.5 6 94.5 18s49.5 27.333 67.5 46c22.667 23.333 38.167 50.5 46.5 81.5s12.5 71.5 12.5 121.5zM362 261c0 -32 -1.83301 -58 -5.5 -78
s-11.834 -36.333 -24.501 -49c-15.333 -15.333 -35.666 -23 -60.999 -23c-24.667 0 -44.667 7.66699 -60 23c-12 12.667 -20 29 -24 49s-6 46 -6 78s2 58 6 78s12 36 24 48c15.333 15.333 35.333 23 60 23c25.333 0 45.666 -7.66699 60.999 -23
c12.667 -12 20.834 -28 24.501 -48s5.5 -46 5.5 -78zM323 604l-64 170h-137l114 -170h87z" />
    <glyph glyph-name="oacute" unicode="&#xf3;" 
d="M492 261c0 49.333 -4.16699 89.5 -12.5 120.5s-23.833 58.167 -46.5 81.5c-18 18.667 -40.5 34 -67.5 46s-58.5 18 -94.5 18s-67.333 -5.83301 -94 -17.5s-49 -27.167 -67 -46.5c-22.667 -23.333 -38.167 -50.5 -46.5 -81.5s-12.5 -71.167 -12.5 -120.5
c0 -50 4.16699 -90.5 12.5 -121.5s23.833 -58.167 46.5 -81.5c18 -18.667 40.333 -34 67 -46s58 -18 94 -18s67.5 6 94.5 18s49.5 27.333 67.5 46c22.667 23.333 38.167 50.5 46.5 81.5s12.5 71.5 12.5 121.5zM362 261c0 -32 -1.83301 -58 -5.5 -78
s-11.834 -36.333 -24.501 -49c-15.333 -15.333 -35.666 -23 -60.999 -23c-24.667 0 -44.667 7.66699 -60 23c-12 12.667 -20 29 -24 49s-6 46 -6 78s2 58 6 78s12 36 24 48c15.333 15.333 35.333 23 60 23c25.333 0 45.666 -7.66699 60.999 -23
c12.667 -12 20.834 -28 24.501 -48s5.5 -46 5.5 -78zM418 774h-137l-64 -170h87z" />
    <glyph glyph-name="ocircumflex" unicode="&#xf4;" 
d="M492 261c0 49.333 -4.16699 89.5 -12.5 120.5s-23.833 58.167 -46.5 81.5c-18 18.667 -40.5 34 -67.5 46s-58.5 18 -94.5 18s-67.333 -5.83301 -94 -17.5s-49 -27.167 -67 -46.5c-22.667 -23.333 -38.167 -50.5 -46.5 -81.5s-12.5 -71.167 -12.5 -120.5
c0 -50 4.16699 -90.5 12.5 -121.5s23.833 -58.167 46.5 -81.5c18 -18.667 40.333 -34 67 -46s58 -18 94 -18s67.5 6 94.5 18s49.5 27.333 67.5 46c22.667 23.333 38.167 50.5 46.5 81.5s12.5 71.5 12.5 121.5zM362 261c0 -32 -1.83301 -58 -5.5 -78
s-11.834 -36.333 -24.501 -49c-15.333 -15.333 -35.666 -23 -60.999 -23c-24.667 0 -44.667 7.66699 -60 23c-12 12.667 -20 29 -24 49s-6 46 -6 78s2 58 6 78s12 36 24 48c15.333 15.333 35.333 23 60 23c25.333 0 45.666 -7.66699 60.999 -23
c12.667 -12 20.834 -28 24.501 -48s5.5 -46 5.5 -78zM456 604l-132 169h-104l-132 -169h101l83 91l83 -91h101z" />
    <glyph glyph-name="otilde" unicode="&#xf5;" 
d="M492 261c0 49.333 -4.16699 89.5 -12.5 120.5s-23.833 58.167 -46.5 81.5c-18 18.667 -40.5 34 -67.5 46s-58.5 18 -94.5 18s-67.333 -5.83301 -94 -17.5s-49 -27.167 -67 -46.5c-22.667 -23.333 -38.167 -50.5 -46.5 -81.5s-12.5 -71.167 -12.5 -120.5
c0 -50 4.16699 -90.5 12.5 -121.5s23.833 -58.167 46.5 -81.5c18 -18.667 40.333 -34 67 -46s58 -18 94 -18s67.5 6 94.5 18s49.5 27.333 67.5 46c22.667 23.333 38.167 50.5 46.5 81.5s12.5 71.5 12.5 121.5zM362 261c0 -32 -1.83301 -58 -5.5 -78
s-11.834 -36.333 -24.501 -49c-15.333 -15.333 -35.666 -23 -60.999 -23c-24.667 0 -44.667 7.66699 -60 23c-12 12.667 -20 29 -24 49s-6 46 -6 78s2 58 6 78s12 36 24 48c15.333 15.333 35.333 23 60 23c25.333 0 45.666 -7.66699 60.999 -23
c12.667 -12 20.834 -28 24.501 -48s5.5 -46 5.5 -78zM452 674l-58.001 57c-12 -12 -22.333 -19.833 -31 -23.5s-18 -5.5 -28 -5.5c-16.667 0 -35 6 -55 18c-14 8.66699 -26.667 14.667 -38 18s-24.333 5 -39 5c-19.333 0 -37.333 -4.33301 -54 -13s-36 -24 -58 -46l56 -57
c12 12 22.333 19.833 31 23.5s18 5.5 28 5.5c16.667 0 35.334 -6 56.001 -18c14.667 -8.66699 27.667 -14.667 39 -18s24 -5 38 -5c19.333 0 37.5 4.33301 54.5 13s36.5 24 58.5 46z" />
    <glyph glyph-name="odieresis" unicode="&#xf6;" 
d="M492 261c0 49.333 -4.16699 89.5 -12.5 120.5s-23.833 58.167 -46.5 81.5c-18 18.667 -40.5 34 -67.5 46s-58.5 18 -94.5 18s-67.333 -5.83301 -94 -17.5s-49 -27.167 -67 -46.5c-22.667 -23.333 -38.167 -50.5 -46.5 -81.5s-12.5 -71.167 -12.5 -120.5
c0 -50 4.16699 -90.5 12.5 -121.5s23.833 -58.167 46.5 -81.5c18 -18.667 40.333 -34 67 -46s58 -18 94 -18s67.5 6 94.5 18s49.5 27.333 67.5 46c22.667 23.333 38.167 50.5 46.5 81.5s12.5 71.5 12.5 121.5zM362 261c0 -32 -1.83301 -58 -5.5 -78
s-11.834 -36.333 -24.501 -49c-15.333 -15.333 -35.666 -23 -60.999 -23c-24.667 0 -44.667 7.66699 -60 23c-12 12.667 -20 29 -24 49s-6 46 -6 78s2 58 6 78s12 36 24 48c15.333 15.333 35.333 23 60 23c25.333 0 45.666 -7.66699 60.999 -23
c12.667 -12 20.834 -28 24.501 -48s5.5 -46 5.5 -78zM438 606v125h-111v-125h111zM217 606v125h-111v-125h111z" />
    <glyph glyph-name="divide" unicode="&#xf7;" 
d="M337 423v130h-130v-130h130zM497 225v121h-451v-121h451zM337 18v130h-130v-130h130z" />
    <glyph glyph-name="oslash" unicode="&#xf8;" 
d="M492 261c0 49.333 -4.16797 89.5 -12.501 120.5s-23.833 58.167 -46.5 81.5l-2 1l60 101h-80l-35 -60c-29.333 14.667 -64.333 22 -105 22c-36 0 -67.333 -5.83301 -94 -17.5s-49 -27.167 -67 -46.5c-22.667 -23.333 -38.167 -50.5 -46.5 -81.5
s-12.5 -71.167 -12.5 -120.5c0 -50.667 4.16699 -91.5 12.5 -122.5s23.833 -57.833 46.5 -80.5l1 -1l-59 -101h79l36 61c30.667 -15.333 65.334 -23 104.001 -23c36 0 67.5 6 94.5 18s49.5 27.333 67.5 46c22.667 23.333 38.167 50.5 46.5 81.5s12.5 71.5 12.5 121.5z
M319.999 397l-132 -222.001c-4.66699 18.667 -7 47.334 -7 86.001c0 32 2 58 6 78s12 36 24 48c15.333 15.333 35.333 23 60 23c18.667 0 35 -4.33301 49 -13zM361.999 260.999c0 -32 -1.83301 -58.001 -5.5 -78.001s-11.834 -36.333 -24.501 -49
c-15.333 -15.333 -35.666 -23 -60.999 -23c-18 0 -34 4.33301 -48 13l131 222c5.33301 -21.333 8 -49.666 8 -84.999z" />
    <glyph glyph-name="ugrave" unicode="&#xf9;" horiz-adv-x="573" 
d="M500 0l-0.00195312 521.001h-130v-315c0 -32.667 -8.5 -56.667 -25.5 -72s-37.5 -23 -61.5 -23c-23.333 0 -43.5 7.66699 -60.5 23s-25.5 39.333 -25.5 72v315h-130v-333c0 -30.667 3.83301 -58 11.5 -82s21.5 -46 41.5 -66c30.667 -30.667 71.667 -46 123 -46
c24.667 0 48.334 4.66699 71.001 14s42.334 22.666 59.001 39.999v-48h127zM337.998 604.001l-64 170h-137l114 -170h87z" />
    <glyph glyph-name="uacute" unicode="&#xfa;" horiz-adv-x="573" 
d="M500 0l-0.00195312 521.001h-130v-315c0 -32.667 -8.5 -56.667 -25.5 -72s-37.5 -23 -61.5 -23c-23.333 0 -43.5 7.66699 -60.5 23s-25.5 39.333 -25.5 72v315h-130v-333c0 -30.667 3.83301 -58 11.5 -82s21.5 -46 41.5 -66c30.667 -30.667 71.667 -46 123 -46
c24.667 0 48.334 4.66699 71.001 14s42.334 22.666 59.001 39.999v-48h127zM428.998 774.001h-137l-64 -170h87z" />
    <glyph glyph-name="ucircumflex" unicode="&#xfb;" horiz-adv-x="573" 
d="M500 0l-0.00195312 521.001h-130v-315c0 -32.667 -8.5 -56.667 -25.5 -72s-37.5 -23 -61.5 -23c-23.333 0 -43.5 7.66699 -60.5 23s-25.5 39.333 -25.5 72v315h-130v-333c0 -30.667 3.83301 -58 11.5 -82s21.5 -46 41.5 -66c30.667 -30.667 71.667 -46 123 -46
c24.667 0 48.334 4.66699 71.001 14s42.334 22.666 59.001 39.999v-48h127zM466.998 604.001l-132 169h-104l-132 -169h101l83 91l83 -91h101z" />
    <glyph glyph-name="udieresis" unicode="&#xfc;" horiz-adv-x="573" 
d="M500 0l-0.00195312 521.001h-130v-315c0 -32.667 -8.5 -56.667 -25.5 -72s-37.5 -23 -61.5 -23c-23.333 0 -43.5 7.66699 -60.5 23s-25.5 39.333 -25.5 72v315h-130v-333c0 -30.667 3.83301 -58 11.5 -82s21.5 -46 41.5 -66c30.667 -30.667 71.667 -46 123 -46
c24.667 0 48.334 4.66699 71.001 14s42.334 22.666 59.001 39.999v-48h127zM448.998 606.001v125h-111v-125h111zM227.998 606.001v125h-111v-125h111z" />
    <glyph glyph-name="yacute" unicode="&#xfd;" horiz-adv-x="494" 
d="M490 521h-137l-104 -322l-108 322h-137l178 -484l-22 -64c-6.66699 -18.667 -14.5 -31.167 -23.5 -37.5s-22.833 -9.5 -41.5 -9.5h-30v-117h51c22.667 0 43.5 3 62.5 9s35.5 16.333 49.5 31c14.667 14.667 27.667 37 39 67zM390 774h-137l-64 -170h87z" />
    <glyph glyph-name="thorn" unicode="&#xfe;" horiz-adv-x="562" 
d="M509 261c0 53.333 -2.99902 97.501 -8.99902 132.501s-20.667 63.833 -44 86.5c-14.667 14.667 -33.167 26.167 -55.5 34.5s-46.166 12.5 -71.499 12.5c-26.667 0 -50.167 -4 -70.5 -12s-38.833 -21.333 -55.5 -40v237h-130v-903h130v237
c16.667 -18.667 35.167 -32 55.5 -40s43.833 -12 70.5 -12c25.333 0 49.166 4.16699 71.499 12.5s40.833 19.833 55.5 34.5c23.333 23.333 38.666 56.666 45.999 99.999c3.33301 17.333 5.33301 35.333 6 54s1 40.667 1 66zM379.001 261.001c0 -24 -1 -44.667 -3 -62
s-6 -32.666 -12 -45.999s-15 -23.666 -27 -30.999s-27.333 -11 -46 -11s-34 3.66699 -46 11s-21 17.666 -27 30.999s-10 28.666 -12 45.999s-3 38 -3 62s1 44.667 3 62s6 32.5 12 45.5s15 23.167 27 30.5s27.333 11 46 11s34 -3.66699 46 -11s21 -17.5 27 -30.5
s10 -28.167 12 -45.5s3 -38 3 -62z" />
    <glyph glyph-name="ydieresis" unicode="&#xff;" horiz-adv-x="494" 
d="M490 521h-137l-104 -322l-108 322h-137l178 -484l-22 -64c-6.66699 -18.667 -14.5 -31.167 -23.5 -37.5s-22.833 -9.5 -41.5 -9.5h-30v-117h51c22.667 0 43.5 3 62.5 9s35.5 16.333 49.5 31c14.667 14.667 27.667 37 39 67zM410 606v125h-111v-125h111zM189 606v125h-111
v-125h111z" />
    <glyph glyph-name="dotlessi" unicode="&#x131;" horiz-adv-x="275" 
d="M203 0v521h-130v-521h130z" />
    <glyph glyph-name="Lslash" unicode="&#x141;" horiz-adv-x="593" 
d="M563 0v124h-323v208l128 81v115l-128 -81v265h-139v-352l-64 -41v-116l64 41v-244h462z" />
    <glyph glyph-name="Zcaron" unicode="&#x17d;" horiz-adv-x="548" 
d="M508 0v124h-305l305 478v110h-455v-124h291l-304 -476v-112h468zM461 950h-101l-83 -90l-83 90h-101l132 -169h104z" />
    <glyph glyph-name="zcaron" unicode="&#x17e;" horiz-adv-x="478" 
d="M434 0v117h-234l234 305v99h-384v-117h218l-231 -305v-99h397zM426 773h-101l-83 -90l-83 90h-101l132 -169h104z" />
    <glyph glyph-name="caron" unicode="&#x2c7;" horiz-adv-x="500" 
d="M434 773h-101l-83 -90l-83 90h-101l132 -169h104z" />
    <glyph glyph-name="breve" unicode="&#x2d8;" horiz-adv-x="500" 
d="M414 742h-86.998c-2.66699 -20 -10.834 -35 -24.501 -45s-30.834 -15 -51.501 -15s-38 5 -52 15s-22.333 25 -25 45h-88c2.66699 -51.333 19.167 -89.333 49.5 -114s68.833 -37 115.5 -37c46 0 84 12.333 114 37s46.333 62.667 49 114z" />
    <glyph glyph-name="dotaccent" unicode="&#x2d9;" horiz-adv-x="500" 
d="M317 608v106h-134v-106h134z" />
    <glyph glyph-name="ring" unicode="&#x2da;" horiz-adv-x="500" 
d="M381 715c0 36.667 -12.833 67.667 -38.5 93s-56.5 38 -92.5 38s-66.833 -12.833 -92.5 -38.5s-38.5 -56.5 -38.5 -92.5s12.833 -66.833 38.5 -92.5s56.5 -38.5 92.5 -38.5s66.833 12.833 92.5 38.5s38.5 56.5 38.5 92.5zM308 715c0 -16 -5.66699 -29.833 -17 -41.5
s-25 -17.5 -41 -17.5s-29.667 5.83301 -41 17.5s-17 25.5 -17 41.5s5.66699 29.667 17 41s25 17 41 17s29.667 -5.66699 41 -17s17 -25 17 -41z" />
    <glyph glyph-name="ogonek" unicode="&#x2db;" horiz-adv-x="500" 
d="M334 -206l-68 146h-97l44 -146h121z" />
    <glyph glyph-name="hungarumlaut" unicode="&#x2dd;" horiz-adv-x="500" 
d="M465 774h-138l-63 -170h86zM258 774h-138l-63 -170h87z" />
    <glyph glyph-name="Delta" unicode="&#x394;" horiz-adv-x="634" 
d="M631 0l-260 712h-108l-260 -712h628zM450 117h-264l134 385z" />
    <glyph glyph-name="Omega" unicode="&#x3a9;" horiz-adv-x="644" 
d="M585 0l-0.000976562 123.002h-59c15.333 16.667 27.333 35 36 55c9.33301 22.667 15.5 48.334 18.5 77.001s4.5 62.334 4.5 101.001c0 78.667 -3.83301 137.834 -11.5 177.501s-27.5 75.167 -59.5 106.5c-26 26 -54.667 45.5 -86 58.5s-66.666 19.5 -105.999 19.5
s-74.833 -6.5 -106.5 -19.5s-60.5 -32.5 -86.5 -58.5c-30.667 -30.667 -50 -66.167 -58 -106.5s-12 -99.5 -12 -177.5c0 -38.667 1.5 -72.334 4.5 -101.001s9.16699 -54.334 18.5 -77.001c8.66699 -20 20.667 -38.333 36 -55h-59v-123h219v109
c-23.333 10.667 -41.333 25.334 -54 44.001c-9.33301 14 -16 35.333 -20 64s-6 72.667 -6 132c0 67.333 2.33301 114.666 7 141.999s13.667 48.666 27 63.999c10.667 12 23.667 21.5 39 28.5s32.333 10.5 51 10.5s35.667 -3.5 51 -10.5s28 -16.5 38 -28.5
c13.333 -15.333 22.5 -36.833 27.5 -64.5s7.5 -74.834 7.5 -141.501c0 -59.333 -2 -103.333 -6 -132s-10.667 -50 -20 -64c-12.667 -18.667 -30.667 -33.334 -54 -44.001v-109h219z" />
    <glyph glyph-name="pi" unicode="&#x3c0;" horiz-adv-x="592" 
d="M515 0v521h-439v-521h130v399h180v-399h129z" />
    <glyph glyph-name="fraction" unicode="&#x2044;" horiz-adv-x="208" 
d="M323 712h-101l-337 -712h101z" />
    <glyph glyph-name="partialdiff" unicode="&#x2202;" horiz-adv-x="555" 
d="M482 254l0.000976562 227c0 71.333 -19.667 128.666 -59 171.999s-96 65 -170 65c-41.333 0 -76.666 -5 -105.999 -15s-57 -27.667 -83 -53l81 -82c14.667 14 29.834 24.167 45.501 30.5s34.5 9.5 56.5 9.5c19.333 0 35.666 -3.16699 48.999 -9.5
s24.166 -14.5 32.499 -24.5s14.166 -20.5 17.499 -31.5s5 -21.5 5 -31.5v-27c-11.333 10.667 -24.333 18.167 -39 22.5s-30.667 6.5 -48 6.5c-34 0 -63.333 -5.5 -88 -16.5s-45.334 -25.5 -62.001 -43.5c-22 -23.333 -37.167 -50.166 -45.5 -80.499
s-12.5 -69.833 -12.5 -118.5c0 -48 4.16699 -87.167 12.5 -117.5s23.5 -57.166 45.5 -80.499c17.333 -18.667 38.833 -33.667 64.5 -45s55.834 -17 90.501 -17s65 5.83301 91 17.5s47.667 26.5 65 44.5c22 23.333 37 50.166 45 80.499s12 69.5 12 117.5zM352.001 254
c0 -30 -1.66504 -54.667 -4.99805 -74s-10.666 -35 -21.999 -47c-14.667 -14.667 -33.334 -22 -56.001 -22s-41.334 7.33301 -56.001 22c-10.667 12 -17.834 27.667 -21.501 47s-5.5 44 -5.5 74s1.66699 54.5 5 73.5s10.666 34.5 21.999 46.5
c14.667 14.667 33.334 22 56.001 22s41.334 -7.33301 56.001 -22c11.333 -12 18.666 -27.5 21.999 -46.5s5 -43.5 5 -73.5z" />
    <glyph glyph-name="product" unicode="&#x220f;" horiz-adv-x="685" 
d="M602 -191v951h-519v-951h139v828h241v-828h139z" />
    <glyph glyph-name="summation" unicode="&#x2211;" horiz-adv-x="552" 
d="M515 -191v124h-315l146 295v129l-141 279h306v124h-468v-110l186 -355l-189 -376v-110h475z" />
    <glyph glyph-name="periodcentered" unicode="&#x2219;" horiz-adv-x="285" 
d="M217 212v148h-149v-148h149z" />
    <glyph glyph-name="radical" unicode="&#x221a;" horiz-adv-x="596" 
d="M566 588v124h-195l-143 -464l-84 273h-141l172 -521h105l194 588h92z" />
    <glyph glyph-name="infinity" unicode="&#x221e;" horiz-adv-x="851" 
d="M796 284c0 54.667 -16.668 100 -50.001 136s-80 54 -140 54c-34 0 -66 -8.16699 -96 -24.5s-58.333 -39.833 -85 -70.5c-26.667 30.667 -55 54.167 -85 70.5s-61.667 24.5 -95 24.5c-60 0 -106.667 -18 -140 -54s-50 -81.333 -50 -136s16.667 -99.667 50 -135
s80 -53 140 -53c34 0 65.833 8 95.5 24s57.834 39.333 84.501 70c26.667 -30.667 55 -54 85 -70s62 -24 96 -24c60 0 106.667 17.667 140 53s50 80.333 50 135zM669.999 281c0 -20 -6.33301 -35.833 -19 -47.5s-28 -17.5 -46 -17.5c-16 0 -30.5 5.16699 -43.5 15.5
s-28.833 26.833 -47.5 49.5c18.667 22.667 34.5 39.167 47.5 49.5s27.5 15.5 43.5 15.5c18 0 33.333 -5.83301 46 -17.5s19 -27.5 19 -47.5zM336.999 281c-18 -22 -33.833 -38.332 -47.5 -48.999s-28.5 -16 -44.5 -16c-18 0 -33.167 5.83301 -45.5 17.5
s-18.5 27.5 -18.5 47.5s6.16699 36 18.5 48s27.5 18 45.5 18c16 0 30.667 -5.33301 44 -16s29.333 -27.334 48 -50.001z" />
    <glyph glyph-name="integral" unicode="&#x222b;" horiz-adv-x="490" 
d="M433 615v110h-65c-58 0 -104.333 -16 -139 -48s-52 -76.667 -52 -134v-549c0 -46.667 -23.667 -70 -71 -70h-49v-110h65c58 0 104.333 15.833 139 47.5s52 76.167 52 133.5v549c0 47.333 23.667 71 71 71h49z" />
    <glyph glyph-name="approxequal" unicode="&#x2248;" horiz-adv-x="606" 
d="M569 393l-82.9971 82c-17.333 -17.333 -32.333 -28.833 -45 -34.5s-26.667 -8.5 -42 -8.5c-13.333 0 -26 2 -38 6s-26.333 10.333 -43 19c-22 12 -42 20.5 -60 25.5s-37 7.5 -57 7.5c-30 0 -57 -6.5 -81 -19.5s-51.667 -35.167 -83 -66.5l82 -82
c17.333 17.333 32.166 28.666 44.499 33.999s26.166 8 41.499 8c13.333 0 26.5 -2 39.5 -6s27.167 -10 42.5 -18c22 -11.333 42 -19.666 60 -24.999s37 -8 57 -8c30 0 57.167 6.5 81.5 19.5s52.166 35.167 83.499 66.5zM569.003 167l-82.002 81.998
c-17.333 -17.333 -32.166 -28.666 -44.499 -33.999s-26.166 -8 -41.499 -8c-13.333 0 -26.333 2 -39 6s-27 10 -43 18c-22 12 -41.833 20.5 -59.5 25.5s-36.5 7.5 -56.5 7.5c-30 0 -57.333 -6.5 -82 -19.5s-52.667 -35.167 -84 -66.5l83 -82
c17.333 17.333 32.333 28.833 45 34.5s26.667 8.5 42 8.5c13.333 0 26 -2 38 -6s26.333 -10.333 43 -19c22 -11.333 42 -19.666 60 -24.999s37 -8 57 -8c30 0 57 6.5 81 19.5s51.667 35.167 83 66.5z" />
    <glyph glyph-name="notequal" unicode="&#x2260;" horiz-adv-x="602" 
d="M552 116v122h-226l78 95h148v122h-55l55 67l-79 62l-103 -129h-320v-122h227l-78 -95h-149v-122h55l-55 -67l79 -62l103 129h320z" />
    <glyph glyph-name="lessequal" unicode="&#x2264;" horiz-adv-x="1027" 
d="M884 1l-497 498l460 -2l-116 116h-546v-545l116 -116l-1 460l497 -498z" />
    <glyph glyph-name="greaterequal" unicode="&#x2265;" horiz-adv-x="1027" 
d="M841 69v544h-545l-116 -116l460 2l-498 -498l87 -87l498 498l-2 -459z" />
    <glyph glyph-name="lozenge" unicode="&#x25ca;" horiz-adv-x="636" 
d="M581 341l-263 366l-263 -366l263 -367zM435 341l-117 -165l-117 165l117 164z" />
    <glyph glyph-name="fi" unicode="&#xf001;" horiz-adv-x="602" 
d="M532 610v106h-134v-106h134zM530 0v506h-130v-506h130zM311 407v99h-96v57c0 31.333 15.333 47 46 47h50v110h-74c-49.333 0 -87 -14.667 -113 -44s-39 -64.333 -39 -105v-65h-54v-99h54v-407h130v407h96z" />
    <glyph glyph-name="fl" unicode="&#xf002;" horiz-adv-x="648" 
d="M624 0v110h-50c-30.667 0 -46 15.667 -46 47v555h-130v-563c0 -40.667 12.833 -75.667 38.5 -105s63.5 -44 113.5 -44h74zM311 407v99h-96v57c0 31.333 15.333 47 46 47h50v110h-74c-49.333 0 -87 -14.667 -113 -44s-39 -64.333 -39 -105v-65h-54v-99h54v-407h130v407h96
z" />
    <glyph glyph-name=".null" horiz-adv-x="0" 
 />
    <glyph glyph-name="glyph2" horiz-adv-x="232" 
 />
    <glyph glyph-name="glyph246" horiz-adv-x="232" 
 />
    </font>
</defs>
</svg>
