<?xml version="1.0" standalone="no"?>
<!DOCTYPE svg PUBLIC "-//W3C//DTD SVG 1.1//EN" "http://www.w3.org/Graphics/SVG/1.1/DTD/svg11.dtd" >
<svg>
<metadata>
Created by FontForge 20120731 at Wed May  8 07:40:15 2019
 By www-data
Copyright (c) 2011 North of England Zoological Society. All rights reserved. 
</metadata>
<defs>
<font id="ChesterZoo-Bold" horiz-adv-x="800" >
  <font-face 
    font-family="Chester Zoo"
    font-weight="700"
    font-stretch="normal"
    units-per-em="2048"
    panose-1="3 0 8 2 3 6 2 2 0 2"
    ascent="1638"
    descent="-410"
    x-height="794"
    cap-height="1627"
    bbox="-120 -778 1237.25 1842.57"
    underline-thickness="50"
    underline-position="-100"
    unicode-range="U+0020-2212"
  />
<missing-glyph horiz-adv-x="500" 
 />
    <glyph glyph-name=".notdef" horiz-adv-x="500" 
 />
    <glyph glyph-name=".null" horiz-adv-x="0" 
 />
    <glyph glyph-name="nonmarkingreturn" horiz-adv-x="500" 
 />
    <glyph glyph-name="space" unicode=" " horiz-adv-x="500" 
 />
    <glyph glyph-name="space" unicode="&#xa0;" horiz-adv-x="500" 
 />
    <glyph glyph-name="exclam" unicode="!" horiz-adv-x="525" 
d="M336 181q16 -11 21.5 -31t7.5 -31q-1 -31 -23.5 -50t-48.5 -21q-17 -2 -34 2.5t-36 18.5q-14 8 -20 27t-4 38q2 14 14.5 28t31.5 27q9 6 21.5 7.5t25 0t24.5 -6t20 -9.5zM316 300q-1 -9 -14 -15t-29.5 -8.5t-32 0.5t-21.5 14q-5 30 -6 58t-2 68q-2 44 -4 94.5t-4.5 100.5
t-4.5 94.5t-5 76.5q-3 41 -6 91t-6.5 102.5t-6 103.5t-5 94t-4 73.5t-2.5 42.5q-1 19 -2 43t-0.5 48.5t2 45.5t4.5 34q6 15 18 24t26.5 14.5t30 7.5t29.5 4q19 1 34.5 -2.5t21.5 -20.5q2 -20 4 -59.5t2.5 -88.5t1 -101.5t0.5 -98.5t0.5 -80t0.5 -45v-42.5t-0.5 -67.5
t-1.5 -80.5t-1.5 -82.5t-1.5 -73t-1 -52q-2 -78 -7 -158.5t-7 -158.5z" />
    <glyph glyph-name="quotedbl" unicode="&#x22;" horiz-adv-x="464" 
d="M349 1645q0 -3 -1.5 -13.5t-3 -26.5t-3 -34.5t-1.5 -36.5q-2 -38 0.5 -68.5t4.5 -49.5t6 -37.5t1 -44.5q-4 -8 -14.5 -16.5t-24.5 -10.5q-14 -1 -25 1t-18 9.5t-10.5 22t-2.5 39.5q-1 22 -1 40t-2 43q0 12 -1.5 41.5t-1.5 61.5q-1 18 -2 37t-1 34.5t2 26t7 11.5
q20 2 42 1t42 1q10 1 9.5 -9.5t-1.5 -21.5zM206 1651q0 -10 -2.5 -38t-3.5 -67t1.5 -86.5t11.5 -96.5q3 -14 3 -20.5t-3 -8.5q-19 -6 -38.5 -10t-42.5 3q-4 8 -6.5 26t-4.5 41.5t-3.5 50.5t-4.5 54q0 19 -0.5 41t-1 42.5t-0.5 36v20.5q1 10 2 18t3 13q1 2 15.5 3t31 -0.5
t30 -6.5t13.5 -15z" />
    <glyph glyph-name="numbersign" unicode="#" horiz-adv-x="969" 
d="M784 1261q4 -8 2 -28t-9 -50t-18.5 -68.5t-26.5 -82.5q12 2 31 9t39 13t39 8t31 -5q4 -7 6 -20t0 -28t-8 -29t-17 -23q-38 -12 -76.5 -21t-78.5 -20q-5 -7 -15 -32t-22 -59t-25 -73t-24 -72.5t-19 -57.5t-9 -28q20 0 50 3.5t60 6t54.5 2.5t33.5 -5q6 -5 6 -19t-3.5 -30.5
t-8.5 -33t-10 -26.5q-4 -8 -26 -11.5t-53.5 -3.5t-68.5 2t-70 5q-8 -19 -18 -57t-21 -76.5t-22 -68.5t-22 -34q-11 -2 -29 -2t-35 3t-28.5 10t-8.5 20q14 52 33.5 103.5t35.5 103.5q-36 -2 -68.5 -3.5t-64.5 -0.5q-6 -20 -11.5 -53t-12 -65.5t-15 -58t-20.5 -28.5
q-10 -3 -25.5 -6t-30 -4.5t-25 1t-11.5 11.5q-1 14 1 36.5t7.5 50t13.5 58t19 62.5q-5 1 -16.5 0.5t-25 -1.5t-26.5 -0.5t-19 3.5q-5 7 -8 22t-4 30.5t1 28.5t8 17q24 1 56 2t55 -1q14 62 28 122t28 114q-26 -11 -59 -19t-67 -9q-7 1 -11.5 13.5t-6 27.5t0.5 28t9 16
q41 13 76.5 19.5t79.5 19.5q1 1 5.5 20.5t10.5 48.5t13.5 62.5t14 63.5t11.5 51.5t6 25.5q15 10 25 16t19 10t18 6t21 4q23 3 29 -3.5t12 -13.5q5 -6 4 -22t-6 -38.5t-12.5 -49t-15 -52.5t-14 -50t-8.5 -41q18 4 39.5 8.5l43 9t40 8t29.5 6.5q14 52 27.5 102.5t23.5 97.5
q5 27 10.5 39t16.5 25q8 8 25.5 16t37 11.5t38.5 -0.5t31 -19zM396 854q-18 -66 -34.5 -136.5t-34.5 -133.5q35 -2 67 -0.5t71 4.5q15 42 25.5 82.5t22.5 79.5q9 29 15.5 59t17.5 62q0 3 0.5 6.5t-1.5 4.5q-40 -7 -74 -15t-75 -13z" />
    <glyph glyph-name="dollar" unicode="$" horiz-adv-x="859" 
d="M491 1206q32 -11 67.5 -15t64.5 -18q2 -4 0.5 -9t-6.5 -7q4 -10 3 -19.5t-4 -19t-7 -19t-5 -19.5q-10 -11 -24 -12.5t-30 1t-32 6t-29 3.5q-1 -10 -3 -44.5t-4 -80.5t-4 -96.5t-3 -92.5q63 -16 106 -31.5t73 -34.5t50 -42.5t35 -55.5q9 -23 13.5 -48.5t5.5 -50.5t-1 -48
t-8 -40q-15 -46 -33.5 -77.5t-43.5 -57.5q-12 -13 -39 -29.5t-59 -32t-64 -27.5t-54 -16q-1 -8 -1 -22.5v-31.5t0.5 -34t0.5 -30q0 -8 -17.5 -12.5t-38 -7t-37 -1.5t-16.5 4v25v33t-1 36.5t-3 34.5q-54 -3 -108 -3.5t-110 10.5q-3 1 -5 20t-1.5 43t5 46t13.5 30
q6 -2 23.5 -4t37.5 -3.5t38.5 -3t27.5 -1.5q18 -2 39.5 2.5t36.5 9.5q1 30 3.5 75t5 92.5t5 92t4.5 72.5q-13 3 -31.5 8.5t-38.5 13.5t-39.5 18t-34.5 21q-30 21 -45 44.5t-31 49.5q-17 36 -22.5 73t-5.5 85q0 49 17.5 86.5t37.5 62.5q10 12 26.5 27t34.5 29t36.5 24.5
t32.5 15.5q29 9 44.5 12t34.5 4q-2 45 -1.5 83t-0.5 86q-1 9 2.5 13t7.5 5q10 2 28 1t35.5 -4t30.5 -8.5t14 -12.5q1 -12 1.5 -32.5t0.5 -44.5t-0.5 -50t-0.5 -49zM255 980q-9 -26 -6.5 -55t15.5 -56t37.5 -49t59.5 -32q1 9 1.5 29t1.5 46.5t2 57t2 60t1.5 55.5t1.5 44
q-88 -17 -116 -100zM465 336q34 7 55 16t34.5 21t21.5 26.5t15 31.5t8 39t-3 43t-13 39t-22 29q-26 20 -53.5 30.5t-36.5 12.5q-1 -78 -1 -149.5t-5 -138.5z" />
    <glyph glyph-name="percent" unicode="%" horiz-adv-x="786" 
d="M549 351q3 -3 7.5 -21.5t7 -44t0.5 -53t-14 -48.5q-13 -23 -31.5 -39.5t-39 -25t-40.5 -8t-35 11.5q-15 15 -24.5 26t-15 21.5t-8.5 20.5t-6 24q-1 7 1 21.5t6.5 32t12 36.5t18.5 35q10 16 28 28.5t37 18t37 2.5t29 -19q14 -4 20.5 -8.5t9.5 -10.5zM460 309
q-14 -14 -25 -33t-11 -48q0 -5 1.5 -16t4.5 -21.5t7 -17t9 -3.5q28 14 39.5 39.5t8.5 66.5q-2 13 -11.5 21t-22.5 12zM658 1568q3 -4 6 -14t5 -23t4 -27.5t3 -27.5q-7 -13 -17 -37.5t-20.5 -53t-20.5 -58t-17 -52.5q-12 -31 -25 -65t-28 -76.5t-33.5 -96t-40.5 -124.5
q-4 -13 -12.5 -44t-20 -71.5t-24.5 -86t-25 -88.5t-22 -79t-16 -56q-15 -57 -37 -120t-44 -119t-41 -98.5t-28 -58.5q-12 -8 -29 -5q-12 3 -20.5 10t-15 15.5t-13 17.5t-14.5 17q-6 7 5.5 40t32.5 85t46.5 120t48.5 145q11 36 20 64t17.5 55t17.5 56t20 66q27 90 47 155
t34.5 110.5t23 73.5t13.5 44q7 18 13 34.5t12.5 35.5t14.5 41t18 49q7 17 14 33t15.5 33.5t18.5 38t23 46.5q9 17 15.5 28t11.5 20t10 17.5t11 19.5q7 10 19.5 15.5t23.5 -4.5zM283 1111q-14 -5 -37.5 -4.5t-49.5 6.5q-20 6 -30.5 20t-14 32.5t-1.5 39t6.5 39t9.5 33.5t8 23
q10 25 39 41.5t59 18.5q13 1 28 -1t29 -7.5t25.5 -13.5t17.5 -20q17 -34 11.5 -68t-16.5 -55q-14 -26 -32.5 -49.5t-51.5 -34.5zM313 1255q2 12 -4 20t-28 7q-26 -2 -44.5 -22.5t-27.5 -43.5q-4 -13 -1.5 -22.5t8.5 -15.5t15 -9t18 -3q29 5 45 29.5t19 59.5z" />
    <glyph glyph-name="ampersand" unicode="&#x26;" horiz-adv-x="873" 
d="M648 1085q-2 -80 -26 -151.5t-61.5 -135.5t-84 -120.5t-92.5 -106.5q15 -45 39 -91.5t50.5 -89t53 -79t46.5 -60.5l13.5 13.5t27 28t33 36t34 37t28.5 30.5t17 16q12 12 27 8q10 -6 13.5 -18.5t3.5 -28.5t-1.5 -33t-1.5 -30q1 -8 0 -18t0 -24q-27 -27 -53.5 -54
t-52.5 -55q15 -18 36 -38.5t43.5 -41.5t45 -41t40.5 -38q6 -11 -9.5 -24.5t-37.5 -24.5t-43 -17t-26 0q-9 6 -26 24t-35.5 39t-35 40.5t-25.5 27.5q-20 -33 -56.5 -60t-80 -41t-88 -10.5t-81.5 31.5q-14 11 -30.5 31t-32.5 45t-30 53t-21 55q-9 32 -15 71t-5 98
q1 68 24.5 127t48.5 102q11 17 8 34t-10 37q-8 24 -19 55t-22 63t-20.5 63.5t-14.5 57.5q-16 80 -24 140.5t-8 107t7 81t21 64t35 56.5t49 58q21 22 49.5 35.5t60.5 22.5q19 6 46 6t54.5 -5.5t51.5 -14.5t38 -19q28 -22 50.5 -50.5t38.5 -67.5t25 -89.5t11 -116.5zM456 871
q21 33 36 65.5t24 68t10.5 75t-4.5 86.5q-7 42 -34 68.5t-59 45.5q-45 23 -77.5 16t-49.5 -24q-23 -25 -30.5 -58.5t-7 -70.5t6.5 -73.5t11 -67.5q4 -27 9 -71t11 -88.5t12 -79.5t12 -44q54 50 87 94t43 58zM341 135q38 -48 88 -44q12 1 24 7t22 14t17 18t9 20
q-57 60 -107 127.5t-92 144.5q-4 -16 -8.5 -30t-7 -30.5t-3 -37t4.5 -47.5q9 -54 21 -85.5t32 -56.5z" />
    <glyph glyph-name="quotesingle" unicode="'" horiz-adv-x="366" 
d="M226 1651q0 -10 -2.5 -38t-3.5 -67t1.5 -86.5t11.5 -96.5q3 -14 3 -20.5t-3 -8.5q-19 -6 -38.5 -10t-42.5 3q-4 8 -6.5 26t-4.5 41.5t-3.5 50.5t-4.5 54q0 19 -0.5 41t-1 42.5t-0.5 36v20.5q1 10 2 18t3 13q1 2 15.5 3t31 -0.5t30 -6.5t13.5 -15z" />
    <glyph glyph-name="parenleft" unicode="(" horiz-adv-x="608" 
d="M382 284q15 -41 33 -78t36.5 -68t35.5 -55.5t31 -40.5q-18 -25 -30.5 -41t-22 -23.5t-18 -8t-18.5 6.5l-13.5 13t-34 37t-45 58t-46.5 76q-23 42 -47 104t-45.5 127.5t-38 127.5t-22.5 105q-4 29 -5.5 69.5t0 87t4.5 96.5t8.5 97.5t12 90t14.5 73.5q12 47 23.5 84.5
t22 68.5t20 56t17.5 48q17 45 34 78t38 37q10 2 27 3t33 1t28 -2t14 -5q-6 -15 -16 -44t-21 -64t-22.5 -72t-20.5 -69t-20 -88t-20.5 -122.5t-15.5 -135.5t-5 -126t10.5 -127t23 -140t30 -132t31.5 -103z" />
    <glyph glyph-name="parenright" unicode=")" horiz-adv-x="659" 
d="M345 130q-16 -32 -39.5 -76t-50.5 -83.5t-54 -67t-51 -26.5q-8 0 -13.5 3t-11.5 11q-3 4 -8.5 15t-10 23t-8 21.5t-3.5 10.5q-6 15 -4 28.5t8.5 24.5t16.5 19.5t20 14.5q6 4 24 32t41.5 69t50 89.5t49.5 93.5t40 81t22 51q7 23 17 61t19.5 82.5t16 92t8.5 89.5
q1 28 -3 68t-12 85t-19.5 92.5t-24.5 91.5t-28 80.5t-30 60.5q-23 35 -48.5 66t-47.5 55.5t-37.5 41t-18.5 22.5q-5 11 2.5 25.5t27.5 19.5q9 2 25 1.5t33 -2t33 -2.5t25 0t20 -5.5t22.5 -18t22.5 -27t19 -31.5q17 -32 39 -79.5t47 -107.5q12 -30 26 -74.5t25.5 -97.5
t19 -111.5t6.5 -116.5q-1 -116 -25 -221.5t-54 -193.5q-15 -43 -30 -80.5t-30.5 -71t-31.5 -65t-32 -63.5z" />
    <glyph glyph-name="asterisk" unicode="*" horiz-adv-x="740" 
d="M437 1297q25 22 48 45.5t52 40.5q47 -12 44 -76q-2 -5 -3.5 -9.5t-3.5 -9.5q-31 -28 -62 -54t-63 -52q8 -7 25.5 -22t39 -33t43.5 -38.5t39 -38.5t26.5 -32.5t5.5 -20.5q-8 -16 -18 -29t-33 -14q-14 9 -39 28.5t-50.5 40t-46.5 38t-27 23.5q-3 -48 -5 -91.5t-12 -90.5
q-2 -2 -4.5 -3.5t-4.5 -3.5q-19 8 -37.5 13.5t-34.5 15.5q-5 40 -1.5 80.5t1.5 75.5q-10 -7 -25.5 -20.5t-33.5 -29t-36 -30t-34 -23.5t-28 -9.5t-16 12.5q-5 14 -9 23.5t-4 25.5q9 20 33.5 45t51.5 48.5t50 40.5t29 22q-7 10 -32.5 28.5t-53.5 39.5t-50.5 41t-22.5 33
q1 27 16 43.5t26 27.5q3 3 8 3q20 -7 38 -18.5t35 -25t33 -28t33 -26.5q0 1 -0.5 13.5t-0.5 31.5t0.5 40t3 40t7 31.5t12.5 13.5q12 1 27 2t29 -0.5t25.5 -7t17.5 -16.5q1 -22 0 -42t-3 -39.5t-4 -37.5t-1 -35z" />
    <glyph glyph-name="plus" unicode="+" horiz-adv-x="608" 
d="M356 865q15 -45 17.5 -89.5t7.5 -95.5q8 -1 25 -2t34.5 -1.5t32.5 -1t20 -0.5q1 -12 2.5 -28t2 -31t0 -27t-2.5 -16q-3 -7 -11 -15q-23 -10 -50.5 -7.5t-54.5 1.5q-2 -22 -2 -48t1 -50t1.5 -43t-1.5 -25q-1 -10 -4 -16.5t-5 -10.5q-28 -8 -59.5 -7t-48.5 18q1 3 1.5 16
t0.5 31v39t-0.5 40.5t-0.5 34.5v22q-45 -7 -74 -11t-46 -5.5t-23.5 0.5t-7.5 7v21t1 36.5t3.5 38t8.5 25.5q32 9 63.5 10t62.5 6q1 1 -1 21t-4.5 47.5t-4 57.5t-0.5 52q1 7 18.5 11t38.5 5t39 -1.5t20 -8.5z" />
    <glyph glyph-name="comma" unicode="," horiz-adv-x="340" 
d="M110 -93q-9 0 -13.5 6t-5.5 14.5t0 17.5t3 15q1 6 6 17t9.5 25t6.5 30.5t-3 33.5q-5 35 8.5 60t39.5 38q15 7 33 8t26 -6q9 -7 13.5 -15.5t9.5 -20.5q2 -6 4 -19t2 -28t-3.5 -29.5t-12.5 -23.5q-3 -5 -10 -15.5t-16 -23.5t-18.5 -26.5t-17.5 -23.5q-15 -19 -29 -25
t-32 -9z" />
    <glyph glyph-name="hyphen" unicode="-" horiz-adv-x="673" 
d="M579 634q4 -19 3.5 -41t-1.5 -45q-14 -11 -41.5 -16t-50.5 0q-4 1 -26.5 0.5t-56 -1.5t-73 -3t-77 -4.5t-69 -5.5t-47.5 -6q-24 -3 -36 -0.5t-14 14.5q1 22 0 53t4 54q2 6 11 6q10 0 42.5 1t76.5 2t94.5 2t97 2.5t83.5 3.5t55 4q25 2 25 -20z" />
    <glyph glyph-name="period" unicode="." horiz-adv-x="308" 
d="M170 140q6 -2 13 -4.5t15 -8.5q18 -15 19 -35.5t-9 -38t-29.5 -27t-43.5 -1.5q-11 3 -17 7t-11 8q-8 5 -10.5 11.5t-5.5 21.5q-1 17 3 34t15 26q9 5 24.5 9.5t36.5 -2.5z" />
    <glyph glyph-name="slash" unicode="/" horiz-adv-x="754" 
d="M733 1431q1 -5 -8.5 -31.5t-25 -66t-35 -87l-39 -95t-37 -90t-28.5 -72.5q-5 -13 -14 -35t-20 -48.5t-22.5 -56t-21.5 -57.5q-45 -114 -94.5 -225.5t-98.5 -227.5q-38 -67 -66.5 -140t-54.5 -146q-8 -9 -25 1q-16 17 -33.5 31.5t-35.5 32.5q-11 11 -13 23.5t0.5 24.5
t7.5 23.5t7 20.5q5 13 22.5 52.5t41.5 91.5t50.5 110.5t50 109t40 87t20.5 45.5l13.5 29t36 77.5t51.5 111.5t60 131t62 136.5t57.5 128t46 105.5t28.5 68q3 7 15.5 2t26 -16.5t24 -25t11.5 -22.5z" />
    <glyph glyph-name="zero" unicode="0" horiz-adv-x="989" 
d="M511 1472q30 -1 57 -10t49.5 -20.5t39.5 -23.5t27 -19q5 -5 19 -20t30.5 -34t31.5 -37.5t23 -29.5q28 -30 44.5 -72t33.5 -83q13 -44 19.5 -95t8 -103.5t-1 -104t-7.5 -96.5q-6 -43 -10 -78.5t-9 -73.5q8 -2 18 -3.5t15 -5.5q-5 -18 -11.5 -43t-12 -48.5t-9.5 -40.5
t-4 -18q-27 -100 -75 -183.5t-128 -134.5q-26 -17 -63 -29t-72 -11q-58 -1 -119.5 21.5t-105.5 73.5q-47 45 -82.5 99.5t-63.5 117.5q-9 25 -15 43l-11 33t-9 29t-8 32q-6 33 -10.5 64.5t-7 66t-2.5 75t3.5 91.5t11.5 114.5t21 145.5q13 56 28.5 112t38 105t55 87.5
t79.5 60.5q29 13 50.5 22t42 15t42 8t49.5 1zM633 1233q-27 30 -56.5 48t-58.5 26t-55 7.5t-46 -7.5q-20 -8 -33.5 -15.5t-24.5 -17.5t-22.5 -24t-27.5 -35t-25 -41.5t-14.5 -45t-9 -56.5t-6.5 -75q-9 -99 -9.5 -179.5t4.5 -146.5t16 -120.5t25 -101.5q9 -32 23.5 -67
t33 -68.5t40.5 -62t46.5 -47.5t50.5 -25.5t54 5.5q36 15 59 34.5t38 41t23.5 45.5t16.5 48q-10 8 -18 18l-16 20q16 46 33.5 98.5t32.5 103.5t26.5 95.5t14.5 74.5q4 30 5 63t0 66.5t-4.5 65.5t-7.5 59q-8 55 -31 106t-77 110z" />
    <glyph glyph-name="one" unicode="1" horiz-adv-x="489" 
d="M363 601q1 -106 -0.5 -200.5t-5 -166.5t-8 -116t-8.5 -48q-7 -6 -11 -7t-14 -3q-8 -1 -21.5 -2t-27 2t-24 10.5t-12.5 23.5q-2 10 -2.5 20t-1.5 21.5t-1.5 25.5t-1.5 33q-1 24 -1.5 60t0 77t1 83.5t1 79t1 63.5t0.5 37q-3 54 -2.5 108.5t2 108t3 105.5t0.5 100q1 14 1 42
t-0.5 62.5t-1.5 70.5t-1.5 66.5t-1.5 51.5t-2 24q-7 -7 -13.5 -17t-12.5 -19.5t-12.5 -16t-12.5 -7.5t-16.5 6t-20.5 17t-17.5 21t-6.5 17q3 8 14.5 30.5t28.5 51.5t36 60.5t37 58.5t32 44.5t20 19.5q16 4 32 -3q14 -14 18 -53t6 -96q1 -18 3 -62.5t5 -109t6 -144.5t6 -168
t5 -180.5t3 -181.5z" />
    <glyph glyph-name="two" unicode="2" horiz-adv-x="787" 
d="M687 1252q0 -2 2 -1t3 2q4 20 6.5 40.5t1.5 43.5q0 15 -2 35.5t-6.5 41.5t-11.5 41.5t-17 37.5q-13 26 -31.5 47t-35 36.5t-28.5 25t-13 12.5q1 9 11 13t19 2q12 -7 25.5 -19t24.5 -23t18 -19.5t8 -9.5q29 -38 39.5 -70.5t13.5 -42.5q8 -37 10.5 -78.5t0.5 -83t-8.5 -82
t-15.5 -75.5q-2 -7 -8.5 -27t-16 -46.5t-20.5 -56.5t-21 -56t-18 -45t-11 -24q-50 -115 -101.5 -223t-104.5 -222q-20 -48 -40.5 -95.5t-38.5 -98.5l24.5 3.5t36.5 5t35.5 4.5t23.5 4q36 8 77.5 18t73.5 20q6 1 11.5 2t9.5 -7q6 -9 4.5 -20.5t6.5 -19.5q6 0 7 -2
q5 -17 5 -31v-21q-1 -5 -4 -8q1 -6 2.5 -13.5t2 -15.5t-0.5 -15t-4 -11q-5 -4 -23 -8.5t-39 -9t-39.5 -7.5t-24.5 -4q-5 -1 -27 -3.5t-54.5 -6.5t-70.5 -7.5t-75.5 -7.5t-69.5 -6.5t-52 -3.5q-10 0 -16.5 -0.5t-12.5 -0.5t-12 0.5t-14 2.5q-5 4 -10 12t3 38q5 23 13.5 42.5
t19.5 42.5q12 27 22 52t20.5 50t21.5 51t24 56q16 42 28.5 75t26.5 68q20 48 38 94t38 95l5.5 13.5t13.5 34.5t17.5 47t18.5 50.5t16.5 44.5t11.5 30q4 9 10 26t13 38.5t14 46.5t13 50q7 22 12.5 47.5t9 51.5t4.5 50.5t-1 44.5q-8 40 -20 69.5t-25.5 49t-26 31.5t-21.5 18
q-33 20 -64 23.5t-65 0.5q-20 -2 -36 -8t-30 -14.5t-26 -16.5t-24 -12q-11 1 -19 17.5t-12.5 39t-5 46t2.5 40.5q24 21 56 33.5t61 19t49.5 9l20.5 2.5q42 1 83 -5.5t77.5 -21.5t67.5 -38t52 -53q28 -38 43.5 -67t26.5 -55q14 -38 16.5 -80.5t0.5 -89.5z" />
    <glyph glyph-name="three" unicode="3" horiz-adv-x="731" 
d="M694 425q-5 -61 -12.5 -101t-17.5 -69.5t-23 -53.5t-31 -53q-25 -33 -64.5 -65t-92.5 -63l-12.5 -6t-33.5 -12.5t-49 -11.5t-60.5 -4.5t-67 8.5t-68.5 29q-17 9 -39.5 27t-43 43.5t-34.5 56.5t-14 66q6 9 21.5 22.5t32 26.5t31 21.5t18.5 6.5q3 -3 12.5 -16.5t24 -32
t33 -38t40 -35t45 -23.5t48.5 -2q28 5 57 20.5t44 35.5q21 28 40.5 60.5t34 70t22 79t4.5 88.5q1 12 -3.5 31.5t-11.5 40t-14.5 39t-12.5 28.5q-3 4 -13 16.5t-29 24.5t-48.5 19.5t-72.5 1.5q-10 4 -15.5 22.5t-7.5 43t-1 51t4 45.5q8 11 30.5 29.5t42.5 37.5
q29 22 51.5 50.5t39.5 56.5t27.5 52t15.5 39q4 19 9 49t7.5 63t1.5 64t-10 52q-8 19 -17.5 33t-23.5 24t-34.5 15.5t-50.5 8.5q-49 1 -77.5 -18.5t-43.5 -50t-19.5 -67.5t-5.5 -71q0 -20 1 -49t2 -56.5t1 -49t-2 -26.5q-8 -7 -26.5 -12t-37.5 -8q-21 -8 -38.5 -5.5
t-19.5 2.5q-7 4 -11 14.5t-7 23t-4.5 26t-2.5 25.5q-10 69 -11.5 146t15.5 145q18 49 39 82t43.5 54t45.5 32.5t45 17.5q28 8 62.5 9.5t54.5 3.5q43 -7 73.5 -15.5t52.5 -18.5t37 -21.5t27 -24.5q34 -32 59.5 -73.5t31.5 -79.5q2 -4 6 -31t6 -68.5t-0.5 -93.5t-14.5 -105
t-35.5 -103.5t-63.5 -88.5q-12 -12 -23.5 -20.5t-20.5 -16t-14.5 -13.5t-4.5 -13q1 0 19 -16.5t40 -39t42 -45.5t25 -35q10 -20 20.5 -52t18.5 -60q7 -46 7 -84.5v-61.5z" />
    <glyph glyph-name="four" unicode="4" horiz-adv-x="787" 
d="M619 734q34 5 69 10.5t68 7.5v-23.5t-0.5 -43.5t-1.5 -45.5t-3 -28.5q-9 -5 -30 -10t-42.5 -10t-40 -9.5t-22.5 -6.5v-67v-88v-95.5t-0.5 -89.5t-1.5 -70t-3 -37q-3 -11 -22 -17t-41.5 -7t-41 3.5t-19.5 13.5q-2 9 -3.5 41.5t-3 76.5t-2.5 94t-2 93t-1.5 73.5t0.5 36.5
q-53 -1 -116.5 -10.5t-126 -17.5t-116 -10t-85.5 11q-1 4 7 24.5t20.5 50.5t28 66.5t31 72t29 67t21.5 52.5q6 10 20.5 40t33.5 70.5t39.5 86.5t39 86.5t33 71t20.5 40.5q10 19 25 49.5t32.5 66t36 71.5t34 66.5t27 51.5t15.5 25q6 0 10.5 1t10.5 -2q9 -64 18.5 -148
t17.5 -173.5t15 -176.5t12 -158.5t8 -119t3 -56.5zM247 652q50 18 108 34t120 26q-3 30 -5 73t-4 90.5t-3.5 95t-2.5 87t-2.5 66.5t-2.5 32q-4 -6 -20 -41t-38.5 -85.5t-47.5 -109t-47 -112.5t-37 -96.5t-18 -59.5z" />
    <glyph glyph-name="five" unicode="5" horiz-adv-x="718" 
d="M657 1475q1 -9 -0.5 -25.5t-4.5 -33t-6 -30.5t-4 -18q-3 -11 -21.5 -15t-47.5 -4.5t-64.5 1t-71.5 2t-69 -1t-57 -8.5q-3 -9 -7.5 -41t-10 -77.5t-11.5 -99.5t-11.5 -107.5t-10 -101.5t-7.5 -82q5 0 17.5 3t34 4.5t53 -1t75.5 -14.5q19 -5 47 -15t56.5 -30.5t53.5 -53.5
t38 -84q12 -71 12 -129t-7.5 -107.5t-21 -91.5t-29.5 -81q-1 -1 -5 -12.5t-13 -29t-24.5 -38.5t-39 -40.5t-56 -35t-75.5 -22.5q-22 -2 -46 -1t-48 5.5t-46.5 12.5t-40.5 21q-24 17 -40.5 42t-27 49.5t-16 43t-8.5 22.5q-5 19 -5.5 27.5t1.5 12.5t6.5 4.5t11.5 3.5
q20 7 44 12.5t41 7.5q5 1 11.5 -18t19.5 -42.5t34.5 -43t56.5 -20.5q17 -1 33 0.5t36 9.5q14 6 32.5 23t35 52.5t28 94.5t12.5 149q0 50 -18 85.5t-44 60.5q-33 24 -68.5 33t-70 9t-66 -5.5t-56.5 -10t-42 -5.5t-21 9q-7 36 -9.5 101t-2 142t3 156.5t6 145t6.5 107.5t4 44
q2 7 10 6q8 -2 10.5 -11t1.5 -32.5t-3.5 -63.5t-4.5 -102.5t-3 -151.5t2 -209q5 38 9 95t8 121.5t8 130.5t9.5 122t12 96.5t15.5 54.5q8 11 43.5 18.5t85.5 12.5t106.5 7t105.5 1t84 -4.5t41 -10.5z" />
    <glyph glyph-name="six" unicode="6" horiz-adv-x="881" 
d="M511 968q8 0 28 -1t46 -8t56 -21.5t57 -40.5t48.5 -65t31.5 -96q3 -17 5.5 -47t4 -62.5t2 -63t0.5 -46.5q-2 -54 -12 -103.5t-24.5 -93t-32 -78.5t-34.5 -60q-29 -43 -68.5 -70t-83.5 -40t-89 -13t-86 10t-74 28.5t-53 44.5q-26 30 -45.5 73.5t-33 94t-22 104.5
t-13 105.5t-6.5 98t-2 82t0.5 56.5l0.5 21q10 176 34 294.5t50 192.5t49 110.5t30 48.5q5 8 25.5 36t53 58.5t75.5 55t94 25.5q55 1 94.5 -15t66.5 -42t43.5 -57.5t24.5 -59.5t10.5 -50t1.5 -28q-3 -8 -17.5 -23t-32.5 -31t-35 -29t-24 -16q-8 3 -15.5 15t-14 28.5
t-13.5 33.5t-14 31q-9 15 -20 24t-22 13.5t-22 5t-19 0.5q-42 -7 -64 -21t-42 -37q-53 -64 -86 -133t-52.5 -137t-27 -130.5t-9 -113.5t1 -85.5t4.5 -46.5q18 55 39 103.5t52 85.5t74 59.5t106 25.5zM494 837q-40 -7 -69 -31t-49 -61t-31.5 -83.5t-15.5 -97.5q-5 -50 2 -104
t27 -104q7 -19 14.5 -31.5t13.5 -21.5t11.5 -16.5t8.5 -14.5q-12 -8 -25 -15t-25 -15q12 -26 31 -38t45 -14q53 -1 89 26t59.5 67t36 87.5t18.5 88.5t7 69.5t2 31.5q2 78 -8 128.5t-26.5 81.5t-36.5 45.5t-37.5 19.5t-29.5 3.5z" />
    <glyph glyph-name="seven" unicode="7" horiz-adv-x="656" 
d="M608 1422q-5 -20 -10 -41.5t-10 -34.5q-12 -34 -29.5 -81.5t-37 -103.5t-40 -120t-38.5 -131q-13 -56 -24.5 -111l-23 -110t-23.5 -111t-25 -116q-11 -51 -14 -109t-1.5 -112t5.5 -98t9 -67q-1 -2 -2.5 -2.5t-0.5 -2.5q-26 -10 -53.5 -7.5t-50.5 13.5q-13 47 -20 104
t-8 119t3.5 125.5t15.5 122.5q3 17 8.5 50t12.5 73t15 84t15.5 83.5t14.5 71.5t12 48q21 75 41.5 143t38 123t30.5 95t19 60q-25 5 -48 8t-46 4q-63 7 -123.5 17.5t-121.5 24.5q-6 3 -8 12q0 6 4.5 22t10 34t10 33.5t4.5 18.5q4 7 10.5 9.5t24.5 -2.5q69 -24 141.5 -39
t144.5 -34q40 -6 76.5 -15.5t70.5 -14.5q9 -1 13.5 -5t7.5 -9q5 -11 0 -21z" />
    <glyph glyph-name="eight" unicode="8" horiz-adv-x="704" 
d="M139 210q-23 73 -39 147t-7 147q5 38 15.5 81.5t27.5 89.5q14 44 35 77.5t45 71.5q26 45 46.5 78.5t35.5 64.5q-11 14 -26.5 37.5t-33.5 59.5q-17 32 -34 74.5t-18 84.5q-6 56 -1 106t18.5 89.5t34.5 68t47 42.5q38 19 75.5 24.5t69.5 -5.5q37 -12 66 -32.5t46 -53.5
t22 -80t-6 -111q-20 -71 -45 -141t-57 -133q8 -26 20.5 -59.5t26 -68.5t27 -69.5t23.5 -62.5q8 -21 17 -46.5t16.5 -51.5t13 -50t7.5 -42q6 -46 6.5 -96t-5 -97.5t-17 -89t-30.5 -70.5q-8 -14 -22 -32.5t-23 -31.5q-15 -21 -38.5 -36t-52.5 -24t-61.5 -12t-63.5 0
q-23 7 -45 18t-43 28.5t-39.5 43.5t-33.5 62zM444 1316q-1 22 -6.5 36t-12 23t-12 13t-5.5 5q-10 7 -20 6.5t-19.5 -5t-17.5 -11.5t-13 -14q-11 -16 -15.5 -47.5t3.5 -68.5q12 -47 25 -90t36 -78q9 21 14.5 38.5t12.5 43.5q4 13 9.5 30.5t10 37t7.5 40.5t3 41zM277 661
q-19 -39 -29.5 -84t-23.5 -91q-14 -65 -10 -116t31 -107q7 -11 16 -23t21 -22t28 -15t36 -3q3 0 15.5 3t29 11t33.5 21.5t29 35.5q9 18 12.5 39t4.5 42.5t-0.5 42t-2.5 37.5q-2 64 -17.5 126.5t-29.5 122.5q-8 42 -21.5 81.5t-26.5 77.5q-23 -46 -47.5 -92t-47.5 -87z" />
    <glyph glyph-name="nine" unicode="9" horiz-adv-x="741" 
d="M644 1116q6 -103 7 -195.5t-12 -184.5q-3 -33 -7.5 -60.5t-11.5 -61t-17 -78t-25 -111.5q0 -1 -4.5 -15t-11.5 -34.5t-14.5 -44.5t-14.5 -44q-6 -20 -17 -47.5t-23.5 -54.5t-25 -49.5t-21.5 -34.5q-20 -23 -58 -38.5t-81 -18.5q-45 1 -79 23.5t-57 64.5q-3 4 -7 14.5
t-9 17.5q-7 10 -14 26t-12 32.5t-8 29t-3 14.5q4 11 14 24.5t22 24t23 15t16 -1.5q14 -16 19.5 -29.5t16.5 -28.5q20 -22 41.5 -40.5t56.5 -24.5q28 3 44 19t25 39.5t14 51.5t11 55q15 69 24 139t26 138q-1 11 2.5 26.5t4.5 30t-3.5 25.5t-20.5 14q-54 0 -91 5.5t-64 15.5
t-47.5 23t-41.5 29q-38 30 -67 74.5t-48 98t-27.5 111.5t-3.5 114q-4 0 -4 6q1 19 1 34t3 34.5t11 47t25 72.5q18 49 61.5 98t122.5 81q45 11 77.5 12.5t59.5 -6.5q12 -6 32.5 -13t44.5 -28.5t49.5 -64t48.5 -118.5q7 -23 13 -45.5t11 -51t10.5 -66t13.5 -90.5zM478 1290
q-6 -2 -13 4t-10 19q-6 30 -17.5 57t-27 47t-34.5 31t-41 9q-45 -5 -75 -29t-48 -60t-24.5 -81.5t-3.5 -92.5q6 -34 14 -69t18.5 -68t25.5 -62t36 -51q24 -21 53 -38t59.5 -27.5t61 -14t57.5 2.5q3 53 1 106t-7 106.5t-12 106t-13 104.5z" />
    <glyph glyph-name="colon" unicode=":" horiz-adv-x="409" 
d="M230 810q47 -8 48 -69q0 -15 -5.5 -30t-15.5 -26.5t-24.5 -19t-30.5 -7.5q-6 0 -11 0.5t-13 3.5q-6 2 -9.5 5t-5.5 6q-17 19 -19 44t8 47t30 35.5t48 10.5zM142 443q14 20 31 30.5t42 6.5q11 -1 18.5 -7t15.5 -14q17 -16 18.5 -42.5t-9 -51.5t-30.5 -40.5t-46 -9.5
q-9 3 -18 7t-18 15q-9 12 -10.5 21t-3.5 19q-2 9 -1.5 30t11.5 36z" />
    <glyph glyph-name="semicolon" unicode=";" horiz-adv-x="427" 
d="M175 227q17 6 31 5t22 -4q17 -7 34.5 -15.5t25.5 -28.5q8 -22 8.5 -46.5t-10.5 -62.5q-5 -14 -9.5 -25t-13.5 -26q-9 -16 -27.5 -34.5t-38.5 -22.5q-42 -6 -57 6q11 9 17.5 16t10.5 14t6 15l5 20q2 11 3.5 24t-4.5 23q-9 0 -19 3.5t-18 13.5q-4 5 -7 16t-3.5 24t2 26.5
t8.5 23.5q4 8 11 18t23 17zM147 558q1 13 12.5 25t27.5 20.5t33.5 10t32.5 -6.5q14 -8 21.5 -23t9 -32.5t-2.5 -34t-12 -28.5q-17 -22 -40 -26t-49 9t-31 36.5t-2 49.5z" />
    <glyph glyph-name="less" unicode="&#x3c;" horiz-adv-x="625" 
d="M352 1079q5 3 7.5 7.5t5.5 8.5q16 4 36.5 6t39 2.5t31.5 0.5h14q14 0 28 1t21 -10q-4 -13 -19.5 -41t-39.5 -66.5t-52.5 -84t-58 -93.5t-56.5 -96t-47 -90q1 -3 12 -24t29.5 -53.5t41.5 -73t48 -81.5q23 -37 45.5 -71.5t40.5 -62.5t31 -46.5t16 -24.5q9 -14 -7 -21
q-38 -3 -71 -6t-69 5q-4 3 -19.5 25t-37.5 55.5t-48.5 75.5t-53.5 85q-20 31 -37.5 62.5t-31.5 59t-24.5 49t-15.5 32.5q-1 16 12.5 50.5t35.5 78.5t49.5 93t54.5 96t51 87t38 65z" />
    <glyph glyph-name="equal" unicode="=" horiz-adv-x="726" 
d="M334 449q-30 -3 -62 -7t-58.5 -6t-44.5 -1t-20 8q-2 4 -3.5 10.5t-2 13t-1 11.5t-0.5 6q0 12 -3 24.5t-4 24t2 20.5t15 13q5 1 30.5 4t62 6.5t78.5 8t79 8.5t64 6.5t35 3.5q26 2 43 2t27.5 -2.5t15 -9t6.5 -18.5q0 -6 1.5 -19t1 -27.5t-4.5 -26.5t-13 -16
q-12 -6 -37.5 -11t-59 -10t-72 -9t-75.5 -7zM132 709q-2 9 -1.5 19.5t3.5 21.5q1 4 3.5 5t3.5 4q2 2 20 5t44 5t56 4t55.5 4t42.5 3l17 1q21 2 42 3.5t39 4.5q18 1 34.5 4.5t33 5.5t31.5 -0.5t30 -13.5q4 -4 6 -18.5t2 -31.5t-0.5 -32t0.5 -20q-1 -1 -5 -9q-5 -4 -17.5 -6
t-30 -3.5t-37.5 -2.5t-40 -3q-13 -2 -41.5 -3.5t-63.5 -3t-72 -3t-68 -2.5t-52 -2t-23 -1q-3 -1 -5.5 1.5t-3.5 5.5q-3 8 -4 27.5t1 30.5z" />
    <glyph glyph-name="greater" unicode="&#x3e;" horiz-adv-x="769" 
d="M657 688q0 -4 1 -5.5t0 -5.5q-11 -15 -32.5 -45t-46.5 -64.5t-49 -68t-40 -55.5q-14 -21 -35.5 -51.5t-45 -64t-47.5 -67t-44 -61t-33 -45.5t-15 -20q-5 -6 -22.5 -7t-37.5 0.5t-37 3.5t-21 3q-9 0 -18 1t-10 10q0 2 6 12t8 13q3 5 15.5 26.5t29.5 50.5t36 60.5t35 56.5
q11 16 30 44t41.5 60t46.5 65t44.5 61t35 47.5t18.5 24.5q0 1 -16.5 21.5t-43.5 53t-61 74t-69 84.5t-69 84.5t-61 75t-43.5 55.5t-16.5 25q1 4 4 6t5 4q10 2 32 8t46.5 12t46 9t30.5 -1q9 -11 39.5 -46.5t72.5 -84t89 -104t89 -106t73 -91t40 -58.5z" />
    <glyph glyph-name="question" unicode="?" horiz-adv-x="787" 
d="M265 122q-9 -18 -25.5 -30.5t-39.5 -13.5q-12 0 -21 0.5t-17 2t-16 4t-19 7.5q-12 5 -19 18t-10 29t-2 32t5 28q4 11 13 25.5t24.5 26t38.5 15t56 -6.5q12 -6 22.5 -18.5t16 -30.5t4.5 -40.5t-11 -47.5zM393 1349q-44 18 -77.5 12.5t-58 -19.5t-41.5 -30.5t-26 -20.5
q-11 -3 -29.5 6t-35.5 23.5t-27.5 32t-5.5 32.5q10 11 22.5 26.5t31 32t43.5 33.5t60 31q14 5 25.5 8t22.5 4.5t23 1t27 -1.5q120 -14 202 -70.5t120 -154.5q15 -39 21 -76t6.5 -73.5t-4 -72.5t-10.5 -71q-10 -55 -25 -107t-36.5 -98.5t-50.5 -86.5t-68 -70
q-20 -16 -47 -27.5t-52 -19t-45 -11.5t-27 -4q-5 -12 -11 -34t-12 -48t-12.5 -52.5t-13.5 -47.5t-14 -33.5t-13 -11.5q-64 8 -119 32q-4 2 -3 20t3.5 44.5t7 57.5t8 59.5t6.5 50t2 28.5q1 23 8.5 41.5t24.5 23.5q8 2 26.5 7t44.5 14t57.5 23t66.5 35q37 25 60.5 62.5
t35.5 80t13 88.5t-6 90q-4 28 -11.5 58.5t-20.5 50.5q-9 14 -21 29.5t-26.5 29t-31.5 22.5t-38 11q-25 1 -42.5 -3.5t-30.5 -11.5t-22.5 -15.5t-18.5 -15.5q-5 -4 -10.5 -2.5t-6.5 8.5q5 21 33.5 37.5t62.5 24.5q24 5 49 0.5t47 -16t40 -29t30 -38.5q11 -17 18.5 -30
t12.5 -22l-2.5 15t-14 37.5t-33.5 49.5t-61 51z" />
    <glyph glyph-name="at" unicode="@" horiz-adv-x="1165" 
d="M784 956q26 -16 55 -46t53.5 -68t40.5 -80t17 -82q0 -39 -4.5 -73.5t-11 -62.5t-14.5 -49.5t-14 -35.5q-26 -62 -60.5 -98.5t-54.5 -40.5t-41 -5t-37 5q-9 3 -21 11t-24 21t-22 32t-14 45q-2 -2 -4 -3.5t-4 -2.5q-11 -20 -26.5 -38.5t-36 -33t-47.5 -22.5t-60 -6
q-33 1 -62 16.5t-50.5 38t-35.5 49.5t-17 53t-2.5 58t12 66.5t38 69t75.5 64.5q29 17 61.5 28t75.5 10q21 0 34.5 -2.5t24 -6.5t19.5 -9.5t22 -11.5q17 2 33.5 2t33.5 -5q1 -7 1.5 -35t0 -62t-1 -66.5t-0.5 -47.5q2 -16 3.5 -33.5t3.5 -33.5t6.5 -28.5t12.5 -18.5
q17 -13 32 -3.5t31 39.5q8 16 19 39t21 51t16.5 58.5t4.5 60.5t-11.5 55.5t-23 46t-28.5 36.5t-28 28q-26 24 -49.5 36t-57.5 23q-38 10 -77.5 8.5t-92.5 -6.5q2 4 -1 8t-1 10q-17 0 -29.5 -4.5t-25.5 -6.5q-52 -18 -92 -46.5t-70.5 -66.5t-52.5 -84.5t-38 -100.5
q-9 -51 -7 -103t14 -96q16 -41 43 -77t62.5 -62.5t76.5 -41.5t84 -14t69.5 2.5t48 5t44.5 10t59 17.5t75 29.5t73 40.5t59.5 44.5t36.5 42.5q22 38 38.5 77t24.5 82q5 23 8 41t1 41q2 10 9.5 7.5t12.5 -11.5q6 -11 12.5 -25.5t12.5 -29.5t12.5 -29t13.5 -26q3 -11 4 -24.5
t-3 -23.5q-19 -48 -43 -89.5t-59 -74.5q-43 -43 -85.5 -73.5t-81 -51t-72.5 -33t-61 -19.5q-18 -3 -33.5 -8t-33.5 -9.5t-41.5 -7.5t-57.5 -3q-101 -1 -177 29.5t-128 85.5t-79 131t-29 166q-1 55 9 105t25.5 92.5t34.5 76t36 56.5q24 27 46 53.5t51 48.5t70 39t103 25
q61 8 108.5 5.5t85.5 -11.5t68 -23.5t56 -29.5zM390 514q0 -6 1.5 -17t6 -23t11 -23t16.5 -18q10 -6 21.5 -7.5t23 -0.5t20.5 3.5t13 3.5q26 15 44 41t25 62q3 29 4.5 60.5t-3.5 63.5q-83 8 -129.5 -29.5t-53.5 -115.5z" />
    <glyph glyph-name="A" unicode="A" horiz-adv-x="984" 
d="M752 -17q-5 1 -4.5 36t-10.5 114q-6 41 -13 89t-14.5 96t-15 92.5t-14 80.5t-11 59.5t-6.5 28.5q-1 0 -22.5 -3t-54 -7.5t-71 -10.5t-72.5 -13q-65 -13 -102 -24.5t-46 -14.5q-9 -54 -20.5 -110.5t-21.5 -104.5q-3 -16 -8.5 -41.5t-12.5 -54t-15 -57.5t-15 -53.5
t-13 -40.5t-8 -19q-8 -8 -12 -10.5t-11 -4.5q-4 -1 -15 3.5t-23 10.5l-23 11.5l-15 7.5q-8 2 -13.5 4.5t-7.5 8.5q-1 3 2.5 35t12 87.5t23 132t36.5 168.5q11 46 29.5 115.5t41 152.5t48 173.5t50 178t47.5 167t41 140.5t29 98t12 39q11 8 22 11t31 6q10 1 25.5 2t31.5 0.5
t28.5 -2.5t15.5 -6t9 -22.5t13.5 -42.5t14 -49.5t11.5 -43.5q2 -8 12 -52.5t26 -114t37 -158t45 -184.5q32 -132 68 -261.5t61 -251.5q12 -61 20 -123.5t12 -114.5t5 -86.5t1 -40.5q4 -21 -4 -30.5t-18 -9.5q-8 2 -11.5 7t-8.5 9q-16 -1 -32 -2.5l-32 -3t-32 -1t-32 4.5z
M327 643q9 2 33.5 7t56.5 11.5t68.5 14t68.5 14.5t56 13t33 9q-2 16 -8 53.5t-14 89t-19 111.5t-23 121q-9 47 -20 92.5t-20.5 84t-17.5 67.5t-11 44q-20 -69 -43 -158t-47 -186.5t-47.5 -197.5t-45.5 -190z" />
    <glyph glyph-name="B" unicode="B" horiz-adv-x="825" 
d="M505 821q30 -17 61 -36t59 -40.5t51 -44.5t37 -48t26 -57.5t18.5 -72t7 -86.5t-8.5 -100t-24.5 -96.5t-38.5 -80t-54.5 -67t-73.5 -57.5t-90 -41.5t-91.5 -21t-77 -9t-46.5 -5.5q-26 -6 -51.5 -13.5t-48.5 -10.5q-30 -3 -32 8q0 15 10.5 20t23.5 4q0 8 -1.5 40.5t-4 83
t-6 117t-7 143t-7 160t-5.5 169.5q-3 93 -4 185t-2 175.5t-1 155v124v83v30.5q2 20 -1 44t-2 42q5 12 18.5 18.5t30.5 2.5q28 4 57.5 4t56.5 -2q35 -3 65.5 -9.5t60 -17.5t60.5 -27t66 -38t65.5 -56t52 -74.5t34 -85.5t11.5 -89t-10.5 -89t-31.5 -87t-59 -79.5t-93 -67.5z
M250 890q6 -1 28 0t50 6t58 14.5t53 25.5t42.5 36t34.5 40.5t25.5 40t15.5 36.5q5 16 8.5 39.5t1.5 50t-11 53.5t-30 50t-51.5 45t-65.5 39.5t-73 28.5t-73 13q-1 -38 -2 -90t-2 -108.5t-2.5 -112t-3 -100.5t-2.5 -74.5t-1 -32.5zM288 102q75 7 122.5 18.5t78.5 27t51.5 37
t41.5 49.5q14 19 23 46.5t14.5 58.5t7 63t0 60.5t-4.5 50t-8 31.5q-7 15 -15 32t-21.5 35.5t-34 36.5t-50.5 35q-31 17 -65.5 30.5t-67.5 23t-61 13.5t-46 3q0 -15 2 -60t4.5 -106t5.5 -132t7 -138t8 -124t8 -91z" />
    <glyph glyph-name="C" unicode="C" horiz-adv-x="968" 
d="M853 1238q-22 23 -40 48t-46 42q-14 8 -31 17.5t-39 17.5t-51 12.5t-68 2.5t-71 -13t-59 -28.5t-50.5 -40.5t-44.5 -49q-21 -27 -42 -82t-36.5 -128.5t-24 -160t-4.5 -176.5q3 -90 17.5 -167t35.5 -136t45.5 -99.5t48.5 -58.5t43.5 -27.5t37 -13.5t33 -4t30.5 1t32 10
t31 20t24 20.5t10 11.5q14 10 20.5 27.5t19.5 30.5q10 0 29.5 -7.5t40.5 -17.5t39 -20.5t24 -17.5q1 -5 -1 -13q-11 -18 -23 -35t-22 -37q-21 -28 -51 -51.5t-65 -40.5t-75 -26.5t-81 -8.5q-42 1 -74 9t-58.5 21t-50.5 30t-49 37q-25 19 -51.5 65t-49 107.5t-39.5 132.5
t-22 142t-4.5 150.5t5.5 155.5t13.5 143.5t19.5 114.5t22 82.5t23.5 64.5t29 53.5t37.5 49.5t58 50.5t83 46.5t99.5 34.5t107.5 13.5t98 -9.5t80 -26.5t66 -40.5t56 -50.5q23 -30 43 -65t21 -85l-1 -2q-10 -8 -22.5 -11t-26 -4.5t-26.5 -3.5t-24 -7z" />
    <glyph glyph-name="D" unicode="D" horiz-adv-x="1040" 
d="M232 8q-5 5 -5.5 10.5t-2.5 11.5q-14 5 -18 22.5t1 36.5q-1 5 -6.5 5.5t-6.5 8.5q-3 39 -5.5 75t-4.5 70.5t-3.5 69t-2.5 71.5q-2 11 -5 54t-6.5 102.5t-7.5 128.5t-7 132.5t-5.5 114.5t-2.5 74q-1 61 -3.5 114.5t-6 103t-7 98.5t-7.5 102q0 10 13.5 13.5t22.5 -5.5l4 -4
t3.5 -7.5t2.5 -17t1 -30.5q0 -10 1 -44.5t3.5 -87t5 -118.5t6 -137.5t7 -145.5t7 -143t6.5 -128t6 -102q1 31 0 91.5t-2 138.5t-3 168.5t-3.5 181.5t-2.5 176.5t-1 154.5t1.5 115.5t5.5 58.5q5 26 39 29.5t87 2.5q13 0 42 -2.5t63.5 -7t68 -11t56.5 -13.5q22 -8 49.5 -19.5
t61 -33.5t73 -56.5t85.5 -87.5q30 -35 53.5 -83.5t40 -103t27.5 -111t18 -106.5t9.5 -90t2.5 -62q-6 -132 -32.5 -242t-67.5 -195.5t-95.5 -145.5t-116.5 -92q-42 -21 -88.5 -39t-93 -31.5t-89.5 -23t-77.5 -14t-58 -3.5t-29.5 8zM329 1415q0 -22 1.5 -80.5t4.5 -140.5
t7 -181t8.5 -202.5t9.5 -205.5t9 -189t7.5 -153t5.5 -98q20 2 36.5 4t34 5.5t38 9t47.5 15.5q27 9 56.5 26.5t60 44t59.5 61.5t55 80q25 45 42 101.5t24.5 120.5t4.5 133.5t-18 141.5q-14 72 -42 147.5t-72 142.5t-105 118.5t-141 74.5q-42 12 -73.5 17.5t-59.5 9.5v-3z" />
    <glyph glyph-name="E" unicode="E" horiz-adv-x="852" 
d="M279 1360q-4 -23 -6 -68.5t-2.5 -101.5t-0.5 -116t1.5 -110.5t3 -86t4.5 -41.5q26 0 67 1t88.5 1t95.5 0.5t87 -0.5t65 -2.5t28 -5.5q8 -15 9 -34t-1.5 -38.5t-7 -38.5t-7.5 -34q-4 -10 -16.5 -14t-29.5 0q-12 2 -39.5 3.5t-63 3t-76.5 2t-79.5 0.5t-71 -1t-51.5 -2
q0 -8 1 -39.5t3 -77t4 -101t4.5 -110.5t4.5 -105t4 -86q120 4 245 5t253 6q12 -2 18 -15t7.5 -31t-1 -37.5t-8.5 -34.5q-7 -20 -45.5 -29.5t-92.5 -13.5t-117 -3.5t-118.5 2t-96.5 2t-52 -3.5q-7 -3 -21.5 -3.5t-31.5 -0.5t-33.5 1t-27.5 2q-6 1 -14 4t-16 17
q-8 13 -12 40.5t-1 53.5q3 13 7.5 15.5t11.5 3.5q-1 16 -2 61t-2.5 103.5t-2.5 124t-2.5 122.5t-2 97.5t-0.5 49.5q0 11 -1 50.5t-1.5 96.5t-1.5 127t-1 141.5t0.5 140t2 123.5t4 90.5t7.5 42.5q6 10 12.5 12.5t13.5 3.5q12 0 37 -0.5t53.5 -1t54 -1.5t39.5 -2
q25 0 73.5 0.5t102.5 0.5t103.5 -1.5t76.5 -4.5q17 -4 24.5 -12.5t3.5 -21.5q-3 -18 -5.5 -39.5t-6 -41t-9.5 -34t-18 -18.5q-16 -6 -36.5 -4t-40.5 7q-7 2 -32 3t-59.5 2.5t-74.5 2t-76.5 1t-65 1t-39.5 0.5z" />
    <glyph glyph-name="F" unicode="F" horiz-adv-x="617" 
d="M288 1256q-1 -32 -1.5 -80t-1 -102t-1 -109.5t-1 -102.5t-1 -80.5t-1.5 -42.5q36 0 74 3t75 5q13 -2 25.5 -3.5t17.5 -12.5q1 -6 3 -24.5t1.5 -39.5t-4 -39t-13.5 -23q-15 -6 -43 -9.5t-56.5 -5.5t-52 -2.5t-28.5 -1.5q-1 -33 -2 -90.5t-2 -124.5t-2 -137t-2.5 -128
t-3 -96t-3.5 -42q-8 -1 -16.5 -1.5t-14.5 1.5q-5 5 -5 13q-20 0 -38.5 -2.5t-39.5 -2.5q-13 0 -16.5 13.5t-4.5 30.5q0 12 0.5 39.5t0.5 63t0.5 75t0.5 77.5v69.5t1 51.5v78.5t1 121.5t2.5 149.5t3 163t3.5 161.5t4 144t3.5 111.5t3.5 64.5q5 43 48 40q36 -3 81.5 -1.5t93 2
t92.5 -2t81 -12.5q4 -2 5 -8t1 -12.5t-0.5 -13.5t-0.5 -10q0 -34 -2 -54t-5.5 -30.5t-8.5 -13.5t-11 -4q-25 -3 -60.5 -4t-69.5 0t-62 1.5t-38 0.5q-3 -1 -6.5 -3t-3.5 -9z" />
    <glyph glyph-name="G" unicode="G" horiz-adv-x="952" 
d="M218 702q3 -47 7.5 -81.5t13.5 -69t22.5 -74t33.5 -94.5q20 -56 56.5 -102t80.5 -76.5t90.5 -43.5t87.5 -3q82 20 127.5 96t40.5 210q-18 -1 -47.5 -2.5t-54.5 -4.5q-10 -2 -15 11.5t-6.5 32t0.5 37.5t5 30q12 6 44 14t67.5 15t68 11t46.5 3q7 -3 11.5 -21t7 -43
t2.5 -54.5t-1 -56.5t-3 -48.5t-4 -29.5q-6 -54 -22.5 -96t-35.5 -85q-8 -17 -27.5 -40t-53 -45.5t-82.5 -39.5t-115 -21q-67 -4 -136 24t-131.5 88.5t-114.5 153.5t-83 219t-36 233t7 197t35 165t48 137t63.5 110.5t81.5 83t85.5 54.5t75.5 25q40 6 85.5 2t89.5 -21
t84 -48.5t69 -79.5q5 -7 7.5 -13t-2.5 -12q-5 -9 -15.5 -23.5t-22.5 -28t-22 -24t-13 -11.5q-7 -2 -11 1t-9 10q-9 15 -17.5 28t-19.5 25t-25.5 23t-35.5 22q-21 10 -41.5 15.5t-43 3.5t-49.5 -12t-60 -30q-46 -28 -78 -78t-53.5 -111t-33.5 -128.5t-18 -130t-6.5 -115
t1.5 -83.5z" />
    <glyph glyph-name="H" unicode="H" horiz-adv-x="987" 
d="M272 1695q2 -4 3.5 -38.5t1.5 -89v-123.5t-1 -142t-2 -144t-1.5 -130t-1.5 -99.5t-1 -52.5q16 0 45.5 1t65 3t73.5 3.5t71 1.5q70 0 113.5 -5t62.5 -3q1 20 2 61t1 95.5t-0.5 117.5t-1 127t-1.5 124t-1.5 108.5t-0.5 80.5v39q1 6 3 8.5t7 4.5q7 2 28.5 3.5t44.5 1
t41.5 -4t18.5 -10.5q0 -5 1 -32t2.5 -70t3.5 -99.5t4 -122t3 -136.5t1 -143q0 -86 -2.5 -169t-5 -154t-5 -124t-2.5 -79q0 -14 0.5 -43.5t0.5 -68t0.5 -82t0.5 -84t-0.5 -74.5t-1.5 -54q-13 -9 -28.5 -14t-32 -9t-32 -8.5t-27.5 -13.5q-7 -4 -15 2t-8 14q0 10 0.5 41t1 75
t1 98t1.5 111t1.5 112t1.5 102t2 82t2 50q-13 -1 -45.5 -1t-75 -0.5t-90.5 -1t-93.5 -0.5t-82.5 -0.5t-58 -0.5q-1 -35 -1.5 -93.5t-1.5 -127.5t-1.5 -143t-1.5 -139.5t-2 -116.5t-2 -75q0 -6 -7.5 -12t-19 -11t-24.5 -9.5t-23 -8.5q-6 -3 -14 -6t-15 -4.5t-12.5 0t-7.5 8.5
q-1 18 -1 75.5t-0.5 143.5t-0.5 195t0.5 228t0.5 242.5t0.5 239.5t1.5 219t1.5 180.5t1.5 124t2 49.5q11 10 28.5 13t36 1.5t37 -6t32.5 -8.5z" />
    <glyph glyph-name="I" unicode="I" horiz-adv-x="624" 
d="M550 1492q-33 -14 -71 -21.5t-73 -16.5q0 -4 -1.5 -41t-4.5 -98t-6.5 -141t-7.5 -170t-8 -185.5t-8 -187t-7 -175t-5.5 -149.5t-4 -109.5t-1.5 -56.5q26 -8 57.5 -9.5t56.5 -9.5q5 -2 2 -16q-3 -17 -5.5 -31t-5.5 -30q-2 -16 -6.5 -32.5t-12.5 -17.5q-72 5 -145 6.5
t-147 -0.5q-37 0 -57 6.5t-18 21.5q5 22 6 44.5t0 42.5q-1 5 3 10.5t9 7.5q29 10 59 11t60 -1q1 7 4 46.5t6 103t6.5 145.5t7.5 173.5t8 187t7.5 186t7 171.5t6 142t4 97.5t1.5 39.5q-38 -6 -76.5 -14.5t-78.5 -3.5q-8 5 -14 13.5t-7 36.5q0 29 10.5 46.5t24.5 32.5
q20 8 55 15.5t76 15t84 14t79.5 12t63 10.5t34.5 8q14 4 24 5t13 -7q8 -25 6.5 -49.5t2.5 -52.5q1 -10 -0.5 -15.5t-12.5 -10.5z" />
    <glyph glyph-name="J" unicode="J" horiz-adv-x="751" 
d="M768 1390q-66 -8 -137 -13t-143 -3q0 -2 0.5 -34.5t1 -85t1.5 -119t1.5 -136.5t1.5 -138t1.5 -122.5t0.5 -90.5t-1 -43q-2 -102 -5.5 -169.5t-8.5 -93.5q-4 -25 -11.5 -52.5t-14.5 -47.5q-4 -10 -10.5 -25t-17 -31t-25.5 -32t-36 -27q-21 -12 -45 -18t-48 -7t-46 2t-38 9
q-32 14 -42 31t-19 39q-4 28 5 63t21 64q5 7 12 6t14 -6.5t14.5 -12.5t13.5 -11t12 -7.5t13.5 -5t18.5 -1t29 4.5t30 16.5t19 31t10 40.5t3 46q2 93 3 177.5t1 172.5q0 26 -1.5 78t-3.5 115.5t-5 132t-5.5 128t-5 101.5t-3.5 54q-11 -1 -40.5 1t-66 6t-73.5 9t-62 10
q-22 4 -51 11.5t-42 19.5q-7 6 -11 21t-5.5 33t-0.5 35t6 26q9 17 23 20t28 2q3 0 33 -1.5t77.5 -4t107.5 -5.5t124.5 -6.5t128 -6.5t118 -6t94.5 -5.5t57 -3.5q12 -3 13 -16q-1 -17 -0.5 -37t0 -38t-3 -30.5t-9.5 -13.5z" />
    <glyph glyph-name="K" unicode="K" horiz-adv-x="890" 
d="M274 1542q7 -5 3 -11t-3 -14l15 -6t7 -7t1 -11.5t3 -11.5q0 -2 0.5 -29.5t1.5 -70.5t2 -98.5t2.5 -114t2.5 -116.5t2.5 -107t2.5 -84.5t2 -49.5q5 7 22.5 34.5t43 69t57 93.5t65.5 108t67.5 111.5t64 105t55 88.5t39.5 62q5 7 10.5 10t13.5 -1q10 -8 26 -25t30.5 -35.5
t24 -34.5t6.5 -22q-3 -8 -20 -37.5t-43.5 -73t-60 -97t-68 -108t-68 -107t-60 -94.5t-44.5 -69t-21 -31q6 -10 36 -49t73 -94t94.5 -120t101 -125.5t92.5 -109.5t69 -74q7 -1 10 -5t2 -9t-4 -10t-8 -6q-25 -1 -48.5 -3.5l-47 -5t-47 -3t-48.5 2.5q-11 17 -39 55t-64 86
t-76 101.5t-75.5 100.5t-61.5 83t-35 50q-16 -15 -29.5 -32t-27.5 -34q1 -46 1 -97t-0.5 -102t-2 -100.5t-1.5 -93.5q-2 -4 -6 -6.5t-7 -5.5q-1 -11 -11 -17.5t-22 -8.5q-23 -3 -47.5 -3t-47.5 -8q-5 -1 -9 -1t-8 4q-4 5 -4.5 8t-0.5 8q-1 21 -1 56v75.5t0.5 83.5t0.5 80
v64.5v37.5q-3 5 -9.5 8t-12.5 6t-10.5 7t-4.5 11q0 5 0.5 9t3.5 9q6 9 14 20t17 19q1 17 0.5 63.5t-1 111t-1.5 141.5t-2.5 156t-3 154t-2.5 135.5t-1 100.5v49q29 8 61 12t69 -1z" />
    <glyph glyph-name="L" unicode="L" horiz-adv-x="795" 
d="M268 1695q9 -41 10.5 -85t0.5 -89.5t-2 -92.5t4 -93q3 14 6 43t5.5 64.5t5 74.5t4 73t2.5 59.5t1 35.5q10 4 16.5 4.5t14.5 -3.5q5 -6 5 -16.5t-2 -24.5q-10 -113 -17.5 -215t-8.5 -202q-4 -41 -5.5 -112.5t-3 -160.5t-2 -188t-1.5 -196t-2 -185t-4 -153q38 2 81.5 4.5
t87 4t85 2.5t75.5 2t57.5 1h30.5q23 -2 41.5 -1t41.5 -2q12 -3 14 -12q0 -5 -3 -27.5t-7.5 -48.5t-9 -48t-5.5 -25q-2 -14 -13 -16h-54h-114h-144t-144 -0.5t-114 -0.5h-54q-8 -1 -12 6.5t-4 18.5q-1 15 0 67t2.5 130.5t4.5 178t6 209.5t6.5 225t6.5 224t5.5 206.5t4.5 173
t2.5 123.5t-0.5 57q6 8 21.5 11.5t32.5 4t30 -1t15 -4.5z" />
    <glyph glyph-name="M" unicode="M" horiz-adv-x="1014" 
d="M878 67q-1 -5 -20 -10.5t-42.5 -9t-44.5 -4.5t-26 4l-2.5 5t-2.5 7q2 10 2.5 51.5t1 103.5t0 139t-1 158.5t-1.5 163t-2 152t-2 124.5t-2 81q-33 -90 -61.5 -162t-53.5 -133t-47.5 -115t-42.5 -109q-4 -14 -10 -22.5t-18 -6.5q-13 5 -19.5 13.5t-9.5 21.5t-4 29.5
t-3 36.5q-3 34 -12 90.5t-25 132.5t-40 168t-57 196q-5 -32 -10 -88t-9.5 -126.5t-8.5 -152.5t-8 -165t-7.5 -164t-7.5 -150t-8 -122t-8 -81q-7 -4 -10 -12t-5 -17.5t-4 -18.5t-7 -15q-16 -7 -34.5 -6t-38.5 -1q-19 -1 -35 2.5t-15 12.5q6 49 8 96t6 95q5 76 12 170
t15 197.5t16 211t16.5 209t17 193t16 163t14.5 118t12 58.5q5 11 16.5 17.5t27.5 1.5q13 -4 24 -28q7 -14 21 -50.5t32 -85.5t37.5 -103.5t36.5 -102.5t30 -84.5t17 -49.5q2 -7 6.5 -16t7 -17.5t1 -15.5t-11.5 -10q10 -38 24 -74.5t26 -77.5q2 6 14.5 47t32 102.5t43 136
t47.5 148t45.5 138t36.5 105.5q12 38 22 58t31 19q9 0 14 -7t9 -30t6.5 -67t6.5 -118q0 -6 1.5 -35t3.5 -72.5t5 -98.5t6 -113.5t5.5 -117t4 -108.5t2 -89t-0.5 -58q2 -167 3 -287t1 -199.5t-1.5 -120.5t-3.5 -49z" />
    <glyph glyph-name="N" unicode="N" horiz-adv-x="1013" 
d="M883 1531q0 -14 -1.5 -70.5t-3 -141t-4 -188.5t-5 -213t-5.5 -215t-5.5 -193.5t-4.5 -149t-3 -81.5q-3 -40 -4 -68t-2.5 -51.5t-4.5 -46t-9 -50.5q-5 -18 -15 -20.5t-18 6.5q-16 22 -28.5 41.5t-32.5 50.5q-8 14 -31 54.5t-55 98.5t-71 127.5t-78.5 141t-77.5 140
t-68.5 124t-51 92.5t-24.5 46q1 -18 1.5 -64t0.5 -109.5t-1 -140t-2 -155t-2.5 -154t-2.5 -137t-2 -104t-2 -55.5q-1 -11 -2 -20t-6 -16t-15.5 -11.5t-29.5 -7.5q-9 -2 -17 -2.5t-17.5 -1.5t-22 -1.5t-30.5 -0.5q0 55 0.5 138.5t1 184t1.5 211.5t2.5 221t4 213.5t5.5 188
t6.5 144.5t8.5 84q2 11 14.5 14.5t26.5 -5.5q9 -6 34 -40.5t59 -88t75.5 -121t84.5 -139t85 -142t77 -129.5t61 -102t37 -59q0 90 1 197.5t2.5 222t4 230.5t6.5 223q1 10 1.5 23t1.5 26.5t3 25.5t6 20q6 7 18 10t27 3.5t31.5 0.5t31.5 1q35 2 35 -10z" />
    <glyph glyph-name="O" unicode="O" horiz-adv-x="1212" 
d="M827 1509q31 -18 73 -57t82 -94.5t71.5 -125.5t43.5 -149q11 -80 17.5 -143t7 -122t-5 -120.5t-17.5 -136.5t-36 -137.5t-51 -110.5t-54 -82t-45 -52q-12 -12 -42.5 -29t-72.5 -33.5t-92.5 -29.5t-102.5 -17t-103 4.5t-94 34.5q-64 39 -106 79t-68.5 80.5t-40.5 80.5
t-23 78q-16 91 -35 186t-31 192q-8 33 -8.5 71.5t-2.5 73.5q-2 66 7 130t25.5 119.5t39 101.5t48.5 76q25 30 55 62t65.5 60t78 49t92.5 30t95.5 6t86 -13.5t76.5 -27t67 -34.5zM855 355q-11 8 -7 22.5t21 31.5q6 10 23 35t35 75t31 130t10 200q-2 85 -8 143t-17.5 100
t-29 75.5t-41.5 69.5t-61.5 71t-84.5 60t-101.5 36t-113.5 -1t-104 -49t-75.5 -84.5t-46.5 -98.5t-17 -90q5 0 11.5 -0.5t7.5 -6.5q-5 -24 -6.5 -51t-6.5 -44q-1 -3 -2.5 -20.5t-2.5 -44.5t-1.5 -61.5t0 -72t3.5 -75t8 -70.5q2 -15 5.5 -40t9 -56.5t13.5 -66.5t19.5 -68.5
t26.5 -63t35 -49.5q19 -20 44.5 -39t58.5 -34t73.5 -23t90.5 -5t86.5 20t62.5 42t43 53t27 52q-3 -2 -8.5 -2.5t-10.5 0.5z" />
    <glyph glyph-name="P" unicode="P" horiz-adv-x="662" 
d="M233 1527q2 5 9 8t14 3t12.5 -3.5t4.5 -10.5q13 6 24.5 1.5t12.5 -18.5q11 -2 21.5 -5t30.5 -11q34 -14 68.5 -35t64 -50t52 -67.5t32.5 -87.5q14 -66 19.5 -119.5t1.5 -107.5t-19 -115t-42 -114q-39 -74 -80 -122t-77 -77.5t-64 -43t-42 -17.5q-1 -21 -4 -66.5t-7 -100
t-8.5 -112t-7.5 -103.5q0 -64 -3 -85t-19 -15q-2 -9 -18.5 -14t-35.5 -5t-35 4.5t-17 13.5q0 3 3 63.5t7.5 158.5t11 222t13 253.5t12.5 253.5t11.5 222t8.5 158.5t3 63.5v69q2 15 13 19q9 2 15 0t14 -8zM285 707q16 4 29.5 9.5t25.5 14t25 21t28 30.5q32 38 49.5 72
t27.5 62q7 24 12 57t6 68.5t-1.5 69.5t-9.5 61q-11 41 -25.5 72.5t-34 55t-44.5 40.5t-57 29q-1 -13 -3.5 -59t-5.5 -110t-6.5 -138t-6.5 -143t-5.5 -126t-3.5 -86z" />
    <glyph glyph-name="Q" unicode="Q" horiz-adv-x="986" 
d="M777 1315q37 -79 56.5 -140.5t30.5 -119.5q11 -59 17 -130t8 -144q1 -24 -0.5 -59.5t-4 -76.5t-6.5 -84.5t-9.5 -84t-11 -75t-11.5 -57.5q-9 -35 -17.5 -60t-18.5 -47t-23 -43t-31 -46q25 -27 49 -52.5t43.5 -48t34 -40t22.5 -27.5q8 -11 14 -22.5t6 -16.5q0 -6 -2 -16
t-15 -7q-13 -1 -25 -4.5l-24 -7t-24 -4.5t-24 3q-13 21 -27 37.5t-29.5 31t-32.5 28t-35 29.5q-16 -20 -30 -34.5t-34 -25t-49.5 -18t-75.5 -13.5q-47 -6 -87 2t-73.5 26t-61 44.5t-48.5 57.5q-42 63 -66 130.5t-33 121.5q-10 54 -25 155.5t-13 244.5q1 71 13 145.5
t30 142.5t39.5 124t42.5 91t38.5 65t40 55.5t53.5 47.5t79 40q48 19 101.5 17.5t102.5 -18t88.5 -47t57.5 -70.5zM761 685q-3 57 -12 123t-19.5 125.5t-20.5 103.5t-14 58q-9 27 -23.5 55.5t-33 52.5t-39.5 41.5t-44 22.5t-54 1t-65.5 -24t-69 -59.5t-64.5 -105.5
q-20 -44 -32.5 -100.5t-19 -119.5t-8.5 -128.5t0 -126.5t7 -114t12 -90q11 -56 25 -96.5t30.5 -71t36 -56t41.5 -51.5q6 -7 13 -14t-3 -14q21 -8 45.5 -9.5t48.5 2.5t45.5 13.5t36.5 25.5q-5 11 -19 29.5t-29 37.5t-28 35.5t-17 22.5q-5 6 -9 15t5 17q-5 9 -10.5 17t-8.5 19
q10 8 26 19.5t32 21t29.5 14.5t19.5 0q35 -23 55.5 -50t40.5 -57q27 35 46 83t31 103t16 113.5t1 115.5z" />
    <glyph glyph-name="R" unicode="R" horiz-adv-x="786" 
d="M439 528q15 -20 28.5 -40.5t29 -45.5t33.5 -56.5t41 -73.5q24 -44 45.5 -88t39.5 -82t31.5 -66t20.5 -38q12 -17 8 -31t-26 -10q-8 1 -24.5 2t-35 1t-34 0.5t-20.5 1.5t-10 5.5t-7 10.5q-9 20 -24.5 54.5t-34.5 75.5t-41.5 85t-44.5 83q-38 67 -73 108.5t-49 61.5
q2 -56 1.5 -108.5t-1.5 -105.5t0.5 -107t8.5 -113q-13 -13 -33 -16q-1 -8 1 -16t-2 -16q-26 -6 -56.5 -2.5t-59.5 -0.5q-5 -2 -6.5 1.5t-2.5 7.5q-1 15 0 50t3 78.5t4 91t4.5 89t4 70.5t1.5 36q1 18 1.5 58t1 94.5t0 120t-1 134.5t-1.5 137.5t-3 129.5q-2 51 -5 94t-7 75
t-7.5 51.5t-5.5 23.5q-1 10 1 14.5t12 4.5q1 2 0.5 4.5t1.5 4.5q9 8 20 7.5t27 -1.5q66 1 131.5 -8.5t123.5 -29t105 -48.5t77 -66t49 -77t30 -80t14.5 -78.5t1.5 -73.5t-12 -73.5t-25.5 -74.5t-34.5 -67.5t-38 -53.5q-19 -23 -40 -39t-43.5 -29.5t-45.5 -25.5t-47 -25z
M457 699q54 38 84.5 73.5t39.5 63.5q6 18 10 34.5t5.5 34t0.5 39t-4 50.5t-17 62t-34.5 62.5t-44.5 52.5t-46 33q-45 20 -84.5 24.5t-70.5 2.5q-2 -6 0.5 -11.5t5.5 -10.5q-2 -148 -6.5 -292t-2.5 -297q22 7 40.5 13.5t37 14.5t39 20t47.5 31z" />
    <glyph glyph-name="S" unicode="S" horiz-adv-x="756" 
d="M549 1190q-8 34 -20.5 69.5t-31.5 64t-44 46t-57 15.5t-53.5 -13.5t-35.5 -28.5t-21.5 -36.5t-10.5 -37.5q-8 -54 -1.5 -103.5t17.5 -91.5q5 -21 11 -36t13.5 -28.5t16 -28.5t19.5 -36t43.5 -65.5t70 -102t72.5 -123.5t50 -132q15 -65 20 -123.5t-2.5 -112t-28 -104.5
t-57.5 -101q-17 -24 -40.5 -43t-50 -32.5t-54.5 -20.5t-55 -6q-26 1 -52.5 6.5t-50.5 15t-44 24t-32 33.5q-26 37 -34.5 70.5t-12.5 67.5q-2 17 -2.5 39t1 45t5 45t8.5 39q19 6 37.5 16t33 17.5t24.5 7.5t14 -14q2 -49 1.5 -93.5t14.5 -89.5q7 -23 18.5 -43t25.5 -34.5
t29.5 -22.5t32.5 -6q33 4 48.5 17t28.5 28q15 24 26.5 53t19 60.5t9 64.5t-3.5 65q-3 18 -5.5 34t-7 33t-12.5 38.5t-23 51.5q-16 31 -43 70.5t-58 83.5t-60.5 90.5t-49.5 92.5q-38 85 -56 150t-24.5 113t-4.5 79.5t5 49.5q4 26 18.5 73.5t44.5 95.5t78 84.5t121 41.5
q48 3 86 -8.5t66.5 -31t48.5 -44t33 -48t19.5 -43t8.5 -28.5q6 -27 10.5 -61.5t5.5 -83.5q1 -9 -1.5 -16t-10.5 -12t-24.5 -8t-43.5 -4q-10 -2 -22 0t-14 7z" />
    <glyph glyph-name="T" unicode="T" horiz-adv-x="656" 
d="M557 1540q6 -10 7.5 -23t0.5 -27.5t-2.5 -29.5t-1.5 -28q-2 -9 -9.5 -13t-15.5 -6q-4 -1 -23.5 0t-42.5 2.5t-43 3t-26 2.5q-1 -11 -1.5 -65.5t-0.5 -138.5v-189v-215v-218v-198.5t-0.5 -155t-0.5 -87.5q-1 -9 -6 -12t-11 -3.5t-12 -0.5t-7 -3q-4 -8 -0.5 -15.5
t-2.5 -18.5q-3 -4 -13 -9t-22.5 -9t-26.5 -6.5t-25 -0.5q-19 1 -24 9.5t-3 36.5q1 33 2.5 105.5t2.5 168.5t2 208t2 225t1 218.5v188.5v135.5t-1 59.5q-18 -1 -39.5 -3t-41 -4.5t-35 -5t-21.5 -3.5q-6 -2 -10.5 6t-7.5 20t-5 24t-3 20q-2 14 6.5 29t16.5 19t33 6.5t50 5.5
q8 1 30.5 2t51 1t61 0.5t60 0.5h48t25.5 -1q15 -2 39.5 -1t44.5 -7z" />
    <glyph glyph-name="U" unicode="U" horiz-adv-x="1089" 
d="M955 1594q0 -8 -2 -14.5t-2 -15.5q0 -13 1 -56.5t2 -103t2 -128t1.5 -131t0.5 -112t-1 -70.5q-1 -32 -3 -72t-4.5 -82l-5 -84t-4.5 -79q-3 -46 -10 -96t-15.5 -96.5t-18 -85.5t-16.5 -62t-15.5 -43.5t-19 -40.5t-24 -41t-31.5 -45q-17 -25 -41.5 -47.5t-53.5 -40.5
t-61 -30t-64 -15q-65 -6 -129.5 12.5t-138.5 72.5q-36 27 -63 67t-46 89t-31.5 104t-20.5 112q-2 24 -3.5 52t-1.5 65q0 10 -0.5 51.5t-1 102t-1 135.5t-1 152t-1 151t-0.5 133.5v99v47.5q8 15 20 19.5t29.5 2t40 -8.5t52.5 -12q2 -1 4 -41t4.5 -105.5t4.5 -149.5t4 -173
t4 -176t3.5 -158.5t2.5 -120t1 -60.5q4 -66 20 -120.5t44 -90.5q14 -18 31.5 -34.5t41.5 -27.5t55 -16t72 1q42 5 72 26.5t51.5 52.5t35.5 69t24 77q10 38 19.5 83t17 92.5t13 94.5t7.5 90q5 85 5 179.5t3 183.5q1 28 1.5 68.5t0.5 86t-1 91.5t-2 85t-2.5 66t-2.5 35
q-1 6 -1 15t8 13q25 10 56 12.5t60 7.5q11 2 18 -1t7 -11z" />
    <glyph glyph-name="V" unicode="V" horiz-adv-x="747" 
d="M716 1470q1 -3 -5.5 -49t-18 -122t-28 -176.5t-37 -213.5t-43 -232.5t-46.5 -233.5q-28 -131 -59 -248t-64 -211q-11 -41 -26 -56t-26 -14q-14 1 -28 30.5t-28 77t-27.5 106.5t-26.5 119q-7 30 -19 92t-27 144t-32.5 177.5t-35 191.5t-34 187.5t-29.5 165t-21.5 123.5
t-10.5 63q-4 14 -11 22.5t2 21.5q5 8 18 7.5t18 -1.5q3 0 11.5 1t18.5 3t19.5 4t14.5 3q9 2 17 0t10 -11t11.5 -60.5t25 -130t34.5 -176.5t38.5 -200.5t39 -201.5t35 -180.5t26 -137.5l13.5 -72q3 10 12 60.5t21.5 127t28 171.5t31 194t30.5 195t27.5 175t21 132.5
t10.5 68.5q6 12 8.5 27.5t13.5 26.5q23 4 50.5 5t52.5 11q4 -2 8.5 -0.5t9.5 -0.5q1 -3 6 -5z" />
    <glyph glyph-name="W" unicode="W" horiz-adv-x="1185" 
d="M1020 1483q13 -2 28.5 -2t28.5 -0.5t22.5 -2.5t11.5 -7q2 -3 1.5 -4t-0.5 -3q7 -4 9 -8q3 -3 3.5 -14t-1 -26.5t-4 -35t-5.5 -38.5q0 -2 -5.5 -27.5t-15.5 -70.5t-23.5 -105.5t-30 -131.5t-35 -150t-38.5 -160q-23 -95 -46.5 -189t-46 -180t-42 -161t-34.5 -131.5
t-24.5 -90.5t-11.5 -38q-7 -13 -27 -9q-8 1 -16 17t-16 40t-15.5 52t-13.5 54q-4 17 -13 57t-20.5 96t-25.5 126t-27.5 148t-26 161t-21.5 165q-38 -180 -67 -318t-52 -243t-42 -183.5t-38 -140.5q-2 -4 -5.5 -7.5t-12.5 -7.5q-10 -2 -26 -5.5t-23 -4.5q-13 -2 -24 10t-8 29
q-2 13 -8 59.5t-14.5 117t-19.5 160t-23 188t-24.5 201.5t-24.5 200.5t-23 184.5t-19.5 153.5t-14 108t-7.5 48.5q-2 8 -2.5 14.5t6.5 10.5q27 11 55 18t61 1q5 -2 8 -4.5t5 -10.5q2 -10 8 -54t14.5 -109.5t18.5 -147t21 -166.5t21 -168t19 -151t15 -116t8 -63q1 1 8.5 36.5
t19 93t26 130.5t29 149.5t29 151t25.5 134t18.5 98t8.5 43.5t5 9.5t13 2.5q2 5 4.5 9t7.5 5q10 1 24 -4q7 -2 11.5 -6.5t6.5 -18.5q13 -43 34 -119.5t47.5 -178t57.5 -223t63 -254.5q5 18 16.5 67.5t28 118.5t35.5 152.5t38.5 169.5t38 168.5t33.5 150t25 114.5t13 62
q2 8 12 7t21 -3z" />
    <glyph glyph-name="X" unicode="X" horiz-adv-x="652" 
d="M245 1482q2 -8 11 -40.5t20.5 -77.5t24 -96.5t24 -98.5t19 -83t9.5 -49q8 28 18 67t20.5 80.5t20.5 83t18 75.5t13 56t6 26q3 12 8 18.5t13.5 9.5t22 4t33.5 2q41 2 56 -2.5t7 -21.5q-1 -4 -8.5 -28.5t-19.5 -63t-26.5 -87t-30.5 -100.5l-32 -104t-30 -97t-25 -80
t-17 -53q6 -25 18 -70t27 -103t31.5 -123.5t33 -131.5t31 -126.5t25.5 -108.5t16.5 -79t3.5 -36q-4 -10 -22.5 -14.5t-39.5 -4.5t-38 2.5t-17 6.5q-5 18 -16.5 61.5t-26 98.5t-30.5 114.5t-29.5 111t-23 87.5t-11.5 43q-5 -15 -16 -59t-25.5 -102.5t-30 -123.5t-31 -120
t-28.5 -93.5t-21 -43.5q-5 -3 -10.5 -4t-25.5 -5q-22 -2 -39 -2.5t-28 3.5t-14.5 14t1.5 28q5 21 19.5 72.5t35 119.5t44 145t46 150t41 135t28.5 99q-5 24 -20 83t-34 134.5t-40 157.5t-39 152t-30 118t-12 55q-1 21 20.5 29t54.5 19q34 11 46.5 2.5t20.5 -31.5z" />
    <glyph glyph-name="Y" unicode="Y" horiz-adv-x="901" 
d="M883 1484q6 1 -5 -34.5t-34 -95.5t-54.5 -137.5t-66.5 -160.5t-69.5 -165t-63.5 -150t-49 -116t-26 -63q-1 -15 -3 -48.5t-4 -76.5t-4 -90.5t-4 -90t-3.5 -74.5t-1.5 -45q3 -29 7 -56.5t-2 -53.5q-2 -6 -11.5 -8t-23 -2t-28.5 1t-28 1q-21 -4 -35 -3t-15 11q-1 28 -2 79
t-2.5 112t-2.5 126.5t-2 121.5t-2 97t-1 54q-2 9 -8 35.5t-16 65.5t-23 88.5t-29 103.5q-24 81 -51 167.5t-52 164.5t-46 140.5t-31 95.5q-2 6 5.5 10t18.5 6q12 2 26.5 1.5t25.5 1.5q5 1 12 4t14.5 5.5t14.5 3.5t12 -3q10 -8 14.5 -20.5t9.5 -28.5q9 -32 28 -90.5
t41.5 -128.5t46.5 -144t44.5 -136t35 -105t17.5 -51q5 9 17 35t29 63t36.5 82.5t39.5 94.5q26 66 51.5 133t45.5 123t33.5 93.5t16.5 45.5q4 14 14 14q37 -5 73 -5t70 2z" />
    <glyph glyph-name="Z" unicode="Z" horiz-adv-x="824" 
d="M791 1544q7 -8 -4.5 -49.5t-35.5 -107t-58.5 -150t-74.5 -179t-83.5 -194t-85.5 -193.5t-80 -179t-67.5 -150t-48 -106t-20.5 -48l23 -1.5t61 -4t86 -5.5t98.5 -6t99 -6.5t87.5 -6t64 -5t28 -3.5q2 -1 3.5 -2.5t1.5 -6.5q-1 -23 -4 -43t-3 -44q-2 -30 -29 -30q-7 0 -40 1
t-82 3t-110 4.5t-124.5 6t-124 7t-110 7.5t-82 8.5t-39.5 8.5q-8 5 -7 14.5t4 16.5q6 12 29.5 68t58.5 140.5t78.5 190.5t89.5 218t91.5 222t83.5 203.5t66 162.5t40 99q-21 0 -61 -0.5t-90 -1t-104.5 -1.5t-104.5 -1.5t-91 0t-62 2.5q-14 1 -16.5 10.5t0 23.5t6.5 32t4 35
q-2 8 5.5 12t27.5 5q21 1 62 2.5t94 4t113.5 5l121 5t117 4.5t100 3t70 1t28.5 -2z" />
    <glyph glyph-name="bracketleft" unicode="[" horiz-adv-x="629" 
d="M305 1187v-54.5v-98t-0.5 -127t-1 -141t-1 -139t-1 -122t-1 -91t-1.5 -43.5q1 -7 1.5 -30t0 -54t-1.5 -65.5t-1.5 -64.5t-0.5 -50.5t1 -23.5q4 -2 19.5 -2.5t35 -0.5t39.5 -0.5t32 -1.5q9 -1 22 2.5t25 4t20.5 -5t8.5 -23.5q1 -11 4 -20.5t6.5 -19.5t5.5 -21t2 -24
q-1 -8 -6 -10.5t-13 -4.5q-7 -3 -30 -5.5t-54.5 -6t-66.5 -6t-67 -5t-56 -4t-33 -2.5q-8 0 -13 6t-7 15q-2 60 -7.5 113.5t-2.5 112.5q0 27 0.5 82.5t0.5 125t-0.5 144.5t-0.5 141.5t-0.5 116.5t-0.5 69q-1 61 -1 119.5t0.5 106.5t1.5 81t1 41q0 16 1 41.5t3 54.5t3.5 58.5
t3.5 55.5t3.5 45t2.5 27q2 14 3.5 27t3.5 26q1 5 13.5 9t32 7t42.5 5.5t44 4t37.5 2.5t22.5 1q9 1 23.5 2.5l29 3t26 2.5t14.5 0q6 -2 8 -4.5t7 -8.5q2 -3 4 -12t3 -20.5t1 -23.5t-2 -21q-3 -12 -6 -25t-9 -23.5t-16 -16.5t-27 -4l-16.5 0.5t-39 0.5t-47 -1.5t-42.5 -6.5
q1 -8 3.5 -33.5t5 -57.5t4.5 -67t2 -62z" />
    <glyph glyph-name="backslash" unicode="\" horiz-adv-x="615" 
d="M78 1413q11 10 23.5 4.5t19.5 -15.5q7 -11 11.5 -19.5t9.5 -17.5t11.5 -20t15.5 -28q13 -26 28.5 -61.5t30.5 -71t27.5 -66.5t19.5 -48q10 -27 18 -49t14.5 -41t13 -35.5t12.5 -34.5q4 -16 13 -44t23.5 -73t34.5 -110.5t47 -155.5q11 -37 20 -66t17.5 -56t17.5 -55
t20 -64q11 -38 26 -74t22 -71q4 -19 -9.5 -36.5t-32 -30t-36 -18.5t-20.5 -1q-3 4 -10.5 25t-16.5 48.5t-17.5 57t-14.5 51.5q-6 20 -16 56t-22 79t-25 89t-24.5 86.5t-20 71t-12.5 43.5q-23 71 -41 124.5t-33 96t-28 76.5t-25 65l-13.5 40.5t-19 56t-22.5 62.5l-22.5 60
t-19 49t-13.5 30q3 26 7 54.5t11 36.5z" />
    <glyph glyph-name="bracketright" unicode="]" horiz-adv-x="573" 
d="M278 1460q-14 5 -35.5 6t-42.5 0.5t-36.5 -2t-17.5 -1.5q-5 2 -8 4.5t-3 9.5q2 18 2.5 32.5t1.5 28t3 27t7 28.5q1 3 4 6.5t17 5.5q2 0 18 1t39.5 1h50.5t52 -1t44.5 -3t27.5 -5q10 -3 11 -8q0 -6 -0.5 -40t-1.5 -87t-2 -120t-2 -138t-2.5 -141t-2.5 -129t-2 -103t-1 -62
q-1 -24 -1 -62t-0.5 -83t-1 -93.5t-1 -93.5t-2 -83t-3.5 -62q-3 -35 -3.5 -65.5t-0.5 -58t-1 -54t-5 -53.5q-2 -8 -6.5 -11t-17.5 -6q-54 -8 -102 -12t-102 -9q-4 -2 -7.5 -4.5t-10.5 -2.5q-7 1 -9 4t-4 8q-3 12 -6 32.5t-4 41t2 36.5t12 19q5 2 21 4.5t35.5 5.5t37.5 5.5
t26 4.5q11 138 14 275t2.5 275.5t-1.5 278.5t3 283q1 13 3 40t4 55t4.5 50t3.5 25z" />
    <glyph glyph-name="asciicircum" unicode="^" 
d="M576 1192q27 -25 50.5 -49.5t41.5 -44.5t29 -33t13 -16q-2 -5 -5 -15.5t-6.5 -22.5t-7 -24.5t-6.5 -21.5q-6 -17 -12 -22.5t-15 -4.5q-10 1 -16 3t-17 11q-62 54 -122 108t-124 101q-7 -10 -13.5 -18t-13.5 -16.5t-15 -19t-18 -26.5q-40 -62 -70 -109t-53 -76.5
t-40 -39.5t-31 4q-9 8 -18.5 17t-14 23t-0.5 35t22 53q37 65 70 118t56 91q12 19 25.5 41t29.5 42t35 37.5t42 29.5q6 3 13 0.5t13 -7.5q1 -2 18 -14.5t42.5 -33t56.5 -46.5t61 -54z" />
    <glyph glyph-name="underscore" unicode="_" horiz-adv-x="773" 
d="M767 125q6 -19 5.5 -40.5t-2.5 -45.5q-11 -5 -28 -9t-37 -6.5t-40.5 -2.5t-38.5 2q-6 1 -41.5 0.5t-87.5 -1.5t-114.5 -3t-121.5 -4.5t-108 -5t-75 -5.5q-37 -4 -56 -1.5t-21 14.5q1 23 0 53.5t5 53.5q6 6 18 6t44.5 0.5t77.5 1.5t100 1.5t112.5 1.5t114.5 2t106.5 2
t88 2.5t59.5 3.5q18 1 29 -4t11 -16z" />
    <glyph glyph-name="grave" unicode="`" horiz-adv-x="745" 
d="M416 1216q28 -26 47.5 -49t21.5 -26q-2 -5 -6 -19.5t-7 -23.5t-6 -12t-8 -2t-8 1.5t-9 5.5q-32 28 -63 56t-64 52l-19.5 13t-18.5 13.5t-13 12t-2 9.5q10 15 22 27.5t28 20.5q5 3 13 -3q1 -1 9.5 -7.5t21.5 -17t29 -24t32 -27.5z" />
    <glyph glyph-name="a" unicode="a" horiz-adv-x="774" 
d="M506 264q-19 -26 -43.5 -50t-55.5 -41t-69 -24t-83 2q-14 4 -26.5 9t-29.5 7q-32 11 -52.5 37t-32.5 61.5t-17 76t-6 81.5q-2 45 1.5 90.5t11.5 84.5q31 88 79 159.5t120 120.5q20 9 51.5 17t70.5 -1q22 -10 39 -24l34 -28q2 8 0.5 19.5t4.5 18.5q20 5 42.5 9.5
t42.5 10.5q11 0 19.5 -3.5t10.5 -10.5q4 -16 5.5 -36.5t1 -42.5t-2 -43t-2.5 -37q0 -5 0.5 -22.5t1.5 -38.5t3.5 -41.5t5.5 -30.5q-4 -29 -2.5 -54t6.5 -53q-3 -38 -1.5 -83.5t5.5 -90.5q2 -18 0 -39t0 -41q2 -18 4.5 -38t-3.5 -33q-10 -4 -22 -9t-25 -8t-25.5 -4t-22.5 3
q-13 -2 -25 2q-8 9 -10.5 22.5t-2.5 29.5t0.5 33.5t-1.5 32.5zM272 641q-14 -21 -18 -46t-12 -52q-7 -27 -16.5 -59t-6.5 -69q0 -1 0.5 -17t4 -36.5t11.5 -41t22 -31.5q3 -1 8 -2.5t11 -4t11.5 -4.5t7.5 -3q21 -2 36 0t29.5 11t32 26t43.5 44q14 18 30 36t29.5 38.5t21 44.5
t3.5 53q0 36 -1 70t-6 66q-12 15 -22 32.5t-22 33t-29 25.5t-42 9q-27 -4 -46.5 -15.5t-33.5 -28.5t-25 -37.5t-21 -41.5z" />
    <glyph glyph-name="b" unicode="b" horiz-adv-x="829" 
d="M268 754q43 42 103.5 72t140.5 27q20 -2 37 -5.5t34 -13.5q51 -23 86 -65.5t56 -97.5t28.5 -119t2.5 -130q-11 -102 -48.5 -179t-100.5 -131q-26 -17 -58.5 -29.5t-74.5 -20.5q-29 -6 -63 -1.5t-66.5 16t-60 26t-43.5 28.5q3 -24 -6 -36.5t-24.5 -17.5t-35 -5.5
t-37.5 -0.5q-8 8 -10.5 19t-3 23t0.5 26t1 28q-2 28 -2.5 54.5t-3.5 48.5q3 57 6 118t13 115q7 58 9 123.5t2 132.5t-0.5 133t1.5 125q5 57 2 117t-3 114q2 39 0 77t-5 75t-5.5 74t-0.5 74q-4 13 -6 33t-2 40.5t3 37t8 21.5q13 2 29.5 4.5t30.5 1.5t24.5 -7.5t12.5 -22.5
q7 -1 11 -6t5.5 -10.5t2.5 -10t4 -5.5q3 -6 4.5 -16.5t2.5 -22.5t1.5 -23.5t1.5 -18.5q0 -97 1.5 -197.5t2 -201t-0.5 -199t-7 -191.5zM372 678q-31 -16 -56 -37.5t-46 -46.5q-2 -83 0 -157t2 -155q15 -15 29.5 -31t31.5 -30t37 -24.5t46 -15.5q42 -5 80 14t77 71
q14 26 26 54t19 61q8 45 7 97.5t-15 93.5q-8 24 -17 48.5t-23.5 44t-35.5 32t-51 12.5q-31 0 -58.5 -10.5t-52.5 -20.5z" />
    <glyph glyph-name="c" unicode="c" horiz-adv-x="680" 
d="M554 544q-11 4 -21.5 12.5t-23.5 17.5t-30.5 16t-41.5 8q-21 0 -43 -5t-43 -15.5t-39 -26t-30 -35.5q-17 -25 -28.5 -58.5t-15.5 -70.5t-0.5 -75t16.5 -71q2 -21 16 -47.5t34.5 -50t45 -41t47.5 -21.5q25 -4 51 -2t50 8.5t45 17t37 23.5q9 1 14.5 -2t10.5 -6q2 -9 6 -19
t6 -19.5t1.5 -19t-7.5 -17.5q-13 -18 -35.5 -37t-49 -34.5t-54.5 -25t-52 -7.5q-40 -1 -80.5 12t-76 34t-62 46t-38.5 49q-35 43 -52.5 108.5t-19.5 136t12 139t43 118.5q42 78 100.5 128t122.5 56q44 1 80 -8t66 -24t55.5 -34.5t49.5 -40.5q-6 -16 -17 -36t-21.5 -38
t-19 -30.5z" />
    <glyph glyph-name="d" unicode="d" horiz-adv-x="853" 
d="M719 1517q5 -27 3 -58.5t1 -54.5q-3 -128 -11 -257t-3 -260q1 -36 -0.5 -72.5t-4.5 -73t-5 -73t-1 -72.5q1 -37 1 -75.5t1 -76.5q1 -28 4 -55t2 -55q0 -3 -0.5 -24.5t-1 -50t-1.5 -58t-1 -48.5q-1 -25 0 -50.5t8 -49.5q2 -28 4.5 -53t0.5 -52q-1 -3 -2 -9t-3.5 -12.5
t-8 -12t-15.5 -8.5q-9 5 -19 6t-20.5 1t-20.5 0.5t-19 6.5q-7 13 -9.5 29t-4 33t-3 33.5t-5.5 31.5q-18 -25 -37.5 -49t-44.5 -42.5t-56.5 -30t-71.5 -12.5q-44 -2 -84.5 16.5t-74.5 49t-59.5 67.5t-38.5 73q-11 27 -17 67.5t-8.5 84.5t-1.5 85.5t6 69.5t21.5 68.5
t52.5 92.5q21 29 45.5 55.5t54.5 46.5t67 31t84 10q37 -1 63 -5.5t42.5 -10t25.5 -12t13 -10.5q11 102 6 208.5t-6 212.5q-1 32 1 67.5t4.5 72.5t4.5 73.5t1 70.5q-1 14 -1.5 34.5t-0.5 40.5v35v17q35 6 73.5 1t70.5 -8zM402 580q-58 -21 -91.5 -70t-48 -114t-14 -139
t11.5 -145q11 -30 38.5 -46.5t62.5 -18.5q17 -2 33 2.5t31 9.5q10 6 24 14.5t28 20t26 26t18 32.5q13 11 22 24.5t20 25.5q5 34 2 71t-1 69q-8 37 -7.5 82.5t8.5 84.5q-3 9 -1.5 19t1.5 20q-11 14 -30.5 24.5t-42 16t-46 3.5t-44.5 -12z" />
    <glyph glyph-name="e" unicode="e" horiz-adv-x="828" 
d="M251 296q9 -43 22 -83t37 -70q10 -15 19.5 -20.5t12.5 -7.5q31 -5 62 -1.5t59.5 11.5t54.5 20t48 25q38 23 77.5 44.5t74.5 47.5q3 0 14 -3t16 -6q5 -23 9.5 -45t10.5 -40q-2 -6 -3 -12t-4 -11q-17 -19 -48 -42.5t-64 -45t-63 -38t-45 -20.5q-11 -8 -30.5 -16t-43.5 -14
t-48.5 -8t-43.5 1q-32 2 -60 15t-54 28q-62 38 -97.5 101t-50.5 148q-5 -2 -9.5 -4.5t-10.5 -0.5q-10 6 -12.5 23t-4.5 33q-2 17 -1.5 32t-4.5 33q5 10 14.5 14t20.5 8q4 42 11 79t14 75q13 42 27.5 83t34 77t46 65t63.5 47q0 1 15 9.5t40.5 16.5t60 12.5t74.5 -2.5
q72 -20 111.5 -73.5t56.5 -130.5q0 -2 2.5 -18.5t5 -38t4.5 -42.5t2 -32q0 -12 2.5 -28.5t3.5 -32t-1.5 -29.5t-12.5 -21q-14 -8 -32.5 -14.5t-38 -12.5t-37 -10.5t-28.5 -7.5q-23 -7 -52 -14.5t-59.5 -14.5t-60 -14t-53 -12t-38 -8.5t-15.5 -3.5zM404 703
q-26 -10 -43.5 -20t-30 -20.5t-21 -21.5t-16.5 -22q-21 -37 -33 -84t-15 -100q78 13 149.5 33t137.5 49q1 35 -2.5 72.5t-17 66.5t-39.5 43.5t-69 3.5z" />
    <glyph glyph-name="f" unicode="f" horiz-adv-x="533" 
d="M242 753q36 -11 78 -7.5t84 0.5q3 -3 6 -5.5t5 -5.5q-2 -25 0 -53t-6 -51q-3 -10 -10.5 -14t-17.5 -5.5t-20.5 -2t-18.5 -2.5q-26 4 -50 0t-48 -9q1 -65 1 -127v-124.5t2 -126.5t8 -131q-17 -19 -45 -26.5t-52 -15.5q-8 2 -14 3t-14 0q-8 34 -7 74t-1 77q-2 12 -3.5 48
t-3 86t-2.5 108.5t-1.5 114.5t-0.5 104.5t1 78.5q-3 55 -1 109t7 106.5t11 103.5t9 101q3 28 13 60.5t30 61.5t51 50.5t78 27.5q32 1 55 -7t40 -23q27 -11 46.5 -32.5t32.5 -49t19.5 -60t7.5 -63.5q1 -26 5 -57t-2 -57q-6 -11 -18.5 -15.5t-26.5 -6t-29 -1.5t-27 -2
q-4 1 -5.5 5t-4.5 6q0 54 -7.5 104.5t-27.5 92.5q-5 8 -15 11.5t-20.5 3t-20.5 -3.5t-16 -9q-17 -15 -27 -39.5t-17 -53t-11 -59.5t-7 -60q-8 -57 -2.5 -116t10.5 -116z" />
    <glyph glyph-name="g" unicode="g" horiz-adv-x="802" 
d="M153 50q4 0 10 5t14 6h29.5t35.5 -1.5t32 -5.5t19 -11q3 -23 2 -51.5t-0.5 -57t5 -55.5t18.5 -46q16 -11 36 -7t31 11q25 7 44 31.5t34 56.5t27 66t21 60q3 13 9 46t11 70.5t8.5 71.5t2.5 48q-11 -5 -27 -9t-32 -7.5t-28 -5.5t-13 -2q-54 -8 -109.5 -4t-103 21.5t-82 50
t-46.5 82.5q-12 57 -11 116t12 113q12 43 24.5 86.5t28 84t35.5 75.5t49 62q19 22 46.5 34.5t56 18.5t55.5 6.5t44 -2.5q13 -2 27.5 -8.5t28 -15t26 -17.5t22.5 -16q6 14 9.5 29.5t7.5 30.5q16 2 29.5 -1.5t26.5 -9t26 -12t27 -10.5q1 -8 1.5 -19.5t-4.5 -18.5
q1 -6 0.5 -35.5t0 -66.5t2.5 -73t8 -54q0 -2 1 -26.5t3 -61t4 -80.5t3.5 -85t1.5 -75t-2 -50q-1 -78 -12 -157.5t-27 -145.5q-9 -38 -18 -71t-20 -64t-25.5 -61t-35.5 -61q-18 -25 -46.5 -47.5t-63 -36.5t-73 -16.5t-77.5 12.5q-33 10 -60 33t-47 52t-31.5 62t-12.5 64
q-3 14 -2 38.5t3.5 49t5.5 44t5 23.5zM496 831q-11 1 -18.5 7.5t-14 13.5t-14.5 11.5t-20 2.5q-18 6 -34.5 0.5t-33.5 -7.5q-13 -6 -25.5 -17.5t-23 -24.5t-17 -25t-6.5 -19q-15 -19 -24 -46.5t-13 -59t-3.5 -65t5.5 -63.5q-2 -31 8 -64.5t30 -51.5q11 -21 34 -27t49 -4.5
t52.5 8t44.5 11.5q19 10 32 21.5t19 34.5q4 63 9 126.5t6 132.5q2 17 3 37t2 41t2 40.5t4 35.5q-16 -10 -27.5 -22.5t-25.5 -26.5z" />
    <glyph glyph-name="h" unicode="h" horiz-adv-x="770" 
d="M274 772q7 3 11 10.5t7.5 16.5t7.5 17t12 12q11 12 30.5 23t43.5 19.5t49.5 12.5t48.5 2q17 -5 39.5 -20.5t33.5 -29.5q49 -70 76 -163t27 -209q0 -9 -1 -35.5t-1.5 -62.5t-2 -79t-3 -85t-3 -80t-3.5 -65q-8 -6 -20 -6.5t-24.5 0t-25 1.5t-21.5 -2q-5 2 -13 6l-10 5
q4 73 1.5 145.5t-8.5 143t-14.5 139.5t-14.5 136q-7 45 -35.5 64.5t-69.5 -5.5q-32 -19 -44 -54.5t-16 -72.5q0 -3 -0.5 -18t-2.5 -23q-8 -10 -21 -13t-22 7q-7 -22 -8.5 -48.5t-1.5 -55t-0.5 -57t-6.5 -55.5q3 -47 0 -88.5t-14 -84.5q-7 -2 -13 0q-2 -8 -4.5 -15.5
t-3.5 -18.5q-9 -6 -22 -7.5t-26.5 -1t-26.5 2.5t-23 5q-8 4 -11 14.5t-3.5 22.5t0.5 23.5t3 17.5q0 32 1 90.5t2 133t2 161t2 175t1.5 173t1 156.5t0 125.5t-1.5 79.5q-2 57 -5 114.5t-1 116.5q1 19 -1 41.5t-2 45t3.5 42.5t15.5 35q38 3 71 -8.5t57 -30.5q0 -1 -0.5 -30.5
t-0.5 -69.5t-0.5 -80t-0.5 -62q0 -25 0.5 -71.5t0.5 -104.5t0.5 -121t1 -121.5t1.5 -106t2 -74.5z" />
    <glyph glyph-name="i" unicode="i" horiz-adv-x="401" 
d="M216 944q15 3 28 -1.5t22 -14.5t12.5 -24.5t-0.5 -30.5q-3 -5 -6.5 -9.5t-5.5 -11.5q-12 -17 -29 -19.5t-31.5 5t-23 24.5t-3.5 40q2 17 10.5 28.5t26.5 13.5zM169 709q27 2 57.5 -1.5t48.5 -20.5q-8 -49 -13.5 -113.5t-3.5 -124.5q-11 -112 -16.5 -230.5t-14.5 -224.5
q-7 -14 -27 -16q-9 3 -19 3.5l-20 1t-19.5 2.5t-16.5 9q-5 26 -4 49t2 52q-7 100 1.5 196t14.5 195q4 61 8 117.5t22 105.5z" />
    <glyph glyph-name="j" unicode="j" horiz-adv-x="469" 
d="M252 968q16 2 27 -7q0 -5 3 -8.5t5 -7.5q9 -16 11.5 -35t-2 -36.5t-16 -30t-29.5 -14.5q-16 -1 -26.5 4t-17.5 13.5t-11 19.5t-7 23q0 31 16.5 52.5t46.5 26.5zM311 763q10 -23 14 -50.5t6 -55.5t3 -56t4 -53q2 -26 3.5 -63.5l3 -75t1.5 -67.5t-1 -39q0 -30 0.5 -79.5
t1.5 -103t1 -103.5t-1 -80q-5 -51 -11.5 -97.5t-10.5 -96.5q0 -13 -3.5 -29.5t-8.5 -33t-11 -32t-12 -25.5q-18 -40 -51.5 -66t-78.5 -38q-17 -2 -43.5 -2t-54.5 7t-53.5 23.5t-38.5 48.5q-14 33 -24 75.5t-4 83.5q2 13 3.5 29t3 30.5t4.5 26t8 15.5q26 -3 47 -9t46 -6
q1 -3 3 -5t3 -6q-5 -24 -6.5 -53t1 -57.5t10 -54t21.5 -42.5q5 -6 13 -10t22 -3q34 23 53.5 60t30 82.5t13.5 96t3 100.5q-4 20 -5.5 47.5t-2 57t-0.5 58t1 51t2 37t2 14.5q-2 67 -2.5 133t-2 132t-6 131.5t-13.5 130.5q23 8 50 10t49 14h10t8 -2z" />
    <glyph glyph-name="k" unicode="k" horiz-adv-x="608" 
d="M282 483q11 23 26 57t31 72t32 77t29 71.5t21 56t9 30.5q12 5 32.5 7.5t41.5 1t36.5 -6t16.5 -12.5q-4 -13 -14.5 -39t-24.5 -60t-30 -72t-31 -74.5t-27.5 -67t-19.5 -49.5q-13 -13 -15.5 -27.5t0.5 -30t9.5 -31t12.5 -30.5q5 -11 20 -42.5t34.5 -73t40.5 -86.5t39 -82.5
t29.5 -63t11.5 -26.5q0 -6 -6.5 -10t-15 -6t-18 -3t-16.5 -2q-9 -1 -16 -4t-13.5 -5t-13 -1.5t-12.5 5.5q-23 69 -48 135.5t-57 126.5q-17 26 -31.5 54.5t-31.5 54.5q-1 -2 -2 -19t-2.5 -44t-3 -60.5t-2.5 -68t-1 -67t1 -57.5q-2 -13 -2 -28.5t-7 -26.5q-3 -3 -10.5 -5
t-15 -3t-14 -1t-7.5 1q-6 -2 -15 -5.5t-18 -5t-17 0t-12 10.5q-7 4 -10.5 13.5t-5.5 20.5t-3 21.5t-2 17.5q2 33 1.5 65.5t-2.5 65.5t-3.5 66t-0.5 67q-1 7 -2.5 37.5t-2.5 75t-2 98.5l-2 108t-2 103.5t-2 85.5q-1 3 -2.5 27t-3.5 60.5t-5 80.5t-6 88.5t-6.5 84.5t-7.5 67
q4 13 15.5 20t25.5 11t29 6.5t27 6.5q4 -2 7.5 -17.5t6.5 -37.5t5.5 -47.5t4.5 -49.5t2.5 -42.5t-0.5 -25.5q2 -17 5.5 -60t7.5 -98.5t8.5 -117.5t8.5 -116.5t7.5 -95.5t6.5 -54z" />
    <glyph glyph-name="l" unicode="l" horiz-adv-x="405" 
d="M148 884q3 73 -0.5 149.5l-7 153t-5 151.5t5.5 147q5 11 3 23t4 23q32 3 63.5 3t61.5 -2q1 -2 1 -19t-0.5 -43.5t-1.5 -58.5t-2 -65.5t-2.5 -64.5t-2.5 -54q-5 -17 -5 -34t1.5 -34.5l3 -35t1.5 -35.5q-1 -2 -1 -34.5t-0.5 -84.5t-1 -118.5t-1.5 -136t-3 -136t-4 -119.5
q-2 -27 0.5 -58.5t-3.5 -63.5q2 -80 -3 -165t1 -170q-3 -5 -3.5 -13t1.5 -15q-5 -13 -28 -15q-9 6 -19.5 8.5t-21.5 5t-21.5 6t-18.5 9.5q0 4 -1 33t-2 67t-2.5 77l-2.5 65q-1 23 0 71.5t2.5 110.5t3 131.5t4 134.5t4 119.5t3.5 86.5z" />
    <glyph glyph-name="m" unicode="m" horiz-adv-x="1001" 
d="M548 575q4 4 13.5 35t22 70t28 76t31.5 54q20 34 47.5 60t60.5 46q14 5 25.5 1.5t19.5 -6.5q16 -17 27.5 -44.5t11.5 -53.5q9 -60 18.5 -117t17 -105t12.5 -84t6 -55q1 -13 1 -30.5v-36.5t-1 -38.5t-1 -35.5q-2 -54 -8.5 -102.5t-10.5 -106.5q-2 -17 -6.5 -32t-18.5 -22
q-24 -2 -45 0.5t-44 0.5q-3 2 -5.5 5.5t-4.5 7.5q0 6 1.5 33t3.5 61t3 67t0 51v78.5t-0.5 94.5t-1.5 97.5t-3.5 86.5t-6.5 62t-11 24q-26 -40 -55 -114t-49 -168q-17 -60 -30.5 -122.5t-29.5 -122.5q-2 -4 -5 -7l-7 -7q-29 -1 -51 2.5t-45 12.5q3 42 2 93t-5.5 104
t-11.5 102.5t-15.5 88.5t-18 62.5t-18.5 23.5q-14 1 -24 -14t-17.5 -36t-12 -43t-6.5 -36q-8 -19 -14 -38.5t-11 -41.5q-6 -18 -17 -59.5t-21 -88t-17.5 -88t-6.5 -59.5q2 -26 0.5 -54.5t-15.5 -41.5q-2 -1 -16 -3t-30 -1t-30.5 6t-17.5 19q6 104 -3 201q0 27 -0.5 76
t-0.5 107v120t0.5 115t2 90.5t3.5 48.5q-1 3 0.5 13t15.5 12l8 30t14 23q13 -1 27 -1t27 -1.5t24 -4.5t19 -9q0 -28 -1.5 -58t-3.5 -57.5t-3.5 -50t-0.5 -34.5q1 0 6 14.5t11.5 35t13.5 43.5t13 39q5 16 12 27.5t14.5 20.5t16 17t17.5 17q14 9 31 4.5t32 -8.5
q28 -30 46 -69.5t30.5 -84.5t21.5 -92.5t20 -94.5z" />
    <glyph glyph-name="n" unicode="n" horiz-adv-x="869" 
d="M297 910q-5 -40 -8 -84t-10 -82q24 27 50 53.5t56.5 46.5t67 30t82.5 4q91 -20 142.5 -92t59.5 -203q4 -58 6.5 -123t4 -132.5t1 -136t-2.5 -133.5q-2 -2 -3.5 -4.5t-3.5 -4.5q-24 -10 -49 -14.5t-61 -2.5q-2 2 -8 6q5 90 3.5 181t-12.5 180q-1 36 -3 77.5t-7 81.5
t-13 75.5t-21 59.5q-7 15 -23.5 23.5t-36 10.5t-39.5 -2.5t-33 -14.5q-43 -30 -72 -63.5t-48.5 -66.5t-31 -63.5t-20.5 -54.5q-9 -10 -11 -25t-1.5 -31.5l1 -33t-2.5 -29.5q1 -10 2 -48t1.5 -85t-0.5 -92.5t-4 -69.5q-8 -9 -19 -12t-24 -3.5t-27 -0.5t-27 -2
q-10 11 -13.5 27.5t-4.5 35t-1 37.5t-3 34q0 6 1.5 40.5t3 86.5t3.5 116.5t4.5 131t4.5 130.5t4 114.5t3 83t2 35.5q2 8 8.5 11t9.5 11q17 6 37 3t37 -7q13 2 28.5 2t20.5 -12z" />
    <glyph glyph-name="o" unicode="o" horiz-adv-x="745" 
d="M513 57q-45 -36 -96.5 -47t-123.5 -1q-49 3 -84 23.5t-58.5 53.5t-36.5 76t-18 90q-2 13 -4 36.5t-2 52.5t4 60.5t15 60.5q23 69 54.5 128t81.5 101q1 4 1.5 7t0.5 8q22 16 46.5 34t52.5 32t60 21t69 1q27 -6 48 -25t38.5 -44.5t32 -55.5t27.5 -58q19 -49 27 -109t5 -119
t-18 -113t-43 -91q-14 -35 -37 -64t-42 -58zM271 513q-22 -54 -32.5 -116.5t0.5 -133.5q2 -22 12 -44t27.5 -38.5t41 -24.5t53.5 0q32 13 56 36.5t40.5 54t26 67.5t13.5 78q7 39 2.5 74t-16.5 64t-31.5 52.5t-42.5 38.5q-6 0 -11.5 2t-11.5 0q-27 -1 -46.5 -11t-33.5 -26
t-25.5 -35t-21.5 -38z" />
    <glyph glyph-name="p" unicode="p" horiz-adv-x="785" 
d="M174 778q2 14 2.5 31t5.5 30q23 2 48.5 3.5t45.5 -7.5q0 -14 -3 -29.5t2 -27.5q16 14 37 26.5t44.5 21.5t49.5 12.5t53 -0.5q36 -10 68 -23t48 -42q23 -19 39 -44t33 -51q29 -46 38.5 -106.5t9.5 -126.5q-4 -56 -15.5 -107t-33 -96t-54.5 -84t-79 -70q-37 -29 -76 -39
t-73.5 -8.5t-60.5 9.5t-37 15q-5 -124 -5 -256t-2 -267q-2 -4 -4 -8.5t-10 -3.5q-20 3 -40.5 -2.5t-38.5 -1.5q-5 -1 -7 2.5t-3.5 9t-2.5 11t-5 8.5q1 149 2 305t-4 311q-1 24 -1.5 64.5t-1.5 90t-2.5 105t-2.5 109.5t-2 103.5t-2 87.5t-2 60.5t-1 23.5q-2 12 1.5 20t8.5 10
q13 -1 18.5 -8t7.5 -17t3 -22t4 -22zM488 286q19 28 29 68.5t10 84.5q5 27 -0.5 53.5t-10.5 51.5q-6 32 -20.5 64t-35.5 55.5t-48.5 34.5t-58.5 0q-28 -8 -43.5 -23t-29.5 -35q-7 -95 -9.5 -198t-3.5 -207q10 -22 28.5 -34t39.5 -18t42.5 -7t37.5 0q23 1 45 17t40 37
t31.5 43.5t19.5 38.5q8 32 18.5 67.5t7.5 73.5q-3 39 -10 77.5t-20 71.5t-31.5 58.5t-44.5 40.5q23 -16 40.5 -50.5t29 -74t17 -75.5t4.5 -55q-2 -54 -16 -97t-37 -78q-3 -2 -8.5 -3t-7.5 -1l-4 8t-1 11z" />
    <glyph glyph-name="q" unicode="q" horiz-adv-x="603" 
d="M501 841q5 7 16 5t16 -7q-6 -42 -14.5 -81.5t-16.5 -77.5q-3 -12 -9 -42t-13.5 -69t-16 -83.5t-16 -84t-14 -70t-9.5 -43.5q1 -2 -2.5 -25t-9.5 -59.5t-13.5 -82.5t-14.5 -93.5t-13.5 -92.5t-9.5 -79q26 37 56.5 68t53.5 71q5 0 7.5 2.5t7.5 1.5q13 -4 14 -11t-3 -15.5
t-10.5 -16.5t-9.5 -15q4 -26 4.5 -52t-7.5 -50q-45 -54 -88.5 -109.5t-91.5 -106.5q-3 -1 -8.5 -3.5t-11 -3.5t-10 1t-5.5 11q2 30 6 70.5t8.5 83t9 84t8 74.5t6 53.5t3.5 21.5q-1 29 1.5 58.5t5.5 60t4.5 63t-1.5 68.5q-5 -13 -14 -22t-20 -19q-24 -11 -52 -12.5t-53 10.5
q-26 14 -42 49t-24.5 78.5t-11 89t-2.5 80.5q1 51 13 99.5t22 93.5q16 45 35.5 84.5t49.5 68.5q18 18 43.5 25.5t52 6t50 -12t37.5 -29.5q10 25 8 53t5 53q2 2 5.5 3t6.5 3q12 -4 24 -5t23.5 -2t22.5 -4t21 -11q3 -7 3.5 -15t1.5 -16q-4 -7 -6.5 -18.5t-4 -23t-2.5 -21
t-1 -10.5zM343 498q11 58 19.5 111.5t13.5 115.5q-8 18 -19 32t-33 18q-9 4 -16 1.5t-8 -2.5q-22 -13 -36.5 -33.5t-23.5 -46t-15 -54t-12 -57.5q-3 -29 -5.5 -57t-2.5 -55.5t3.5 -53.5t13.5 -50q5 -5 9 -9.5t11 -7.5q21 1 38 18t29.5 40t21 48t12.5 42z" />
    <glyph glyph-name="r" unicode="r" horiz-adv-x="462" 
d="M253 725q41 26 100 40t120 3q-1 -14 1 -30.5t2.5 -32.5t-2.5 -29.5t-14 -19.5q-60 13 -112 -6.5t-84 -54.5q-2 -1 -4.5 -3.5l-4.5 -4.5q1 -62 -1 -122t-5 -120t-6.5 -120.5t-4.5 -123.5q1 -9 1 -21t-2 -24t-5.5 -21.5t-9.5 -11.5q-9 -4 -23 -8t-28.5 -6t-27 -2t-18.5 5
q-4 23 -3.5 47t1.5 47.5t1 47t-4 45.5q2 12 3.5 45.5t2.5 76.5t2 90t1.5 86t1 64.5t0.5 26.5q1 42 7.5 89.5t1.5 88.5q6 9 20 12.5t30.5 4t32.5 -2t27 -5.5q0 -2 2 -19.5t1 -30.5z" />
    <glyph glyph-name="s" unicode="s" horiz-adv-x="543" 
d="M195 280q3 -18 11.5 -36t20.5 -32.5t27.5 -23t32.5 -5.5q16 6 28 18t18.5 29t8 37.5t-2.5 42.5q-14 27 -32.5 49.5t-38.5 43l-40 41t-38 43.5q-20 18 -37 44t-27.5 56.5t-13 64.5t6.5 70q4 27 19.5 53t40.5 46t58 32.5t73 11.5q49 1 86 -24.5t48 -70.5q-3 -10 -3 -21.5
t-0.5 -22.5t-3 -20t-11.5 -15q-11 -2 -19.5 -6t-17.5 -8t-18 -7t-19 -2q-2 3 -4 5.5t-4 5.5q1 54 -35 72q-24 1 -37.5 -9t-20 -26t-8 -34t-0.5 -32q6 -34 21 -59.5t35 -46.5t42.5 -39.5t44.5 -37.5q15 -13 27.5 -32t21.5 -41t13.5 -46.5t3.5 -49.5q0 -11 -3 -34.5t-11.5 -53
t-24 -62t-42.5 -61.5q-10 -8 -29 -17t-41.5 -15t-46.5 -5.5t-45 11.5q-28 11 -48 30.5t-34 45t-23 55.5t-14 63q1 2 3 3.5t4 3.5q12 1 24.5 6.5t24.5 10t24 6t25 -4.5z" />
    <glyph glyph-name="t" unicode="t" horiz-adv-x="608" 
d="M312 933q15 -3 32.5 -0.5l35 5t34 2.5t30.5 -7q-1 -12 0 -27.5t0 -30.5t-5 -28t-14 -20q-37 -2 -74 -10t-66 -16q-3 -38 -6 -79t-5 -88q2 -55 0 -107t0 -108q0 -30 1.5 -61.5t7 -60.5t15 -54.5t25.5 -41.5q25 -6 42.5 1.5t31 21t25.5 30t25 28.5q23 22 45 45t45 46
q8 4 14 0t10 -11.5t7 -16.5l5 -15q11 -18 18 -40t17 -41q-11 -26 -30.5 -43.5t-37.5 -37.5q-31 -37 -67.5 -67t-81.5 -53q-21 -9 -50.5 -17t-58.5 -10.5t-54.5 4t-40.5 27.5q-13 17 -20.5 47.5t-9.5 65.5q0 105 -0.5 202t0.5 200q-3 65 -1.5 122.5t-9.5 111.5
q-11 0 -21 -2.5t-19 -5t-18.5 -3.5t-18.5 2q-6 8 -7 21t-0.5 28t2 30t-0.5 29q2 4 3 7t3 7q21 4 48 8t50 10q-2 62 -3 129t-2.5 134.5t-3 133t-2.5 123.5q2 6 2.5 15l1 18t3 17.5t7.5 14.5q10 0 18.5 2t17.5 4.5t18 3t19 -2.5q2 1 7 1.5t8 0.5q11 -1 16 0t10 -7q1 -4 0 -6.5
t-1 -7.5q4 -21 4.5 -42.5t2.5 -44.5q2 -82 2.5 -161t2.5 -161q1 -45 3.5 -84t13.5 -79z" />
    <glyph glyph-name="u" unicode="u" horiz-adv-x="778" 
d="M648 940q-1 -43 -2 -87.5t-2 -89.5q-1 -21 -3 -55t-5 -75t-6.5 -84.5t-6.5 -84t-4.5 -74t-1.5 -53.5q4 -29 4 -58t-1 -57t-1 -55.5t3 -54.5q0 -18 -17 -25t-41 -9q-13 -2 -24.5 2.5t-22.5 10.5q-5 20 -6.5 43t-5.5 45q-9 -16 -23 -31.5t-30.5 -28.5t-35 -21t-35.5 -8
q-49 -5 -88 7t-68.5 36t-50 58t-30.5 75q-19 83 -21.5 170t-0.5 172q-1 10 -1 31.5t1.5 49.5t4 59t5 59t6 51t6.5 35q14 5 29.5 4.5t32 -2.5t32.5 -4t30 -1q13 -1 17.5 -10.5t5.5 -14.5q-10 -71 -17 -150t-5.5 -158t13 -153.5t38.5 -137.5q7 -13 17 -16.5t19.5 -2t17.5 6
t12 7.5q40 28 59.5 75t28.5 103.5t12 118.5t11 119q0 14 3 44t7 64t8 67t4 54q0 11 2.5 19.5t12.5 15.5q16 -4 31.5 -1t30 6.5t27.5 3.5t25 -10z" />
    <glyph glyph-name="v" unicode="v" horiz-adv-x="593" 
d="M102 941q0 -6 2 -9l4 -6q13 0 29.5 2t23.5 -8q5 -47 19.5 -86.5t25.5 -82.5q5 -10 12.5 -31.5t16 -50t18 -61.5t18.5 -66t17.5 -63.5t14.5 -53.5q17 63 36.5 125t38.5 124.5t36.5 126t31.5 129.5q3 5 8 9t14 4q23 -11 47 -15t46 -14q3 -5 1.5 -11.5t-1.5 -13.5
q-5 -3 -7.5 -9.5t-4 -14l-3 -15t-5.5 -12.5q-2 -35 -12.5 -63t-19.5 -57q-11 -24 -28 -71t-37 -105t-41 -120.5t-40 -118.5t-35 -99t-25 -62q-8 -6 -11 -9q-10 1 -18.5 3t-11.5 11q-5 19 -12 37.5t-14.5 36.5t-13.5 36.5t-9 37.5q-14 30 -22 65.5t-21 67.5
q-30 132 -65 257.5t-75 247.5l2 4t2 6q6 4 17.5 4t17.5 -5q8 5 17.5 4.5t15.5 -5.5z" />
    <glyph glyph-name="w" unicode="w" horiz-adv-x="993" 
d="M278 278q25 21 41 50.5t28.5 62t24 66t27.5 62.5q9 1 21.5 2.5t24.5 1.5t22 -2t13 -8q16 -43 39 -78t40 -75q11 -10 19.5 -22.5t18.5 -24t23 -20t32 -11.5q22 1 38 16t27 36t17 44t9 41q11 62 2 121t-23 116q-6 22 -21 54.5t-32.5 64.5t-32.5 58t-20 35q0 4 -1 13t12 12
q6 2 21 2.5t30 0.5t27 -0.5t13 -1.5q22 6 38.5 -2.5t28.5 -24.5t21.5 -35t17.5 -32q12 -13 18 -30.5t13 -34.5q-2 22 -7.5 41.5t-13 38t-14.5 37.5t-11 40q2 8 12 10t19 -9q5 -22 12.5 -41.5t15 -39.5t13 -40.5t7.5 -43.5q7 -27 10.5 -74t3.5 -100.5t-4.5 -107.5t-14.5 -94
q-20 -60 -49 -112t-77 -87q-16 -8 -36 -15t-41.5 -11t-42.5 -2.5t-40 11.5q-7 -8 -19 -5.5t-20 6.5q0 8 -5.5 10t-7.5 8q-21 12 -36.5 28.5t-28 36.5t-23 42t-20.5 43q-18 -25 -34 -52t-34.5 -51t-42 -43.5t-56.5 -28.5q-24 -2 -41 6t-30 20t-23.5 27t-22.5 28
q-15 41 -25 85t-13 92q0 2 -0.5 17.5t-1 36t-1 42t0.5 35.5q-2 6 -2.5 16.5t4.5 13.5q0 71 9.5 132.5t19.5 123.5q8 25 11.5 50.5t17.5 47.5q-4 5 -3 8.5t3 8.5q8 4 18.5 4t14.5 -9q18 -6 38 -13.5t37 -17.5q-1 -29 -5.5 -69.5t-10.5 -78t-11 -65t-7 -29.5q-4 -53 -9 -108
t3 -109q2 -40 9 -80.5t28 -66.5z" />
    <glyph glyph-name="x" unicode="x" horiz-adv-x="554" 
d="M267 731q11 24 20.5 49.5t19 51.5t19.5 51.5t23 49.5q14 6 32 7t34.5 -2t29.5 -9.5t16 -15.5q-17 -51 -33.5 -101t-37.5 -96q-9 -39 -27.5 -74t-31.5 -77q6 -18 16 -44t19.5 -51t17 -43t8.5 -19q13 -49 30 -90t41 -79q2 -9 -2.5 -12.5t-7.5 -8.5q-11 1 -21.5 -1.5
t-20 -5.5t-19.5 -4t-20 4q-26 56 -49 114t-49 113q-2 -3 -12 -26.5t-23.5 -55t-28.5 -64t-26 -53.5q-6 -4 -16.5 -4.5t-23.5 1t-25.5 4t-21.5 4.5q0 3 -1.5 5t-1.5 4q29 91 61.5 177t62.5 177q-24 67 -52.5 130t-48.5 132q-14 32 -28.5 67t-12.5 77q25 -5 51 -7.5t42 -17.5
q16 -72 44 -133.5t54 -123.5z" />
    <glyph glyph-name="y" unicode="y" horiz-adv-x="799" 
d="M224 943q4 -69 9.5 -140.5t13 -143t18 -140t25.5 -129.5q5 -22 16.5 -46t33.5 -28q20 -3 32 5.5t27 13.5q36 30 59.5 73t38.5 94.5t23.5 108.5t14.5 116q6 22 5.5 46t-2.5 47.5t-3 45.5t4 41q12 1 25 -1t25.5 -4.5t24 -3t21.5 5.5q3 -4 11 -3t13 -3q0 -16 3 -39.5t7 -45
t7.5 -38t3.5 -17.5q3 -26 6.5 -62.5t1.5 -70.5q-2 -22 -6 -47.5t-2 -54.5q3 -44 -0.5 -84.5t-1.5 -80.5q0 -3 0.5 -11t0.5 -17t-0.5 -17t-0.5 -11q-1 -8 -3.5 -15t-3.5 -15q-3 -36 -6.5 -77t-4.5 -82l-2 -6t-2 -5q2 -39 -5.5 -73.5t-11.5 -75.5q-1 -3 -2 -5t-3 -4
q-1 -40 -9.5 -76t-16.5 -74q-3 -20 -11.5 -50t-15.5 -50q-13 -35 -28.5 -69t-37 -61.5t-51.5 -47t-72 -25.5q-29 1 -55 3.5t-49 11.5q-55 33 -93.5 81t-55.5 120q-2 15 5 23t17.5 13.5t21.5 10.5t17 14q7 -2 16 -3t14 -6q6 -24 17.5 -43t25 -35.5t28 -31.5t26.5 -33
q14 -11 33.5 -11t45.5 20q38 35 61 86t35.5 110.5t18 124t9.5 127.5q-1 32 1.5 64t5 63.5t4 63t0.5 61.5q-16 -27 -34 -50.5t-41 -42.5t-51.5 -32.5t-65.5 -18.5q-34 0 -60.5 9t-47 24t-36 35t-25.5 43q-17 35 -31 82.5t-24.5 94.5t-16 87.5t-4.5 61.5q0 2 -0.5 21t-2 49
t-3 67t-3.5 74t-3 70t-2 56q1 5 6 10q16 -1 34 -1t35.5 -1.5t32.5 -6t26 -13.5z" />
    <glyph glyph-name="z" unicode="z" horiz-adv-x="669" 
d="M609 982q-1 -19 -11.5 -31t-17.5 -26q-14 -29 -34 -54q-35 -63 -74 -122t-79 -117t-78 -118t-70 -125q11 -10 25.5 -16t30 -10t31 -7.5t30.5 -7.5q53 -6 108 -9.5t108 -13.5q8 -5 6.5 -10t-3.5 -13q-7 -18 -13.5 -43t-13.5 -42q-4 -3 -8 -5.5t-9 -4.5q-54 6 -100.5 15.5
t-93.5 20.5q-72 5 -140 16.5t-132 18.5q-6 4 -8 6q-4 9 -2 16t7 13q1 4 0 5.5t-1 5.5q4 8 7 16.5t12 10.5q24 48 50 95t51 95q10 20 33 53.5t50 73.5t54.5 83.5t47.5 83.5q-1 4 -6.5 3t-5.5 4q-31 1 -60 -3.5t-58 -5.5q-34 1 -67 1t-65 5q-5 0 -6 -2t-6 -1q-11 9 -10.5 22
t2.5 29q-5 5 -6.5 14.5t5.5 14.5q-1 11 -2 19.5t1 18.5q6 4 13 7.5t14 8.5q33 -2 66.5 1t65.5 -4q52 3 102.5 6t101.5 9q26 -5 63 -2.5t67 5.5q6 4 14 1.5t14 -4.5z" />
    <glyph glyph-name="braceleft" unicode="{" horiz-adv-x="629" 
d="M189 90q-7 37 -5 68t7 68q2 12 8.5 35.5t15 52t18.5 59.5t18.5 58.5t14.5 49t7 31.5q2 15 3 33.5t1 36.5t-1.5 35t-4.5 29q-6 23 -18 43t-21 32q-5 6 -15.5 14.5t-21.5 17t-19.5 14.5t-9.5 7q-5 7 -5.5 15t4.5 14q4 8 21.5 17.5t28.5 22.5q5 6 10.5 26t8.5 47.5t3 61.5
t-4 69q-8 70 -13 135t-5 129q1 0 0.5 21t10.5 74q5 27 16.5 51t24 44t25 35t20.5 24t27.5 22t41 22t40 11t23.5 -10q3 -4 9 -23t10.5 -41t6 -41t-4.5 -23q-15 -8 -32.5 -16t-31.5 -17q-16 -12 -29 -34.5t-18 -70.5q-3 -24 -3 -54.5t2 -62t4.5 -61t5.5 -52.5t6.5 -42.5
t5.5 -38.5t3 -39t-2 -44q-6 -48 -17 -83.5t-31 -62.5q22 -20 31.5 -38.5t15.5 -36.5q3 -9 6 -22.5t6 -29t4.5 -31.5t1.5 -30q0 -46 -3.5 -81t-10 -64t-15 -53.5t-18.5 -49.5q-10 -24 -18.5 -44t-16 -38.5t-13 -37t-9.5 -39.5t-4.5 -36.5t1 -27.5t5.5 -22.5t10 -22.5
q11 -23 34.5 -39t52.5 -21q14 -2 29.5 -0.5t29 4t24.5 5t17 2.5q12 0 20 -3t9 -8q-2 -8 -1.5 -22.5t1.5 -31t1 -31t-2 -21.5q-11 -5 -25 -7.5t-47 -4.5q-17 -1 -42 2t-51.5 9.5t-50.5 16.5t-39 22q-30 25 -46 55.5t-26 67.5z" />
    <glyph glyph-name="braceright" unicode="}" horiz-adv-x="630" 
d="M292 1565q8 -9 16 -22.5t15.5 -27.5t13 -28t9.5 -26q15 -46 18 -155q1 -18 0.5 -47.5t-2 -64t-3 -71.5t-2.5 -71t-1 -62t1 -43q3 -36 8.5 -59.5t10.5 -34.5q3 -5 18 -26.5t32 -46t30.5 -44.5t13.5 -23q0 -5 -2.5 -6.5t-8 -2.5t-14.5 -3t-22 -8q-13 -5 -21 -19t-13.5 -32
t-8.5 -39t-6 -40q0 -1 -0.5 -19.5t-1.5 -46t-1.5 -60t-1 -59.5t-1 -45l-0.5 -18q-5 -109 -37 -205t-92 -162q-19 -18 -45.5 -28.5t-42.5 -2.5q-33 16 -41 64q1 3 3 7.5t5 7.5q37 47 62 92t34 79q4 17 9.5 34t10.5 36t8.5 41.5t5.5 51.5q2 28 0 70t-5 84.5t-5 78.5t0 52
q3 32 11 55t31 52q-10 15 -27.5 48t-28.5 74q-5 19 -7.5 40t-3 38.5t-0.5 29.5v12q0 5 1 26.5t2 51t2.5 64.5t3.5 67.5t4 58t4 37.5q1 17 3.5 35.5t3.5 37t-0.5 36.5t-8.5 35q-8 18 -17 31t-18.5 22t-21 15.5t-24.5 13.5q-7 6 -11.5 12.5t-6.5 16.5q8 23 9 50t3 53
q-1 13 15.5 19.5t32.5 -1.5q34 -23 60 -42t43 -38z" />
    <glyph glyph-name="cent" unicode="&#xa2;" horiz-adv-x="717" 
d="M201 475q-11 7 -22 17.5t-21.5 21.5t-19 21.5t-13.5 18.5q-10 16 -18 37.5t-12 47t-4 52.5t5 53t11.5 45.5t15 35.5t18.5 29t22 27q25 28 63.5 48t75.5 27q2 83 4 160t4.5 137t5 98t6.5 43q3 5 17 7.5t30.5 2t32 -3.5t21.5 -9q4 -4 5.5 -24t1.5 -47.5t-1 -59t-2.5 -59
t-2.5 -47t-1 -22.5q-1 -14 -0.5 -36t2 -44.5t3 -41t3.5 -24.5q20 0 38.5 -2.5t43.5 -10.5q13 -3 27 -12t28.5 -20.5t27 -24.5t22.5 -24q1 -2 3.5 -5t4 -7.5t0.5 -9t-7 -8.5q-10 -8 -24.5 -21t-29.5 -25t-26.5 -21t-15.5 -7q-8 4 -10.5 6.5t-6.5 5.5q-18 13 -33.5 19.5
t-43.5 4.5q-3 -59 -1 -115t3 -123q22 7 39.5 17t32.5 22t29 25t28 27q7 7 16 5q10 0 12 -9q4 -16 10.5 -33.5t11.5 -29.5q5 -13 11 -27.5t1 -21.5q-4 -9 -13 -20.5t-40 -31.5q-31 -21 -62 -33t-64 -23q-1 -10 0 -36t3.5 -60t4.5 -71.5t1.5 -69t-3.5 -53t-11 -23.5
q-12 -3 -25 -4t-26.5 -1.5t-28.5 -1.5t-32 -5q-25 0 -25 31v72v89.5v78v37.5q-20 5 -49.5 15t-50.5 24zM238 632q7 -23 21 -35.5t38 -15.5q-1 57 -1 107.5t3 107.5q-15 -13 -30 -29.5t-25 -37t-12.5 -45t6.5 -52.5z" />
    <glyph glyph-name="sterling" unicode="&#xa3;" horiz-adv-x="884" 
d="M417 838q16 -1 46 1t59.5 3.5t52 0.5t24.5 -7q1 -5 2.5 -20.5t1 -33.5t-5 -34.5t-16.5 -23.5q-8 -2 -32.5 -3t-52 -2t-52.5 -2t-33 -2q-2 -14 -4.5 -35.5t-4.5 -36.5q19 0 46 -0.5t52.5 -0.5h46.5h30q7 1 9 -5.5t1.5 -17t-2.5 -23.5t-3 -24q-2 -22 -6 -32t-12 -15
q-40 -11 -81 -9.5t-75 -0.5q-3 -7 -7 -27.5t-8.5 -50t-9.5 -63.5t-9 -67.5t-7 -62.5t-5 -48q18 -2 46 -3.5t60 -3.5t65.5 -3.5t62 -3t49.5 -2.5t29 -2q8 -2 11 -10t-2 -19q-8 -32 -7.5 -67.5t-10.5 -66.5q-2 -3 -5.5 -4.5t-11 -2t-20.5 0t-34 3.5q-27 5 -72 7.5t-96.5 3
t-104 1t-94.5 2.5t-68.5 6.5t-26.5 13.5q-1 7 -1 23v34.5v35.5t-1 26q2 18 26.5 24t59.5 4q5 30 11 75.5t11 90t9 80t5 45.5q-25 6 -46 5.5t-45 0.5q-5 0 -6.5 4.5t-2.5 9.5q-2 13 -4 29.5t-3 32.5t0.5 29t7.5 19q2 5 12.5 8t25.5 5t31.5 2t31.5 -1q3 14 6.5 33.5t4.5 29.5
q-18 -2 -40 -5t-40 2q-5 3 -6 20.5t1.5 39.5t7 43t10.5 31q3 2 11.5 3.5t19 2.5t22.5 2t21 1q0 5 1.5 22.5t3.5 42t4.5 53.5t5.5 57.5t6.5 53.5t6.5 41q9 38 19.5 77.5t25 75.5t35.5 66.5t51 51.5q16 10 30.5 18.5t30.5 14.5t35 9.5t43 3.5q48 -4 80.5 -18t53.5 -29
q13 -10 23 -15.5t18 -10.5t14 -11t12 -17t-3 -24q-21 -26 -37 -56.5t-39 -56.5q-6 -5 -12.5 -2t-8.5 10q1 16 -4 28.5t-13.5 23t-18 18.5t-16.5 14q-29 20 -53 20t-37 -8q-28 -18 -44 -48.5t-26 -67.5t-16.5 -77.5t-13.5 -78.5q-7 -45 -8.5 -87.5t-3.5 -86.5z" />
    <glyph glyph-name="yen" unicode="&#xa5;" horiz-adv-x="916" 
d="M670 1314q4 7 10 7.5t7 2.5q1 0 13 1.5t29 3t35 2.5t31 -1q14 -2 9.5 -24t-18 -51.5t-30 -59t-25.5 -44.5q-7 -13 -21.5 -36t-32.5 -50.5t-37.5 -55.5t-35.5 -51t-26.5 -37.5l-10.5 -14.5q-11 -14 -19 -27.5t-9 -25.5v-31.5v-38v-33t1 -16.5q20 -3 38 -4.5t38 -4.5
q4 0 6 -17t1.5 -37t-4 -36.5t-9.5 -16.5q-17 2 -36 5.5t-36 0.5q-1 -10 -2 -21t1 -22q18 -2 28 -3t15.5 -4t7 -8t2.5 -13v-21.5t-1 -27.5q-1 -16 -2 -33q-9 -1 -19 -2q-8 -1 -17 -1.5t-16 -1.5q1 -37 0.5 -75.5t-1 -76.5t0 -74.5t5.5 -69.5q0 -10 -5 -11q-7 -3 -23.5 -5.5
t-33 -3t-29.5 0.5t-13 6q-2 11 -4 37.5t-4.5 59.5t-5 69.5t-4.5 67t-3.5 51.5t-1.5 24q-17 -5 -36.5 -6t-37.5 -5q-15 -1 -24.5 4.5t-11.5 15.5q-1 12 -6.5 26.5t-9 28t-1 25.5t16.5 18q20 5 48 10.5t60 3.5q0 9 1 20t-1 19q-37 -2 -59.5 -3t-35 1t-18 9t-7.5 20
q-5 44 -4.5 59.5t20.5 16.5h21.5t33 1.5t32 3.5t19.5 5q-2 43 -3.5 71.5t-4.5 61.5q-27 45 -57 95.5t-57 96.5t-50 82t-37 53t-30 34t-30 32.5t-23.5 28t-9.5 19.5q-1 14 6.5 22t25.5 11q9 1 28.5 3t41.5 3.5t43 1.5t32 -2q28 -46 58 -94.5t58.5 -95t54.5 -88t45 -72.5
q15 32 33.5 60t33.5 61l12 23t27.5 54t32 63.5t27.5 50.5z" />
    <glyph glyph-name="dieresis" unicode="&#xa8;" horiz-adv-x="836" 
d="M572 1199q2 -3 4.5 -5.5t4.5 -5.5q8 -11 11.5 -27.5t2.5 -31.5q0 -13 -11 -24.5t-26.5 -18.5t-32.5 -7t-30 10q-10 8 -19 22.5t-11 28.5q0 2 -0.5 13.5t2.5 22.5q2 11 9.5 24t30.5 21q12 4 23 1.5t20 -8t15 -10.5t7 -5zM320 1201q5 -2 12 -4.5t15 -8.5q18 -15 19.5 -36
t-9 -38.5t-30 -27t-43.5 -0.5q-11 3 -17 6.5t-11 8.5q-7 5 -9.5 11.5t-5.5 20.5q-1 17 2.5 34.5t15.5 26.5q8 5 24 9.5t37 -2.5z" />
    <glyph glyph-name="copyright" unicode="&#xa9;" horiz-adv-x="1023" 
d="M653 1320q30 -11 55.5 -27.5t46 -32t34.5 -29t20 -18.5q8 -1 20 -5.5t15 -15.5q-2 -11 -4.5 -20.5t-7.5 -18.5q35 -50 50.5 -115t22.5 -134q5 -33 6.5 -75t0.5 -83q-1 -32 -3 -59t-5 -50q-2 -20 -10 -49t-24 -62.5t-41.5 -68.5t-62 -67t-86 -57t-112.5 -39q-80 -7 -138 3
t-100.5 31t-73.5 49.5t-58 57.5q-13 -11 -25 -4.5t-21.5 23t-16 39.5t-9.5 45q-5 28 -8.5 57.5t-5.5 62t-2 70.5t2 83t7.5 93t22.5 98.5t49.5 102t88.5 103.5q-4 20 -12 39.5t-10 41.5q16 10 35.5 20.5t40.5 19t44 14.5t47 6h37.5t57 -2.5t66.5 -8.5t67 -18zM232 589
q11 -29 36.5 -58t58.5 -52t70 -37.5t73 -14.5q36 1 71 9.5t65 21t52.5 27t33.5 27.5q10 13 21.5 26t23 31.5t22 44t18.5 62.5q9 37 9 82t-4.5 90t-12.5 86t-16 70q-12 32 -26.5 61.5t-34.5 54t-46 42t-61 25.5q-22 6 -46.5 8.5t-51 -1t-53.5 -14.5t-53 -32
q-53 -57 -92 -126.5t-54 -164.5q-1 -19 -2.5 -34t3.5 -32q-7 -12 -19 -15q-1 -20 -3 -41t-2 -44t4.5 -48.5t15.5 -53.5zM725 649q-10 -23 -20.5 -46.5t-23 -44.5t-29 -37.5t-38.5 -25.5q-44 -19 -70.5 -23t-48.5 -3q-51 3 -88 24t-61.5 51.5t-38.5 67.5t-18 72q-5 35 1 88.5
t19.5 109t33.5 105t44 77.5q22 24 49.5 35.5t54.5 14.5t50 -0.5t35 -10.5q25 -15 44.5 -30t19.5 -32q0 -2 -2 -11.5t-5 -21t-6.5 -21t-5.5 -12.5q-9 -5 -15.5 -4t-13 5t-15.5 8.5t-23 6.5q-29 3 -52 -6t-39.5 -27t-26 -44t-12.5 -57t-5.5 -75t4 -84.5t25.5 -70t60 -30.5
q33 -1 56 20t38.5 46.5t25 47t15.5 21.5q9 -1 22 -12t25 -25t22 -27.5t13 -18.5z" />
    <glyph glyph-name="guillemotleft" unicode="&#xab;" horiz-adv-x="923" 
d="M543 819q36 -75 74.5 -140.5t71.5 -114.5t56.5 -79t28.5 -35q10 -11 17 -24t-8 -27q-7 -1 -19 -2.5t-25 -3t-25 -2t-18 0.5q-20 26 -40.5 51t-37.5 54q-4 5 -19 28.5t-36 56.5t-45 71.5t-45.5 74t-37 64.5t-20.5 43q-3 13 9.5 32t23.5 39q10 15 25.5 44.5t30.5 62
t27 61.5t16 42q5 7 16 13q6 1 21 1t33.5 -1t38.5 -3.5t35 -5.5q9 -3 1.5 -17.5t-18.5 -37.5q-6 -12 -23.5 -45.5t-38 -73t-40 -75.5t-29.5 -52zM286 880q5 -11 15 -32t23.5 -48t30.5 -59t35 -63q27 -47 54.5 -92.5t50 -81.5t36.5 -58.5t15 -24.5q3 -12 -9 -18
q-3 -2 -18.5 -3t-34.5 -0.5t-36.5 2t-24.5 6.5q-5 3 -23 31t-42 68t-51 87.5t-50.5 88.5t-40 71t-19.5 36q-4 9 -10.5 21t-13 25t-13 24.5t-10.5 19.5q-8 15 -16 30.5t-1 35.5q12 18 25.5 38t27.5 39t27 36t24 28t20.5 24t17 24t14 19t11.5 10q10 3 24.5 -1.5t28.5 -9.5
q7 -3 18.5 -4t23 -1.5t21 -2.5t12.5 -6q7 -8 1.5 -19.5t-10.5 -21.5q-5 -7 -15.5 -24t-24.5 -39t-29 -46t-28 -46t-23 -39t-13 -24z" />
    <glyph glyph-name="registered" unicode="&#xae;" horiz-adv-x="1174" 
d="M786 1351q20 -2 41 5t38 12q27 0 47 -12.5t28 -35.5q34 -41 64.5 -104t49 -141t20 -167t-23.5 -181q-26 -74 -70 -140.5t-101 -114.5q-57 -49 -130.5 -82.5t-155.5 -46.5q-42 -6 -96 -0.5t-108 23.5t-101.5 50t-75.5 78q-15 26 -28 51.5t-24.5 53.5t-21 59t-15.5 69
q-3 19 -8 61t-5 97.5t8 119t30 125.5q18 50 50 91.5t64 72.5t58 51t32 26q27 20 61 32.5t70.5 18t74.5 4t74 -10.5q16 -3 36.5 -9t41.5 -14.5t41 -18.5t35 -22zM492 1287q-43 -13 -76 -31.5t-60 -44.5t-48.5 -61.5t-41.5 -81.5t-30.5 -96t-12.5 -99.5t4 -97.5t19 -90
q12 -42 39 -81t59.5 -70t64.5 -51.5t53 -24.5q30 -6 66.5 -7.5t72.5 3t69.5 16t57.5 30.5q24 20 42 37t33.5 35t32 39.5t37.5 50.5q44 62 60.5 141t10 160t-32.5 156t-66 128q-6 -8 -11 -15t-20 -7q-21 -1 -49.5 15t-67.5 32.5t-89.5 24.5t-115.5 -10zM618 794q7 -9 13 -18
t12.5 -19.5t14 -24t19.5 -33.5q12 -22 21.5 -44.5t17 -41.5t13.5 -33t10 -19q4 -8 2 -14.5t-13 -4.5q-3 1 -11.5 1h-18t-17 0.5t-9.5 1.5q-5 0 -9 8q-4 9 -11.5 26t-17 37t-20.5 42t-21 41q-9 16 -18 27.5t-16 19t-13 13t-9 10.5q1 -27 0 -51t-2 -47.5t-1 -48t3 -52.5
q0 -15 -3 -18t-14 -7q-12 -2 -28 0t-30 0q-12 -4 -12 11q0 7 0.5 24t1.5 38.5t2.5 45t2.5 43.5t1.5 34.5t0.5 18.5q1 14 1.5 51t0.5 84.5t-0.5 100t-1.5 97.5q-2 49 -7 82.5t-7 38.5q0 4 12 7.5t27 3.5q33 0 65 -5t60.5 -15t52 -24t38.5 -32q29 -38 37.5 -78t6.5 -76
q0 -17 -4 -37.5t-10.5 -41.5t-15 -39t-17.5 -30q-19 -21 -37.5 -30.5t-41.5 -22.5zM607 897q26 17 40 33t19 29q5 17 6.5 31t-0.5 42q-2 13 -9 28.5t-16.5 29t-21 24.5t-21.5 16q-21 8 -38 9.5t-32 1.5q-1 -1 -1.5 -32t-0.5 -74.5v-91.5v-82q10 3 18.5 5.5t17 6t18 9.5
t21.5 15z" />
    <glyph glyph-name="degree" unicode="&#xb0;" horiz-adv-x="567" 
d="M210 1102q-8 5 -24.5 25.5t-23.5 64.5q-6 45 3.5 78t17.5 49t22.5 28t31 19t33.5 9.5t29 -0.5q24 -5 40.5 -14.5t28.5 -23.5q6 -7 12 -17t10.5 -20.5t8 -20.5t4.5 -17t2.5 -25t-0.5 -40.5t-9.5 -46t-25.5 -42.5t-37.5 -26t-39.5 -6t-39 7t-36 13q-4 2 -8 6zM275 1284
q-5 -2 -11 -9t-11 -26q-3 -13 -1.5 -26.5t7.5 -23.5t16 -16t24 -4q14 1 21.5 10t10.5 21t2 23.5t-3 19.5q-3 7 -8 14.5t-12 13t-16 7t-19 -3.5z" />
    <glyph glyph-name="acute" unicode="&#xb4;" horiz-adv-x="715" 
d="M449 1323q7 -5 5 -12.5t-9 -16.5t-16.5 -19t-18.5 -22q-8 -11 -14 -17.5t-17 -23.5q-41 -64 -63 -96t-37 -18q-5 4 -10 8.5t-7 12t0 18t11 27.5q19 34 36 61t29 47t28.5 43t39.5 34q6 3 14 -3q1 -1 9 -7t20 -16z" />
    <glyph glyph-name="cedilla" unicode="&#xb8;" horiz-adv-x="707" 
d="M292 -7q12 24 40.5 31t55.5 3t43 -16t2 -27q-22 -16 -37 -28q-13 -11 -21 -21t0 -15q11 -6 25 -17t25 -26t17.5 -34.5t2.5 -42.5t-10.5 -37.5t-16 -23.5t-23 -14t-31.5 -9q-19 -4 -35.5 -0.5t-30 11t-22 15.5t-11.5 13q-2 2 2.5 9.5t11 15t14 12t12.5 1.5
q15 -11 25.5 -11t18 7t11.5 19t5 24t-12.5 20t-31.5 15.5t-35.5 17.5t-23.5 25q-5 15 8 36.5t33 41.5z" />
    <glyph glyph-name="guillemotright" unicode="&#xbb;" horiz-adv-x="966" 
d="M243 1230q17 -9 22 -15.5t10 -14.5q10 -14 24.5 -34t29.5 -42t29 -41.5t22 -31.5t26.5 -34.5t38.5 -47t37 -45.5t22 -29q18 -18 25 -35t4 -21q4 -8 1.5 -16.5t-8.5 -16.5t-13.5 -15t-11.5 -12q-2 -4 -18.5 -25.5t-40.5 -52.5t-52 -65.5t-51.5 -64.5t-39.5 -50.5
t-17 -23.5q-21 0 -42 6t-38 8q-17 1 -24.5 6t-10.5 11q-3 9 10 30t34.5 49t48.5 60.5t53.5 64t48.5 59t34 46.5q3 4 0.5 11t-12.5 21t-29 37t-49 59q-10 12 -33.5 43.5t-49.5 67t-49 65.5t-32 39q-17 17 -27 32t-1 21q5 3 22.5 4.5t38.5 1.5t40.5 -2t27.5 -7zM476 1223h24.5
t41 -0.5t38.5 -1.5t19 -2q12 -15 30.5 -40.5t40 -55.5t43.5 -62t41.5 -60t34 -48.5t19.5 -27.5q17 -22 29 -37.5t18 -29.5q2 -6 -1 -15.5t-7 -18.5t-8 -16t-4 -8q-2 -3 -15 -24t-32 -52.5t-41.5 -68.5t-43.5 -71t-37.5 -61t-23.5 -38q-2 -1 -20.5 0.5t-38.5 3.5q-10 1 -22 2
t-23 1.5t-20.5 1.5t-13.5 3q-9 2 -6.5 13.5t19.5 37.5q3 5 15.5 23t30.5 43.5t39 56t41.5 61t39 57.5t30.5 47q-2 1 -21 25t-47.5 60.5t-61.5 80t-63.5 84t-54 72.5t-32.5 46q-2 3 -2.5 5.5t4.5 6.5q4 4 17 5.5t24 1.5z" />
    <glyph glyph-name="onequarter" unicode="&#xbc;" horiz-adv-x="912" 
d="M267 1038q-1 -20 -11.5 -27.5t-24.5 -14.5q-7 -3 -15 -6.5t-15.5 -4t-13.5 4t-8 17.5q-2 10 -5.5 46t-8 83.5t-8 100.5t-5.5 99.5t-1 78.5t7 38q16 9 35 15t45 5q12 -3 15.5 -20.5t1.5 -40.5q0 -6 0.5 -35t2 -69.5t3 -86.5t3 -85.5t2.5 -67t1 -30.5zM524 1203
q-27 -63 -55 -134.5t-55 -143t-51 -138t-42.5 -119.5t-30 -87t-13.5 -40q-5 -18 -10 -35.5t-19 -28.5q-5 -3 -18 2.5t-26.5 13.5t-25 16.5t-13.5 12.5q-5 8 -1.5 16.5t8.5 22.5q4 16 15.5 50.5t27.5 81.5t35 102t38 110.5t37.5 107.5t33 93.5t23.5 68t10 31.5q3 9 5 20t6 20
t10.5 14.5t17.5 4.5q6 -1 24 -4.5t36 -11t29 -19t4 -27.5zM710 445q-1 -26 -19.5 -33.5t-59.5 -11.5q-5 15 -8.5 46t-6.5 65t-6 64t-6 44q-11 1 -30.5 -0.5t-42 -3t-46.5 -3t-43 -2t-31 1.5t-12 8t1 10t4 11t7.5 17t11.5 28t23 47.5t34 61t35 59.5t28 41q10 13 26 34t33 40
t33.5 29.5t27.5 2.5q10 -7 12 -21.5t4 -29.5q1 -6 3 -21.5t5 -43.5l7.5 -70t9.5 -101q13 4 27.5 6.5t22.5 -1.5q3 -21 6.5 -42.5t-1.5 -44.5q-11 -10 -28 -10.5t-33 0.5q-1 -12 0.5 -36.5t3.5 -51.5t4.5 -51.5t3.5 -37.5zM538 714q20 0 39 3t34 0q2 29 -1 61.5t-5 53.5
q-14 -31 -35 -58.5t-32 -59.5z" />
    <glyph glyph-name="onehalf" unicode="&#xbd;" horiz-adv-x="834" 
d="M267 1038q-1 -20 -11.5 -27.5t-24.5 -14.5q-7 -3 -15 -6.5t-15.5 -4t-13.5 4t-8 17.5q-2 10 -5.5 46t-8 83.5t-8 100.5t-5.5 99.5t-1 78.5t7 38q16 9 35 15t45 5q12 -3 15.5 -20.5t1.5 -40.5q0 -6 0.5 -35t2 -69.5t3 -86.5t3 -85.5t2.5 -67t1 -30.5zM524 1203
q-27 -63 -55 -134.5t-55 -143t-51 -138t-42.5 -119.5t-30 -87t-13.5 -40q-5 -18 -10 -35.5t-19 -28.5q-5 -3 -18 2.5t-26.5 13.5t-25 16.5t-13.5 12.5q-5 8 -1.5 16.5t8.5 22.5q4 16 15.5 50.5t27.5 81.5t35 102t38 110.5t37.5 107.5t33 93.5t23.5 68t10 31.5q3 9 5 20t6 20
t10.5 14.5t17.5 4.5q6 -1 24 -4.5t36 -11t29 -19t4 -27.5zM572 870q15 -9 27 -24t20 -34.5t11.5 -42t0.5 -45.5q-2 -52 -26.5 -101t-59.5 -94q7 -7 18 -11t23 -5.5t23.5 -2t20.5 -0.5q10 0 21.5 -0.5t19.5 -4t11 -11.5t-2 -22q-3 -8 -7 -19.5t-10 -22t-14 -17.5t-19 -6
q-9 1 -32 2.5t-49.5 4t-50.5 6t-35 6.5q-23 7 -39 11t-29 17q-4 7 8.5 31.5t30.5 53t34.5 53t20.5 31.5q12 22 24 46t16 42.5t-4 29t-35 5.5q-16 -5 -26.5 -14.5t-21.5 -19.5q-11 -7 -20 -5t-16 7.5t-12.5 13t-9.5 12.5q-7 10 -8 19t-1 24q31 40 60 62.5t54.5 30.5t46.5 5.5
t36 -11.5z" />
    <glyph glyph-name="threequarters" unicode="&#xbe;" horiz-adv-x="1097" 
d="M895 494q-1 -26 -19.5 -33.5t-59.5 -11.5q-5 15 -8.5 46t-6.5 65t-6 64t-6 44q-11 1 -30.5 -0.5t-42 -3t-46.5 -3t-43 -2t-31 1.5t-12 8t1 10t4 11t7.5 17t11.5 28t23 47.5t34 61t35 59.5t28 41q10 13 26 34t33 40t33.5 29.5t27.5 2.5q10 -7 12 -21.5t4 -29.5
q1 -6 3 -21.5t5 -43.5l7.5 -70t9.5 -101q13 4 27.5 6.5t22.5 -1.5q3 -21 6.5 -42.5t-1.5 -44.5q-11 -10 -28 -10.5t-33 0.5q-1 -12 0.5 -36.5t3.5 -51.5t4.5 -51.5t3.5 -37.5zM723 763q20 0 39 3t34 0q2 29 -1 61.5t-5 53.5q-14 -31 -35 -58.5t-32 -59.5zM418 1338
q2 -39 -14.5 -61.5t-33.5 -35.5q7 -9 15 -19.5t14.5 -22.5t10 -27t1.5 -33q-5 -36 -35 -58.5t-71 -30.5q-23 -4 -47 0t-43.5 11.5t-33 15.5t-15.5 11q0 11 1.5 19t3.5 21q4 20 14 24.5t25 2.5q6 -1 19 -6.5t27 -9t26.5 -1.5t16.5 17q5 12 -7.5 20t-29.5 14t-33.5 10.5
t-19.5 9.5q-7 9 -3.5 19t29.5 22q12 6 28.5 16t29 22t16 23t-9.5 19q-29 16 -62.5 14.5t-61.5 -11.5q-3 4 -7 16t-7.5 26t-6.5 27t-4 20q6 4 11.5 7.5t14 6.5t20 4.5t28.5 3.5q60 2 97 -6.5t58.5 -24t29.5 -35t9 -40.5zM748 1308q-2 -3 -22.5 -46.5t-52.5 -111t-71.5 -151.5
t-80.5 -168q-35 -71 -68 -137.5t-60.5 -119.5t-46.5 -88.5t-25 -45.5q-5 -3 -11.5 -2.5t-13.5 8.5q-3 8 -10 15.5t-15.5 14.5t-16 13.5t-11.5 11.5q-5 4 5.5 27.5t29.5 56.5q1 3 18.5 42t44.5 98t60.5 132.5t67.5 145.5q29 62 55.5 118t47.5 98.5t34 68t14 28.5q13 21 27 22
t28 -2q7 -2 20 -4t26 -5.5t21.5 -8t5.5 -10.5z" />
    <glyph glyph-name="Agrave" unicode="&#xc0;" horiz-adv-x="984" 
d="M543 1674q28 -26 48 -49t22 -26q-2 -5 -6 -19t-7 -23t-6 -12t-8 -3q-5 1 -8.5 2t-8.5 6q-32 27 -63 55t-64 53q-9 6 -19.5 12.5t-18.5 13.5t-13 12.5t-2 9.5q10 14 22 27t27 21q7 3 14 -4q1 -1 9.5 -7.5t21.5 -17t29 -24t31 -27.5zM752 -97q-2 1 -3 10t-1.5 27t-3 46
t-7.5 67q-6 42 -13 89.5t-14.5 95.5t-15 93t-14 80.5t-11 59t-6.5 28.5q-1 0 -22.5 -2.5t-54 -7t-71 -11t-72.5 -12.5q-65 -13 -102 -25t-46 -15q-9 -54 -20.5 -110t-21.5 -104q-3 -16 -8.5 -41.5t-12.5 -54t-15 -58t-15 -53.5t-13 -40t-8 -19q-8 -8 -12 -11t-11 -5
q-4 -1 -15 3.5t-23 10.5l-23 11.5l-15 7.5q-8 3 -13.5 5t-7.5 8q-1 3 2.5 35t12 88t23 132t36.5 168q11 46 29.5 115.5t41 152.5t48 173.5t50 178t47.5 167.5t41 141t29 98t12 39q11 7 22 10t31 6q9 1 25 2t32 0.5t28.5 -2.5t15.5 -6t9 -22.5t13.5 -42.5t14 -49.5
t11.5 -43.5q2 -8 12 -52.5t26 -114t37 -158t45 -184.5q32 -132 68 -261.5t61 -251.5q12 -61 20 -123.5t12 -114t5 -86.5t1 -40q4 -22 -4 -31.5t-18 -8.5q-8 2 -11.5 6.5t-8.5 9.5q-16 -1 -32 -3t-32 -3t-32 -1t-32 4zM327 563q9 2 33.5 7t56.5 12t68 14.5t68.5 14.5
t56.5 12.5t32 8.5q-2 16 -7.5 53.5t-13.5 89t-19 111.5t-23 121q-10 47 -20.5 92.5t-20.5 84t-17.5 68t-10.5 44.5q-20 -69 -43 -158.5t-47 -187t-47.5 -197.5t-45.5 -190z" />
    <glyph glyph-name="Aacute" unicode="&#xc1;" horiz-adv-x="1036" 
d="M528 1789q6 -5 4 -12.5t-8.5 -16.5t-16 -19t-18.5 -22q-8 -11 -14 -18t-17 -23q-42 -64 -64 -96.5t-36 -17.5q-5 4 -10 8.5t-7 11.5t0 18t11 28q19 33 36 60.5t29 47.5t28.5 42.5t39.5 34.5q6 3 14 -3q1 -1 8.5 -7t20.5 -16zM675 882q9 -30 20 -69.5t22 -82t21.5 -83.5
t18.5 -73t13 -52.5l5 -20.5q13 -3 34 -3t41 0.5t34.5 1.5t15.5 1q9 -5 11 -18t4 -31q2 -23 -1.5 -46t-5.5 -34q-8 -7 -18 -10t-21.5 -4l-23 -2t-21.5 -4q16 -44 29 -90t26.5 -91.5t28.5 -90t34 -84.5q33 -60 33.5 -87.5t-17.5 -37.5q-24 -11 -41 -17.5t-30.5 -6.5t-25.5 6.5
t-28 20.5q-11 9 -27 47.5t-34.5 90.5t-37 110.5t-34 108.5t-26 84.5t-11.5 37.5q-6 1 -29 2.5t-56 2.5t-71.5 2t-75.5 1h-69.5t-53.5 -1q-8 -29 -16.5 -71t-17.5 -88t-17.5 -92.5t-16 -84.5t-14 -64t-10.5 -30q-5 -5 -22.5 -6.5t-38.5 -0.5t-40.5 4t-28.5 7q-8 4 -8.5 20.5
t2.5 36.5t7 38t6 24q1 4 5 26t10 53.5t12.5 68.5t13.5 72t12.5 64t8.5 44q-7 2 -19 1t-20 1q-7 4 -16.5 14.5t-18 25t-14.5 31.5t-7 35q0 5 6 9t12 6q23 1 49.5 4.5t49.5 4.5q8 36 23 96t33 130t37.5 143t36.5 135t29 105.5t16 55.5q12 34 26.5 62t19.5 66q-5 13 -13.5 39
t-17 53t-13 50t0.5 30t10.5 9.5t11.5 3t12 0t12 0.5q6 4 15 9t17.5 8t16.5 2.5t13 -6.5q10 -13 19 -34.5t17 -41.5q6 -2 14.5 -3t16.5 -2t15 -4t9 -10q-1 -19 -5.5 -36t-9 -33t-7.5 -32t0 -32l8 -21t21 -55t29 -76.5t31.5 -86t30 -84.5t23.5 -71zM338 513q2 -1 21 -2
t46.5 -2t60.5 -2t63 -2t54 -2t35 -2q-6 25 -17.5 72.5t-26 105.5t-30.5 120.5t-31 118t-27.5 98t-20.5 59.5q-3 -27 -13 -77t-23.5 -109.5t-29 -123t-28.5 -117t-22.5 -90.5t-10.5 -45z" />
    <glyph glyph-name="Acircumflex" unicode="&#xc2;" horiz-adv-x="778" 
d="M479 1762q28 -26 48 -48.5t22 -25.5q-2 -5 -6.5 -19.5t-7.5 -23.5q-4 -16 -13 -14q-5 1 -8.5 1.5t-8.5 5.5q-32 28 -63 56t-64 52q-8 -11 -14.5 -18t-16.5 -23q-42 -64 -64 -96t-37 -18q-4 4 -9 8.5t-7 12t0 18t11 27.5q19 33 36 60.5t29 47.5t28 43t40 34q5 2 14 -3
q1 -1 9.5 -7.5t21.5 -17t29 -24t31 -28.5zM567 449q-14 4 -26 4.5t-26 -1.5q-63 -7 -122.5 -16t-121.5 -12q0 -1 -5.5 -37.5t-14 -90.5t-19 -117.5t-21 -118.5t-19 -94t-12.5 -44q-6 -8 -25 -7.5t-39 5t-36.5 11.5t-18.5 13t2.5 28t11 53.5t14 68.5t13.5 73q6 40 11 70
t8.5 57t6 54t3.5 62q-38 13 -53 53q-8 21 -0.5 37t18.5 25q8 5 22.5 8.5t27.5 2.5q14 166 31 307.5t33 249.5t30 179.5t23 98.5t20.5 57t23.5 56.5t22.5 46.5t18.5 28q15 16 31 24t31 10q15 1 25.5 -2.5t16.5 -8.5q20 -15 36 -36t29 -46t24 -52t21 -54q16 -39 27 -85.5
t19 -93t13.5 -88t10.5 -69.5q11 -57 26.5 -160.5t27.5 -258.5q6 -77 9 -153t4 -139t1.5 -108.5t0.5 -61.5q0 -17 2.5 -30.5t6 -26.5t6 -27t2.5 -30q-5 -10 -22.5 -16.5t-38.5 -9t-41 0t-30 10.5q-6 8 -5 17q0 95 -8 193t-6 191zM371 1150q-4 -17 -11 -63t-15.5 -106.5
t-18 -128t-17.5 -127t-14.5 -104t-8.5 -57.5q5 -1 36.5 4t71 12t77 13t54.5 8q-1 7 -2 33t-3 63.5t-6 82.5t-10 90q-11 77 -24.5 155.5t-26.5 143.5t-22 109t-11 53q-8 -26 -14.5 -48.5t-12.5 -43.5t-11 -42.5t-11 -46.5z" />
    <glyph glyph-name="Atilde" unicode="&#xc3;" horiz-adv-x="838" 
d="M554 1751q0 -3 -3.5 -15t-11.5 -28t-20 -33.5t-29 -31.5q-18 -15 -35.5 -13.5t-34 9t-29.5 16.5t-22 9t-14.5 -9.5t-9.5 -21t-7.5 -21.5t-7.5 -11q-28 -5 -45 2t-26 15q-4 4 1 28.5t16.5 52t26.5 50.5t32 23t32.5 -12t29.5 -26t26.5 -24t23.5 -4t16 17.5t9 23t8 20
t13 9.5q18 2 34 -3t27 -22zM596 361q-14 3 -25.5 3.5t-25.5 -0.5q-64 -7 -123 -16t-121 -13q0 -1 -5.5 -37t-14 -90.5t-19 -117.5t-21 -118.5t-19 -94t-12.5 -43.5q-6 -8 -25 -7.5t-39.5 5t-37 11.5t-17.5 13q-2 6 2.5 28t11 53t14 68t12.5 73q6 40 11 70t9 57t6.5 54
t3.5 62q-38 14 -53 54q-8 21 -0.5 37t18.5 24q8 5 22.5 9t27.5 3q14 166 31 307.5t33 249.5t30 179.5t23 98.5t20.5 56.5t23.5 56t22.5 46.5t18.5 28q29 32 61 34q16 1 26.5 -2.5t15.5 -8.5q20 -15 36 -36t29 -45.5t24 -51.5l22 -54q16 -39 27 -86t19 -93t13.5 -87.5
t10.5 -69.5q11 -57 26 -161t28 -259q6 -77 9 -153t4 -139t1.5 -108.5t0.5 -61.5t2.5 -29.5t6 -27t6 -27.5t2.5 -30q-5 -10 -22.5 -16.5t-38.5 -8.5t-41 0t-30 10q-6 7 -6 17q0 48 -2 96.5t-5 97t-5.5 96.5t-1.5 95zM401 1061q-4 -17 -11 -63t-16 -106.5t-18.5 -128
t-17.5 -127t-14 -103.5t-8 -57q3 -1 18.5 1t38.5 5.5t50 8.5t52.5 9t47 7.5t32.5 4.5q-1 7 -2 33t-3 63.5t-6 82.5t-10 90q-11 77 -24.5 155.5t-26.5 143.5t-22 109.5t-11 52.5q-8 -26 -14.5 -48.5t-12.5 -43.5t-11 -42.5t-11 -46.5z" />
    <glyph glyph-name="Adieresis" unicode="&#xc4;" horiz-adv-x="1043" 
d="M782 -43q-5 1 -5.5 36t-10.5 113q-6 42 -13 90t-14.5 95.5t-15 92.5t-14 81t-11 59.5t-6.5 28.5q-1 0 -22.5 -3t-54 -7.5t-71 -10.5t-72.5 -13q-65 -13 -102 -24.5t-46 -14.5q-9 -54 -20.5 -110.5t-20.5 -103.5q-4 -25 -14.5 -68t-22 -86t-22 -76t-14.5 -37
q-8 -8 -11.5 -10.5t-11.5 -4.5q-4 -1 -15 3.5t-23 10.5l-23 11.5l-15 7.5q-8 2 -13 4t-7 9q-1 3 2 35t11.5 87.5t23 132t36.5 168.5q11 46 29.5 115.5t41 152.5t48 173.5t50 178t47.5 167t41 140.5t29 98t12 39q11 8 22 11t31 5q10 1 25.5 2t31.5 1t28.5 -2t15.5 -6t9 -22.5
t13.5 -42.5t14 -49.5t11.5 -43.5q2 -8 12 -52.5t26 -114.5t37 -158.5t45 -183.5q32 -132 68 -261.5t61 -251.5q12 -61 20 -123.5t12 -114.5t5 -86.5t1 -40.5q4 -21 -4 -30.5t-18 -9.5q-8 2 -11.5 7t-8.5 9q-32 -2 -64 -6t-63 4zM356 617q9 2 33.5 7t56.5 11.5t68.5 14
t68.5 14.5t56 13t33 9q-2 16 -7.5 53.5t-14 89t-19.5 111.5t-23 121q-9 47 -20 92.5t-20.5 84t-17.5 67.5t-11 44q-20 -69 -43 -158t-46.5 -186.5t-47.5 -197.5t-46 -190zM727 1735q2 -3 4.5 -5.5l4.5 -4.5q9 -11 12.5 -28t1.5 -32q0 -13 -10.5 -24.5t-26 -18t-33 -6.5
t-30.5 10q-10 8 -18.5 22.5t-10.5 28.5q-1 2 -1 13.5t2 22.5q3 10 10 23t31 22q12 4 23 1t20 -8t14.5 -10.5t6.5 -5.5zM475 1737q6 -2 13 -4.5t15 -7.5q18 -15 19 -36t-9 -38.5t-29.5 -27t-43.5 -1.5q-19 7 -29 15q-7 5 -9.5 12t-5.5 21q-1 17 3 34.5t15 25.5q9 5 24.5 10
t36.5 -3z" />
    <glyph glyph-name="Aring" unicode="&#xc5;" horiz-adv-x="983" 
d="M433 1502q-4 3 -10.5 9.5t-14 17t-14 26.5t-9.5 38q-6 45 3 77.5t17 49.5q8 16 22.5 28t31 19t33.5 9.5t29 -0.5q25 -5 41.5 -14.5t28.5 -23.5q6 -7 12 -17t10.5 -20.5t7.5 -21l5 -17.5q1 -7 2.5 -24.5t-0.5 -40t-10 -46.5t-26 -42q-18 -19 -37.5 -26t-39 -6.5t-38.5 6.5
t-36 14q-2 1 -4 2.5t-4 2.5zM491 1703q-7 -3 -15 -12.5t-14 -34.5q-4 -18 -2 -36.5t10 -32.5t22 -22t33 -6t28.5 14.5t13.5 28.5t3 32.5t-4 26.5t-10 20.5t-17 17.5t-22 9t-26 -5zM752 -186q-5 1 -5 36.5t-10 113.5q-6 42 -13 90t-15 95.5t-15.5 92.5t-14 81t-11 59.5
t-6.5 28.5q-1 0 -22.5 -3t-54 -7.5t-70.5 -10.5t-72 -13q-66 -13 -103 -24.5t-46 -15.5q-9 -54 -20 -110t-21 -104q-3 -16 -8.5 -41.5t-13 -54t-15 -58t-15 -53.5t-13 -40.5t-8.5 -18.5q-8 -8 -11.5 -10.5t-11.5 -4.5q-3 -1 -14 3.5t-23.5 10.5t-23.5 11.5t-15 6.5
q-8 3 -13 5t-7 9q-1 3 2.5 35t11.5 87.5t22.5 132t36.5 168.5q11 46 29.5 115.5t41 152t48 173t50.5 178.5t48 167.5t40.5 140.5t28.5 98t12 39q11 7 22.5 10t30.5 6q10 1 25.5 2t31.5 1t28.5 -2.5t15.5 -6.5t9 -22t13.5 -42t14 -50t11.5 -44q2 -8 12 -52.5t26 -114t37 -158
t45 -184.5q32 -132 68 -261t61 -251q12 -61 20 -124t12 -114.5t5.5 -86.5t1.5 -40q3 -21 -5 -31t-18 -9q-8 2 -11.5 6.5t-8.5 9.5q-32 -2 -64 -6t-63 3zM326 474q9 2 33.5 7t56.5 12t68.5 14.5t68.5 14.5t56 12.5t33 8.5q-2 16 -7.5 54t-14 89t-19 111.5t-22.5 120.5
q-10 47 -20.5 92.5t-20.5 84t-17.5 68t-11.5 44.5q-20 -69 -42.5 -158.5t-46.5 -187t-48 -197.5t-46 -190z" />
    <glyph glyph-name="Ccedilla" unicode="&#xc7;" horiz-adv-x="968" 
d="M407 57q-46 12 -80 34.5t-70 51.5q-25 20 -51.5 66t-49 107t-39.5 132.5t-22 142.5q-5 70 -4.5 149.5t5.5 155.5t13.5 143.5t19.5 114.5t22 83t23.5 64.5t29 53t37.5 49.5t58 50.5t83 46.5t99.5 35t107.5 14t98 -9.5t80.5 -27t66 -41t55.5 -50.5q12 -15 23 -31t20 -34
t15 -39t6 -46q1 0 -1 -2q-10 -8 -22.5 -11t-26 -4.5t-26.5 -3t-24 -6.5q-22 22 -40 47t-46 42q-14 8 -31 18t-39 17.5t-51 12t-68 2.5t-70.5 -12.5t-58.5 -28t-50.5 -40.5t-45.5 -50q-21 -27 -42 -82t-36.5 -128.5t-23.5 -160t-5 -176.5t17.5 -167t35.5 -136t45.5 -99
t48.5 -58t43.5 -27.5t37 -14t33 -4.5t30.5 1t32.5 10.5t31.5 20t23.5 20t9.5 11.5q7 5 12 12.5t9 15.5t8.5 16t10.5 14q10 0 29.5 -7.5t40.5 -17.5t39 -20.5t24 -17.5q1 -4 0.5 -6.5t-1.5 -5.5q-11 -18 -22.5 -35.5t-22.5 -37.5q-25 -33 -60.5 -60t-80.5 -43
q-16 -5 -24.5 -10.5t-13.5 -10.5t-7 -11q-22 -15 -37 -27q-13 -11 -21 -21.5t0 -15.5q10 -6 24 -17t25.5 -26t18 -34t2.5 -42t-10.5 -38t-16.5 -24t-23.5 -14t-31.5 -9t-35 0t-30 11t-22 15t-12 13q-2 3 2.5 10.5t11 14.5t14 11.5t12.5 1.5q15 -11 25.5 -10.5t18 7.5
t11.5 18.5t6 23.5q1 12 -13 20t-32 15.5t-35 17.5t-23 25q-3 8 1 22t11 28q8 17 19 36z" />
    <glyph glyph-name="Egrave" unicode="&#xc8;" horiz-adv-x="735" 
d="M435 1610q28 -26 47.5 -48.5t21.5 -25.5q-2 -5 -6 -19.5t-7 -23.5t-6 -12t-8 -2t-8 1.5t-9 5.5q-32 28 -63 56t-64 52l-19.5 13t-18.5 13.5t-13 12t-2 9.5q10 14 22 27t28 21q5 3 13 -3q1 -1 9.5 -7.5t21.5 -17t29 -24t32 -28.5zM660 1446q6 -1 9.5 -13t4.5 -30
t-0.5 -38.5t-4.5 -38t-8.5 -29t-12.5 -10.5q-6 0 -30.5 -5t-58.5 -12t-72.5 -16t-72 -17t-57.5 -14.5t-29 -9.5t-7.5 -15.5t-3.5 -28t-1 -31v-22.5q-1 -20 -1 -48t0.5 -58t1 -60.5t1.5 -55t2 -41t3 -19.5q4 1 30.5 8t62.5 15.5t75.5 15.5t69.5 9q11 1 16.5 -2t9.5 -8
q3 -10 6 -28t4.5 -36t1 -32.5t-4.5 -17.5q-27 -13 -59 -20t-64 -13t-63 -14t-57 -22q-3 -20 -7 -63t-8 -97t-7.5 -114.5t-5.5 -116.5t-2.5 -102.5t1.5 -71.5q67 4 121 10t92.5 9.5t60.5 3t25 -10.5q4 -19 5.5 -42t0.5 -45.5t-4 -42t-8 -32.5q-8 -15 -36.5 -19.5t-63.5 -6.5
q-119 -8 -190.5 -13t-110.5 -5.5t-54 2.5t-21 12q-5 6 -7 46.5t-1.5 98.5t2 125.5t3.5 127.5l3.5 105t1.5 57q-2 120 3.5 234t1.5 228q-1 25 -0.5 62t1 78.5t1.5 84.5t2 80t2 64.5t1 38.5q0 6 6 9t14.5 4.5t19 1.5h19.5q23 2 41.5 3.5t36.5 3t37.5 3t43.5 3.5q11 1 31 3.5
t42 6t43 7t35 6.5t31 7.5t35.5 8t37 5.5t34.5 0z" />
    <glyph glyph-name="Eacute" unicode="&#xc9;" horiz-adv-x="851" 
d="M533 1749q7 -5 5 -12.5t-8.5 -16.5t-16 -19t-18.5 -22q-8 -11 -14 -18t-17 -23q-41 -64 -63 -96.5t-37 -17.5q-5 4 -10 8.5t-7 11.5t0 18t11 28q19 33 36 60.5t29 47.5t28.5 42.5t39.5 34.5q6 3 14 -3q1 -1 8.5 -7t19.5 -16zM278 1290q-3 -23 -5 -68.5t-3 -101.5
t-0.5 -116t1.5 -111t2.5 -86t4.5 -42q26 0 67.5 1t88.5 1.5t95 0.5t87.5 -0.5t65 -2.5t27.5 -5q8 -15 9 -34t-1 -39t-6.5 -39t-8.5 -33q-8 -22 -45 -14q-12 2 -39.5 3.5t-63.5 2.5t-76.5 1.5t-79 0.5t-71 -0.5t-51.5 -1.5q0 -8 1 -39.5t3 -77.5t4 -101t4.5 -110t4.5 -105
t4 -86q120 4 244.5 4.5t252.5 5.5q12 -1 18.5 -14t8 -31t-1.5 -37.5t-9 -34.5q-7 -20 -45 -29.5t-92.5 -13.5t-117 -3.5t-118 2t-97 2t-52.5 -3.5q-7 -3 -21 -3.5t-31 -0.5t-33.5 1t-27.5 2q-7 1 -15 4t-16 16q-8 14 -12 41.5t0 53.5q3 12 7.5 15t11.5 4q-1 16 -2 60.5
t-2.5 103.5t-2.5 124.5t-2.5 122t-2 97t-0.5 49.5q0 11 -1 51t-1.5 97t-1.5 126.5t-1 141.5v140.5t1.5 123t4.5 90.5t7 42q6 11 13 13.5t14 3.5q12 0 37 -0.5t53 -1t53.5 -2t39.5 -2.5q25 0 73.5 1t102.5 1t104 -1.5t77 -4.5q16 -4 23.5 -12.5t3.5 -21.5q-3 -18 -5 -39.5
t-6 -41t-10 -34t-18 -18.5q-15 -6 -35.5 -4t-40.5 7q-7 2 -32 3t-60 2.5t-75 2t-76.5 1t-65 1t-39.5 0.5z" />
    <glyph glyph-name="Ecircumflex" unicode="&#xca;" horiz-adv-x="797" 
d="M569 1733q28 -26 48 -48.5t22 -25.5q-2 -5 -6 -19.5t-8 -23.5q-4 -16 -13 -14q-5 0 -8.5 1t-8.5 6q-32 28 -63 55.5t-64 52.5q-8 -11 -14 -18t-17 -23q-42 -65 -64 -97t-37 -18l-9 9t-7 12t0 18t11 28q19 33 36 60t29 47t28.5 43t39.5 35q6 3 14 -4q1 -1 9.5 -7.5
t21.5 -17t29 -24t31 -27.5zM732 1554q1 -17 2 -37.5t1 -42.5t-1.5 -43.5t-7.5 -40.5q-3 -12 -23 -17q-57 -14 -121.5 -27.5t-124.5 -15.5q-45 -4 -66 -8.5t-19 -18.5q-1 -34 -1 -82t0.5 -100.5l1 -105t2 -96t3 -73t4.5 -36.5q23 -2 49.5 -2t54.5 0.5t55 1t51 0.5
q14 1 20.5 -19t8.5 -48t0.5 -57t-2.5 -47q-3 -9 -29 -12.5t-61.5 -4.5t-72 -1.5t-60.5 -4.5q-1 -5 -2 -29.5t-3 -61t-3 -81l-2 -89t-0.5 -85t3.5 -69.5q18 -3 48.5 -2.5t65.5 1.5t72 2t68 0.5t54 -3t30 -9.5q4 -5 6.5 -18.5t3 -31.5t-0.5 -39.5t-4 -42.5q-2 -10 -13 -15
q-18 -6 -48.5 -10.5t-67 -7.5t-74.5 -4.5t-71 -2.5t-57.5 -1.5t-33.5 -0.5q-56 1 -91 3t-54.5 12t-26 31.5t-5.5 61.5q0 12 -0.5 42.5t-1.5 74t-2.5 96t-3.5 106.5t-3.5 107.5t-3 98.5t-3.5 79t-3 49q0 4 -1 27.5t-3 59t-4.5 81.5t-5 96t-5 102t-5.5 99q-3 44 -6 82t-5 65.5
t-3 43.5t0 17q4 5 10.5 8.5t14.5 1.5q5 -2 8.5 -40.5t7 -100t6.5 -138t6.5 -153t7 -145.5t8.5 -115q-1 14 -1.5 46.5t0 77t0.5 97t0.5 107.5t1 108t0.5 97.5t-0.5 77.5t-1.5 48v17t1 8.5t3 3t4 2.5q7 5 33 13t64 18.5t84 21.5t93 20.5t92 17.5t80 11.5t56.5 2.5t22.5 -9z
" />
    <glyph glyph-name="Edieresis" unicode="&#xcb;" horiz-adv-x="851" 
d="M278 1289q-4 -23 -6 -68.5t-2.5 -102t-0.5 -116t1.5 -110.5t3 -86t4.5 -42q26 0 67.5 1t88.5 1.5t95 0.5t87.5 -0.5t65 -2.5t27.5 -5q8 -15 9 -34t-1 -39t-6.5 -39t-8.5 -33q-8 -22 -45 -14q-12 2 -39.5 3.5t-63.5 2.5t-76.5 1.5t-79 0.5t-71 -0.5t-51.5 -1.5
q0 -8 1 -39.5t3 -77.5t4 -101.5t4.5 -110.5t4.5 -105t4 -86q119 5 244 5.5t253 5.5q12 -1 18.5 -14t8 -31t-1.5 -38t-9 -34q-7 -20 -45 -30t-92.5 -14t-117 -3.5t-118 2t-97 2t-52.5 -3.5q-7 -2 -21 -2.5t-31 -0.5t-33.5 1t-27.5 2q-7 1 -15 4t-16 16t-12 41t0 54q2 12 7 15
t12 4q-1 15 -2 60t-2.5 104t-3 124t-2.5 122t-2 97.5t-1 49.5q0 11 -0.5 50.5t-1.5 97t-1.5 127t-0.5 141v140t1.5 123.5t4.5 90.5t7 42.5q6 10 13 13t14 3q12 1 37 0.5t53 -1.5t53.5 -2t39.5 -2q25 0 73.5 0.5t102.5 0.5t104 -1t77 -4q34 -10 27 -34q-3 -18 -5 -39.5
t-6 -41t-10 -34t-18 -19.5q-15 -6 -35.5 -3.5t-40.5 7.5q-7 2 -32 3t-60 2.5t-75 2t-76.5 1t-65 1t-39.5 0.5zM621 1640q2 -3 4.5 -5.5t4.5 -5.5q8 -11 12 -27.5t2 -31.5q0 -13 -11 -25t-26.5 -18.5t-32.5 -6.5t-30 10q-10 8 -19 22.5t-11 28.5q0 2 -0.5 13.5t2.5 22.5
q2 11 9.5 24t30.5 21q12 4 23 1.5t20 -8t15 -10.5t7 -5zM369 1642q5 -2 12 -5t15 -8q18 -15 19.5 -36t-9 -38.5t-30 -27t-43.5 -1.5q-11 4 -17 7.5t-11 7.5q-7 5 -10 12t-5 21q-1 17 2.5 34.5t15.5 25.5q8 5 24 10t37 -2z" />
    <glyph glyph-name="Igrave" unicode="&#xcc;" horiz-adv-x="682" 
d="M437 1688q28 -26 47.5 -48.5t21.5 -25.5q-2 -5 -6 -19.5t-7 -23.5t-6 -12t-8 -2t-8 1.5t-9 5.5q-32 28 -63 56t-64 52l-19.5 13t-18.5 13.5t-13 12t-2 9.5q10 14 22 27t27 21q7 3 14 -3q1 -1 9.5 -7.5t21.5 -17t29 -24t32 -28.5zM615 1523q1 -14 3.5 -30.5t2.5 -31
t-3 -24.5t-12 -11h-11.5t-11.5 -1q-4 -17 -18.5 -22.5t-33 -5.5t-38 2t-33.5 1q-2 -43 -4 -76t-4.5 -63.5t-5 -60.5t-4.5 -67.5t-4 -84.5t-3 -111q-2 -133 -2 -260.5t1 -237.5t2.5 -196.5t1.5 -137.5q14 1 35 6t41 8.5t35 4t18 -8.5q3 -11 -6.5 -19.5t-19.5 -10.5
q-25 -4 -56.5 -10t-47.5 -14q0 -8 2 -10q5 2 26.5 5t48 4t51.5 -0.5t37 -8.5q8 -26 11.5 -58t1.5 -64q-5 -7 -31 -13t-64.5 -9.5t-86.5 -6t-97.5 -2.5t-96 1.5t-83 4.5t-58.5 8.5t-22 12.5q-2 11 -3.5 25.5t-2 29t1.5 28t8 24.5q24 6 52 9.5t56.5 6t57 3.5t53.5 3
q1 10 2.5 50t3.5 96.5t4 124.5t3.5 135t2 127t0.5 101q-1 16 -2.5 24.5t-2.5 16.5q-2 7 -4.5 1.5t-8.5 -5.5q-4 0 -5 30t-1 81t1.5 118t3 140t3.5 147t2 140q-15 3 -37 3h-41.5t-32.5 2t-11 10q8 28 6.5 58t7.5 56q1 3 4.5 4.5t8.5 2.5q9 1 36.5 3t64 4.5t76.5 5.5t75.5 5.5
t61.5 4.5t33 3q36 -1 48 -5.5t14 -14.5z" />
    <glyph glyph-name="Iacute" unicode="&#xcd;" horiz-adv-x="625" 
d="M478 1768q7 -5 5 -12t-9 -16t-16.5 -19.5t-18.5 -22.5q-8 -11 -14 -17.5t-17 -23.5q-41 -64 -63 -96t-37 -18q-5 4 -9.5 8.5t-7 12t0 18t11.5 27.5q18 34 35 61t30 47q12 20 28 43t40 34q3 2 6.5 0.5t6.5 -3.5q1 -1 9 -7t20 -16zM551 1414q-34 -14 -72 -21t-73 -17
q0 -4 -1.5 -41t-4 -98t-6 -141t-7.5 -170t-8 -185.5t-8 -187t-7.5 -175t-6 -149.5t-4 -109.5t-1.5 -56.5q27 -8 58 -9t57 -9q6 -3 2 -17q-4 -17 -6.5 -30.5t-4.5 -30.5q-2 -16 -6.5 -32.5t-13.5 -17.5q-72 5 -144.5 7t-147.5 0q-36 0 -56.5 6.5t-18.5 21.5q6 21 6.5 43.5
t-0.5 42.5q0 5 4 10.5t9 7.5q29 10 59 11t59 -1q1 7 4 47t6 103t7 145.5t7.5 173.5t8 187t8 186.5t7 171t6 142t4 98t1.5 39.5q-39 -7 -77.5 -15t-77.5 -4q-8 5 -14 13.5t-8 37.5q0 29 10.5 46.5t24.5 31.5q20 8 55 16t76 15t84 14t80 12.5t63.5 10t34.5 7.5q14 4 23.5 5.5
t12.5 -7.5q4 -12 5.5 -24.5t1.5 -25t0.5 -25.5t2.5 -27q1 -10 -1 -15.5t-12 -10.5z" />
    <glyph glyph-name="Idieresis" unicode="&#xcf;" horiz-adv-x="625" 
d="M551 1434q-34 -14 -72 -21.5t-73 -16.5q0 -4 -1.5 -41t-4 -98t-6 -141t-7.5 -170t-8 -185.5t-8 -187t-7.5 -175t-6 -149.5t-4 -109.5t-1.5 -56.5q27 -8 58 -9t57 -9q5 -4 2 -17q-4 -17 -6.5 -31t-4.5 -30t-6.5 -32.5t-13.5 -17.5q-71 5 -144 6.5t-148 -0.5
q-36 0 -56.5 6.5t-18.5 22.5q6 21 6.5 43.5t-0.5 41.5q0 6 4 11.5t9 7.5q29 10 59 11t59 -1q1 7 4 46.5t6 103t7 145.5t7.5 173.5t8 187t8 186t7 171.5t6 142t4 97.5t1.5 39.5q-39 -6 -77.5 -14.5t-77.5 -3.5q-8 5 -14 13.5t-7 36.5q-1 29 9.5 46.5t24.5 32.5q20 8 55 15.5
t76 15t84 14t80 12t63.5 10.5t34.5 8q14 4 24 5t12 -8q4 -12 5.5 -24t1.5 -24.5t0.5 -25.5t2.5 -27q1 -10 -0.5 -15.5t-12.5 -10.5zM476 1747q2 -3 4 -5.5t4 -5.5q9 -11 12.5 -28t2.5 -31q0 -13 -11 -25t-26.5 -18.5t-32.5 -6.5t-30 10q-11 8 -19.5 22.5t-10.5 28.5
q-1 2 -1 13.5t3 22.5q2 11 9.5 23.5t30.5 21.5q12 4 23 1t20 -8t15 -10t7 -5zM224 1748q5 -2 12 -4.5t15 -7.5q18 -15 19.5 -36t-9 -38.5t-30 -27t-43.5 -1.5q-11 4 -17 7.5t-11 7.5q-8 5 -10.5 12t-4.5 21q-1 17 2.5 34.5t15.5 25.5q8 5 24 10t37 -3z" />
    <glyph glyph-name="Ntilde" unicode="&#xd1;" horiz-adv-x="1013" 
d="M614 1572q1 -3 -2.5 -15.5t-11.5 -28.5t-20.5 -33.5t-28.5 -31.5q-18 -15 -35.5 -13.5t-34 9t-30 16.5t-22.5 9t-14.5 -9.5t-9.5 -21t-7.5 -21.5t-7.5 -11q-27 -5 -44 2t-26 15q-5 4 0.5 28.5t16.5 52.5t26.5 50.5t32.5 22.5t32.5 -12t29.5 -26t26.5 -24t23.5 -4
q10 6 15.5 17.5t9 23t8 20t13.5 9.5q18 2 33.5 -2.5t26.5 -21.5zM883 1444q0 -14 -1.5 -70.5t-3.5 -141t-4 -188.5t-5 -213t-5.5 -215t-5 -193t-4.5 -148.5t-3 -81.5q-3 -40 -4 -68.5t-2.5 -52t-4.5 -46t-9 -50.5q-5 -18 -15.5 -20t-18.5 6q-16 22 -28 41.5t-32 50.5
q-8 14 -31 54.5t-55 98.5t-71 128t-78.5 141.5t-77.5 140t-68.5 124t-51 92.5t-24.5 46q1 -18 1.5 -64t0.5 -110t-1 -140.5t-2 -155t-2.5 -153.5t-2.5 -136.5t-2 -104t-2 -55.5q-1 -11 -2 -20.5t-6 -16.5t-15.5 -11.5t-30.5 -7.5q-9 -1 -16.5 -2t-17 -1.5t-22 -1t-30.5 -1.5
q0 55 0.5 138.5t1 184t1.5 211.5t2.5 221.5t3.5 213.5t5 187.5t6.5 144.5t8.5 84q3 11 15 14.5t27 -5.5q9 -6 33.5 -40.5t59 -88t75.5 -121t84 -139t85 -142t77 -129.5t61 -102t37 -59q1 90 2 197.5t2.5 222t4 230.5t6.5 223q1 10 1.5 23t1.5 26.5t3 25.5t6 20q6 7 18 10
t27 3.5t31.5 0.5t31.5 1q34 3 35 -10z" />
    <glyph glyph-name="Ograve" unicode="&#xd2;" horiz-adv-x="775" 
d="M438 1607q28 -26 47.5 -49t21.5 -26q-2 -5 -6 -19.5t-7 -23.5t-6 -12t-8 -2t-8 2t-9 5q-32 28 -62.5 56t-64.5 52l-19.5 13t-18.5 13.5t-13 12.5t-2 10q10 14 22 26.5t28 20.5q5 3 13 -3q1 -1 9.5 -7.5t22 -17t29.5 -24t31 -27.5zM640 1176q10 -44 15.5 -95.5t7.5 -105
t1.5 -105.5t-2 -98t-3.5 -82.5t-3 -57.5q-2 -32 -4.5 -87.5t-12 -122.5t-28.5 -139.5t-54 -136.5q-35 -65 -72.5 -98.5t-71 -47.5t-60.5 -13.5t-42 4.5q-30 7 -65 39.5t-63 84.5q-14 26 -26 70.5t-21 93t-14.5 95t-7.5 75.5q-3 59 -4 153t10 212q5 59 13.5 118.5t19 113.5
t23.5 100t27 79t30.5 65t36 60t42 48.5t47.5 29.5t50.5 12.5t48 0.5t40.5 -11.5t30 -23.5q22 -23 40 -50.5t32 -57.5t24 -61t16 -61zM441 243q13 19 23 53.5t16.5 73t11.5 76.5t8 65q3 28 6 62t5.5 70.5t4 75t2.5 74.5q1 74 1.5 128.5t-1.5 101.5q-2 23 -4 61t-10 77
t-25 72.5t-47 47.5q-20 9 -39 -3.5t-35.5 -38t-30.5 -60t-25 -69.5t-18 -66.5t-10 -50.5q-5 -29 -10.5 -78t-10 -107.5t-5.5 -121t4 -118.5q4 -57 9 -113t15.5 -107.5t28.5 -96.5t49 -79q14 4 37.5 18.5t49.5 52.5z" />
    <glyph glyph-name="Oacute" unicode="&#xd3;" horiz-adv-x="1212" 
d="M653 1730q7 -6 5 -13.5t-9 -16.5t-16.5 -19t-18.5 -22q-8 -11 -14 -17.5t-17 -23.5q-41 -64 -63 -96t-37 -18l-9 9t-7 12t0 17.5t11 27.5q19 34 36 61t29 47t28 43t40 35q6 3 13 -4q1 -1 9 -7zM827 1352q31 -18 73 -57t81.5 -94.5t71.5 -125.5t43 -149q12 -80 18.5 -143
t7 -122t-5 -120.5t-17.5 -136.5t-36 -137.5t-51 -110.5t-54 -81.5t-45 -51.5q-12 -12 -42.5 -29.5t-72.5 -34t-92.5 -29.5t-102.5 -17t-103 4.5t-94 34.5q-64 39 -106 79t-68.5 80.5t-40.5 80.5t-23 78q-16 91 -35 186t-31 192q-8 33 -8.5 71.5t-2.5 73.5q-2 67 7 130.5
t25.5 119.5t39 101.5t48.5 75.5q25 30 55 62.5t65.5 60.5t78 49t92.5 29q50 9 95.5 6t86 -13.5t76.5 -27t67 -34.5zM855 198q-11 8 -7 22.5t21 31.5q6 10 23 35t35 75t31 130t10 200q-2 86 -8 143.5t-17.5 100t-29 75.5t-41.5 69t-61.5 71t-84.5 60t-101.5 36t-113.5 -1
t-104 -49t-75.5 -84.5t-46.5 -98.5t-17 -90q5 0 11.5 -0.5t7.5 -6.5q-5 -24 -6.5 -51t-6.5 -44q-2 -4 -4 -39.5t-3 -86.5t1.5 -109.5t10.5 -108.5q2 -15 5.5 -40t9 -56.5t13.5 -66.5t19.5 -68.5t26.5 -63t35 -49.5q19 -20 44.5 -39t58.5 -34t73.5 -23t90.5 -5t86.5 20.5
t62.5 42t43 52.5t27 52q-3 -2 -8.5 -2.5t-10.5 0.5z" />
    <glyph glyph-name="Ocircumflex" unicode="&#xd4;" horiz-adv-x="963" 
d="M601 1680q28 -26 48 -48.5t22 -25.5q-2 -5 -6 -19.5t-7 -23.5t-6 -12t-8 -2t-8.5 1.5t-8.5 5.5q-32 28 -63 56t-64 52q-8 -11 -14 -17.5t-17 -23.5q-42 -64 -64 -96t-36 -18q-5 4 -10 8.5t-7 12t0 18t11 27.5q19 33 36 60.5t29 47.5t28.5 43t39.5 34q6 3 14 -3
q1 -1 9.5 -7.5t21.5 -17t29 -24t31 -28.5zM820 1137q17 -69 23.5 -145.5t8.5 -161.5q1 -42 0 -86t-2.5 -86t-3.5 -80.5t-3 -70.5q-7 -71 -13.5 -121.5t-15.5 -91t-20.5 -76.5t-27.5 -76q-16 -41 -39 -81t-50 -73t-56.5 -56t-58.5 -28t-53 -6.5t-45.5 1t-42.5 8.5t-45 17
q-23 11 -52.5 35t-58.5 61.5t-54.5 89.5t-40.5 119q-19 82 -32.5 154.5t-16.5 141.5q-1 33 -3 58t-4 50.5t-3 57t0 77.5t7 105.5t14.5 118t18.5 108t19 76.5q18 54 47 103t59 80q15 15 37.5 34.5t52 36t65 27t76.5 8.5q81 -5 135 -35.5t89.5 -77t55.5 -103t33 -112.5z
M652 1026q-13 47 -34.5 90t-47 77t-52 55.5t-48.5 25.5q-23 3 -39 1.5t-30 -9.5t-27 -22.5t-29 -36.5q-15 -23 -25.5 -64.5t-18 -91t-12 -100.5t-7.5 -92t0.5 -102t10.5 -128t17 -132t22 -114t26 -99.5t32.5 -94t42 -76.5t53.5 -47q15 3 26 8t20 12.5t17 19t18 28.5
q21 34 38.5 88.5t29.5 119.5q6 33 9 57.5t4.5 48.5t2 50.5t1.5 61.5q0 -11 1 9t-0.5 58.5t-6 88.5t-13.5 98q-11 49 -24 99.5t-32 97.5q-14 26 -25.5 54t-25.5 54q-23 42 -44.5 56.5t-41.5 13.5q-20 -2 -28.5 -17t-13.5 -25q-2 -5 -4 -11t-5 -10.5t-6.5 -5.5t-9.5 5
q-3 9 -1.5 23t7.5 28.5t15.5 26.5t22.5 17q16 4 31 5t30 -5.5t31.5 -21t36.5 -40.5q48 -81 80.5 -177t48.5 -206q2 -17 4 -31.5t5 -30.5q2 45 2 82t-3 73t-10.5 73.5t-20.5 84.5z" />
    <glyph glyph-name="Otilde" unicode="&#xd5;" horiz-adv-x="776" 
d="M565 1622q1 -3 -2.5 -15t-11.5 -28t-20.5 -34t-28.5 -32q-18 -15 -35.5 -13.5t-34 9t-30 16.5t-22.5 9t-14.5 -9.5t-9.5 -21t-7.5 -21t-7.5 -10.5q-27 -5 -44 2t-26 15q-3 3 -1.5 15.5t6 29.5t12.5 36t17.5 35t20 27t21.5 11q17 0 32.5 -12.5t29.5 -26.5t26.5 -23.5
t23.5 -3.5q10 6 15.5 17t9 22.5t8 20.5t13.5 10q18 2 33.5 -3t26.5 -22zM641 1125q10 -45 15 -96.5t7 -105t2 -105.5t-2 -97.5t-4 -82t-3 -57.5q-2 -32 -4.5 -88t-11.5 -123t-28 -139.5t-54 -136.5q-35 -65 -72.5 -98.5t-71.5 -47t-61 -13t-42 3.5q-29 7 -64.5 39.5
t-63.5 84.5q-14 26 -25.5 70.5t-20.5 93t-15 95t-7 75.5q-4 60 -5 154t10 212q5 59 13.5 118t19.5 113t23.5 100t26.5 79t31 65t36.5 60t41.5 49t48 30q25 9 50.5 12t47.5 0t40 -11.5t30 -22.5q45 -46 72 -108t41 -122zM441 191q13 19 23 53.5t16.5 73t11.5 76.5t8 66
q3 27 6 61t5.5 71t4.5 75.5t2 74.5q2 73 2.5 128t-2.5 101q-1 23 -3 61t-10.5 77t-25 72.5t-47.5 47.5q-20 9 -39 -3.5t-35.5 -38t-30.5 -60t-25 -69.5t-18 -66.5t-10 -50.5q-5 -29 -10.5 -78t-10 -107.5t-5.5 -121t4 -118.5l10 -112t15.5 -107.5t28.5 -97t49 -79.5
q14 5 37 19t49 52z" />
    <glyph glyph-name="Odieresis" unicode="&#xd6;" horiz-adv-x="963" 
d="M820 1153q17 -70 23.5 -146t8.5 -161q1 -42 0 -86t-2.5 -86t-3 -81t-2.5 -71q-7 -70 -14 -120.5t-16 -91t-20.5 -76.5t-27.5 -76q-16 -41 -39 -81t-50 -73.5t-56.5 -56.5t-58.5 -28t-52.5 -6.5t-45.5 1t-43 9t-44 17.5q-24 10 -53.5 34t-58.5 62t-54.5 90t-40.5 118
q-19 82 -32.5 155t-16.5 142q-1 33 -2.5 58t-3.5 50.5t-3 57t-1 77.5q1 46 7 105.5t14.5 117.5t18.5 108t19 77q18 54 47.5 103t58.5 80q15 15 38 34.5t52.5 36t64.5 27t76 7.5q81 -5 135 -35.5t89.5 -76.5t55.5 -102.5t33 -112.5zM652 1042q-13 46 -34.5 89.5t-47 77
t-52 55.5t-48.5 25q-23 3 -39 1.5t-30 -9t-27 -22.5t-29 -37q-15 -23 -25.5 -64.5t-17.5 -90.5t-11.5 -100t-7.5 -92t0 -102t10 -128t17 -132.5t22 -114.5t26 -99.5t32.5 -94t42 -76.5t53.5 -47q15 4 26 8.5t20 12t17.5 19t18.5 28.5q20 35 37.5 89.5t29.5 119.5q6 32 9 57
t4.5 49t2 50.5t1.5 61.5q0 -11 1 9t-0.5 58t-6 88t-13.5 98q-11 50 -24 100.5t-32 96.5q-14 27 -25.5 54.5t-25.5 53.5q-23 42 -44 56.5t-42 13.5q-10 0 -17 -5t-11.5 -11.5t-7.5 -13.5t-5 -11q-2 -5 -4.5 -11.5t-5.5 -11t-6.5 -5.5t-9.5 5q-3 9 -1 23t8 28.5t15.5 27
t21.5 17.5q16 4 31 5t30.5 -5.5t31.5 -21.5t36 -41q48 -81 80.5 -177t49.5 -206q1 -17 3.5 -31t4.5 -31q2 45 2.5 82t-3 73t-11 74t-20.5 85zM626 1631q2 -2 4.5 -5t4.5 -5q9 -11 12.5 -28t1.5 -32q0 -13 -10.5 -24.5t-26 -18t-33 -6.5t-30.5 10q-10 8 -18.5 22.5
t-10.5 28.5q-1 2 -1 13.5t2 22.5q3 10 10.5 23t30.5 21q12 4 23 1.5t20 -7.5t14.5 -10.5t6.5 -5.5zM374 1633q6 -2 13 -4.5t15 -7.5q18 -15 19.5 -36t-9 -38.5t-30 -27t-43.5 -1.5q-11 4 -17 7.5t-11 7.5q-8 5 -10.5 12t-4.5 21q-2 17 2 34.5t15 25.5q9 5 24.5 10t36.5 -3z
" />
    <glyph glyph-name="Oslash" unicode="&#xd8;" horiz-adv-x="1213" 
d="M296 113q-7 -11 -21.5 -17t-32.5 -8t-37 0t-34 7t-14.5 17t8.5 25q9 14 25 31l43 93q-27 41 -41.5 81t-22.5 79q-16 91 -35 185.5t-31 192.5q-8 33 -9 71.5t-3 73.5q-2 66 7 130t26 119.5t39.5 101.5t47.5 76t55 62t66 60t78.5 49t92.5 30t98 5t91.5 -15.5t81 -29.5
t67.5 -37l41 82q10 7 21 11q10 3 22.5 2t28.5 -11q15 -10 31.5 -23.5t28 -28.5t15 -31t-6.5 -30l-22 -30t-20 -27q-11 -14 -21 -27q47 -59 85.5 -136.5t52.5 -169.5q12 -79 18.5 -142.5t7 -122.5t-5 -120.5t-17.5 -136.5t-36 -137.5t-51 -110.5t-54 -81.5t-45 -51.5
q-12 -12 -42.5 -29t-72.5 -33.5t-92.5 -29.5t-103 -17t-103 4t-93.5 34q-47 28 -81 57q-4 -5 -8 -12q-4 -6 -9.5 -14.5t-12.5 -19.5zM772 1334q-54 38 -120 57.5t-140 5.5q-59 -12 -104 -49t-75.5 -84.5t-46.5 -98.5t-18 -90q5 0 12 -0.5t8 -6.5q-5 -25 -7 -51.5t-7 -43.5
q-1 -3 -2 -20.5t-2.5 -44.5t-1.5 -61.5t0.5 -72t3.5 -75t8 -70.5q2 -13 4.5 -34t7 -47.5t10.5 -56.5t15 -60zM388 285q19 -20 45 -39.5t59 -34t73.5 -22.5t90.5 -5t86.5 20t62.5 42t43 53t27 52q-3 -3 -9 -3.5t-10 0.5q-11 9 -7 23.5t21 31.5q6 10 23 35t35 75t31 130
t10 200q-2 85 -8 143t-18 100t-29.5 75.5t-41.5 69.5z" />
    <glyph glyph-name="Ugrave" unicode="&#xd9;" horiz-adv-x="1089" 
d="M549 1602q28 -26 47.5 -49t21.5 -26q-2 -5 -6 -19.5t-7 -23.5t-6 -12t-8 -2t-8 1.5t-9 5.5q-32 28 -63 56t-64 52l-19.5 13t-18.5 13.5t-13 12t-2 9.5q10 15 22 27.5t27 20.5q7 3 14 -3q1 -1 9.5 -7.5t21.5 -17t29 -24t32 -27.5zM954 1505q0 -8 -1.5 -14t-1.5 -16
q0 -13 1 -56.5t2 -103t2 -128t1.5 -131t0.5 -112t-1 -70.5q-2 -32 -4 -72t-4 -82t-4.5 -84t-4.5 -79q-3 -46 -10 -96t-16 -96.5t-18.5 -85.5t-16.5 -62t-15.5 -43.5t-19 -40t-23.5 -40.5t-31 -46q-18 -24 -42.5 -47t-53.5 -41t-61 -30t-64 -15q-64 -6 -128.5 12.5
t-138.5 72.5q-37 27 -63.5 67.5t-45.5 89t-31.5 104t-20.5 112.5q-2 24 -3.5 51.5t-1.5 64.5q0 10 -0.5 51.5t-1 102.5t-1 135.5t-1.5 152t-1 151.5t-0.5 133.5t-0.5 99t1 47.5q8 15 20 19t29.5 2t40 -8t52.5 -12q2 -1 4 -41t4 -106t4.5 -150t4.5 -173t4 -176t3.5 -158.5
t2.5 -120t1 -60.5q4 -66 19.5 -120.5t44.5 -90.5q14 -18 31.5 -34t41.5 -27.5t55 -16t72 0.5q41 6 71 27.5t51.5 52.5t36 69t24.5 76t19 83.5t16.5 92.5t13 94.5t8.5 89.5q5 85 4.5 180t3.5 184q1 28 1.5 68.5t0.5 86t-1 91.5t-2 84.5t-2.5 66t-2.5 35.5q-1 5 -1 14t8 13
q25 11 55.5 13t60.5 7q11 2 17.5 -1t6.5 -11z" />
    <glyph glyph-name="Uacute" unicode="&#xda;" horiz-adv-x="759" 
d="M503 1719q6 -5 4 -12.5t-8.5 -16.5t-16 -19t-18.5 -22q-8 -11 -14 -17.5t-17 -23.5q-41 -64 -63 -96t-37 -18q-5 4 -9.5 8.5t-7 12t0 18t11.5 27.5q18 34 35 61t29 47t28.5 43t39.5 34q8 3 14 -3q1 -1 8.5 -7t20.5 -16zM268 1404q-1 -26 -2 -50t-2 -49.5t-2 -53t-1 -60.5
q1 -23 2.5 -73t3.5 -117t4 -146t4 -159.5t4.5 -157t5 -139.5t5 -107t4.5 -59q2 -20 4 -47.5t7.5 -52t15.5 -42t29 -16.5q46 2 71 26t37.5 67.5t16.5 105t7 139.5q1 22 1 65t-0.5 100t-1 124t-1 135t-1.5 134t-1.5 121.5t-0.5 96.5v60q-4 33 -5 65t2 68q3 2 22 5t42 6t46 4.5
t34 -0.5q4 0 1 -9.5t-3 -12.5q1 -11 3.5 -68.5t4.5 -145t3.5 -197t1 -224t-3.5 -226t-9 -202.5q-6 -68 -21 -128t-37 -108t-49.5 -81.5t-57.5 -47.5t-61.5 -17.5t-59.5 0.5t-51.5 13.5t-38.5 21.5q-30 24 -50 73.5t-32 121.5q-13 72 -19 151.5t-8 173.5q-1 23 -1 70.5
t0.5 110.5t1.5 136t2.5 148.5t3.5 148.5t4.5 134.5t6 107.5t7.5 68q25 2 54 1t58 -6z" />
    <glyph glyph-name="Ucircumflex" unicode="&#xdb;" horiz-adv-x="946" 
d="M552 1676q27 -26 47 -48.5t22 -25.5q-2 -5 -6 -19.5t-7 -23.5t-6 -12t-8 -2q-5 0 -8.5 1t-8.5 6q-32 28 -63 55.5t-64 52.5q-8 -11 -14 -18t-17 -23q-41 -65 -63 -97t-37 -18q-5 4 -10 9t-7 12t0 18t11 28q19 33 36 60t29 47t28.5 43t39.5 35q7 3 14 -4q1 -1 9.5 -7.5
t21.5 -17t29 -24t32 -27.5zM656 995q2 -96 4.5 -191t5 -174t4 -134t1.5 -73q3 12 6.5 46.5t7 85t5.5 113.5t2 132t-2 144t-4 147t-4 137t-3 114t0 78t5 29q18 1 39 0t40 -3.5t32.5 -5.5t15.5 -4q9 -3 11 -11q-1 -82 0 -169t4 -168q-2 -77 -4 -165t-4 -168q-3 -104 -10 -191
t-16.5 -156.5t-20 -120t-20.5 -80.5l-22 -60t-24.5 -57t-31 -50.5t-41.5 -41.5q-21 -17 -49 -27t-62 -8q-111 5 -186 74.5t-107 202.5q-16 66 -31 146t-27 173.5t-19 202t-5 233.5q-1 18 -0.5 52.5t1 75.5t1 84t-0.5 79t-4 59.5t-8 25.5q-9 5 -12 12t-3 12t3.5 9.5t7.5 4.5
q48 -5 90.5 -1.5t86.5 8.5q6 2 8.5 -1t3.5 -8q2 -5 -1 -10t-2 -15q0 -5 1 -33t2 -70.5t2.5 -94.5t2.5 -104t1.5 -99t-0.5 -80q3 -37 4.5 -78t2.5 -82t2.5 -81t4.5 -76q1 -36 5 -75t11 -77t18 -72t28 -59q15 -26 27 -41t20 -24t10.5 -14.5t-2.5 -11.5q-8 -8 -16.5 -4t-14.5 8
q-34 40 -55 81.5t-33 99.5q-6 31 -15.5 93t-14.5 135q-2 33 -2.5 66t-1 61.5t-1 51t-1.5 33.5q-5 -70 -6.5 -119t0.5 -90.5t6.5 -82.5t11.5 -94t17.5 -100t30 -83.5t50 -61.5t75.5 -35q58 -5 88 8.5t50 52.5q1 18 2.5 64.5t3 112.5t2.5 147t1 168q0 75 -0.5 151.5
t-1.5 148.5t-2.5 137t-3.5 117.5t-3.5 88.5t-3.5 51q-1 7 -2.5 12t-3 9t-2.5 8.5t-1 11.5q0 4 4.5 6.5t10 2t10.5 -3t6 -6.5q3 -11 5 -54t3.5 -106t3 -141t3.5 -160z" />
    <glyph glyph-name="Udieresis" unicode="&#xdc;" horiz-adv-x="1089" 
d="M954 1539q0 -8 -1.5 -14t-1.5 -15q0 -13 1 -56.5t2 -103t2 -128t1.5 -131t0.5 -112t-1 -70.5q-2 -32 -4 -72t-4 -82.5t-4.5 -84.5t-4.5 -78q-3 -46 -10 -96t-15.5 -97t-18 -86t-16.5 -62q-8 -23 -16 -43t-18.5 -40t-24 -41t-31.5 -45q-18 -25 -42.5 -47.5t-53.5 -40.5
t-60.5 -30t-63.5 -15q-65 -7 -129.5 11.5t-138.5 73.5q-37 27 -63.5 67t-45.5 88.5t-31.5 104t-20.5 112.5q-2 24 -3.5 52t-1.5 65q0 10 -0.5 51.5t-1 102t-1 135.5t-1.5 152t-1 151t-0.5 133.5t-0.5 99t1 47.5q8 15 20 19t29.5 2t40 -8t52.5 -12q2 -1 4 -41t4.5 -105.5
t4.5 -150t4 -173.5t4 -176t3.5 -158.5t2.5 -120t1 -60.5q4 -66 20 -120t44 -90q14 -18 31.5 -34.5t41.5 -28t55 -16t72 0.5q42 6 72 27.5t51.5 52.5t35.5 69t24 76q10 39 19 84t16.5 92t13 94.5t8.5 89.5q5 86 4.5 180.5t3.5 183.5q1 28 1.5 68.5t0.5 86t-1 91.5t-2 84.5
t-2.5 66t-2.5 35.5q-1 5 -1 14t8 13q25 11 55.5 13t60.5 8q11 2 17.5 -1.5t6.5 -11.5zM664 1656q2 -2 4.5 -5t4.5 -5q9 -11 12.5 -28t1.5 -31q0 -13 -10.5 -25t-26 -18.5t-33 -6.5t-30.5 10q-10 8 -18.5 22.5t-10.5 28.5q-1 2 -1 13.5t2 22.5q3 10 10.5 23t30.5 21
q12 4 23 1.5t20 -7.5t14.5 -10.5t6.5 -5.5zM412 1658q6 -2 13 -4.5t15 -7.5q18 -15 19.5 -36t-9 -38.5t-30 -27t-43.5 -1.5q-11 4 -17 7.5t-11 7.5q-8 5 -10.5 12t-4.5 21q-2 17 2 34.5t15 25.5q9 5 24.5 10t36.5 -3z" />
    <glyph glyph-name="Yacute" unicode="&#xdd;" horiz-adv-x="781" 
d="M507 1797q7 -5 5 -12.5t-8.5 -16.5t-16 -19t-18.5 -22q-8 -11 -14 -17.5t-17 -23.5q-42 -64 -64 -96t-36 -18q-5 4 -10 9t-7 12t0 17.5t11 27.5q19 34 36 61t29 47t28.5 43t39.5 34q7 4 14 -3q1 -1 8.5 -7t19.5 -16zM399 962q6 24 20.5 72.5t33 108t38.5 124t38 120
t32 96.5t19 53q2 5 3.5 5h7.5q17 0 34.5 -2.5t32.5 -4.5t25.5 -4t13.5 -1q6 2 15 -1.5t8 -10.5q1 -7 -8.5 -39.5t-26 -82.5t-38 -112.5t-45 -128t-46.5 -130t-42.5 -118.5t-33.5 -93t-19 -54q1 -40 2.5 -99t3.5 -127t4 -140t3.5 -136.5t2 -116.5t-0.5 -81q0 -22 4.5 -47
t1.5 -68q-2 -16 -22 -15q-6 0 -28 -1t-46 -1t-44 2t-22 9q-1 5 -3 47t-4 107t-4.5 146.5t-4.5 167t-4 167.5t-3.5 147.5t-2.5 108t-1 48.5q-4 12 -16 44.5t-28.5 78t-36.5 100t-41 110t-40 108t-34.5 94t-25 68.5t-10.5 31q-2 12 10 19t22 12q5 3 19.5 9.5t31.5 11.5t32.5 5
t21.5 -10q6 -14 17.5 -46.5t26.5 -76t32 -94.5t34.5 -102.5t33.5 -100t28.5 -86.5t20 -62.5t8.5 -27.5z" />
    <glyph glyph-name="agrave" unicode="&#xe0;" horiz-adv-x="764" 
d="M506 150q-19 -26 -43.5 -50t-55.5 -41t-69 -23.5t-83 2.5q-14 3 -26.5 8.5t-29.5 6.5q-32 11 -52.5 37t-32.5 61.5t-17 76t-6 81.5q-2 45 1.5 90.5t11.5 84.5q31 88 79.5 159.5t120.5 120.5q19 10 51 17.5t70 -1.5q22 -10 39 -23.5t34 -28.5q2 8 1 20t4 19q20 5 42.5 9
t42.5 10q11 0 20 -3.5t11 -10.5q4 -15 5 -36t0.5 -42.5t-2 -42.5t-2.5 -37q0 -6 0.5 -23.5t2 -38.5t3.5 -41.5t5 -30.5q-4 -29 -2.5 -54t6.5 -53q-3 -38 -1.5 -83.5t5.5 -90.5q2 -18 0 -39t0 -41q2 -18 4.5 -37.5t-3.5 -33.5q-20 -8 -47 -16.5t-48 -0.5q-5 -2 -12 -1t-13 2
q-8 9 -10.5 23t-2.5 30t0.5 33t-1.5 32zM273 528q-14 -22 -18.5 -46.5t-11.5 -52.5q-8 -27 -17.5 -59t-6.5 -69q0 -1 0.5 -17t4.5 -36.5t12 -41t22 -30.5q5 -2 19 -7t19 -7q21 -2 35.5 0t29 11t32 25.5t43.5 43.5q14 18 30.5 36t29.5 38.5t20.5 44.5t3.5 54q0 35 -1 69
t-6 66q-12 15 -22 32.5t-22 33t-29 25.5t-42 9q-27 -4 -46 -15.5t-33.5 -28.5t-25 -37t-20.5 -41zM374 996q28 -26 47.5 -49t21.5 -26q-2 -5 -6 -19.5t-7 -23.5t-6 -12t-8 -2t-8 1.5t-9 5.5q-32 28 -63 56t-64 52l-19.5 13t-18.5 13.5t-13 12t-2 9.5q10 15 22 27.5t28 20.5
q5 3 13 -3q1 -1 9.5 -7.5t21.5 -17t29 -24t32 -27.5z" />
    <glyph glyph-name="aacute" unicode="&#xe1;" horiz-adv-x="828" 
d="M517 679q31 11 72.5 17.5t83.5 7.5q3 -5 7.5 -8t7.5 -7q-1 -3 0.5 -36.5t4 -84.5t6 -113t7 -122t6.5 -110.5t6 -79.5q-3 -25 -3.5 -49t-1 -47t-3.5 -45t-11 -41q-4 -2 -8.5 -5t-9.5 -1q-6 -8 -16.5 -11.5t-21.5 -5t-22.5 -2.5t-20.5 -5q-3 2 -5.5 5t-5.5 5q-6 23 -7 46
t-0.5 46t0.5 46t-3 46q4 17 3 42.5t1 46.5q-17 -65 -43.5 -123.5t-60.5 -109.5q-9 -14 -29 -27t-45.5 -20.5t-52 -9t-48.5 7.5q-17 3 -34.5 11.5t-33 18t-28 19t-19.5 15.5q-27 30 -47 70.5t-32.5 87t-17 98t-0.5 103.5q3 42 8.5 85.5t18.5 84.5t36 78t60 68q25 26 66.5 34
t83.5 6q36 -5 62.5 -23t38.5 -26q4 -9 11 -15t14.5 -11.5t14.5 -12t11 -15.5q-4 -20 -13.5 -34t-21.5 -25.5t-24.5 -22.5t-23.5 -23q-4 -1 -5.5 -0.5t-5.5 0.5q-15 25 -32.5 41.5t-34.5 23t-33 4t-27 -14.5q-19 -15 -31 -36.5t-19 -47.5t-10 -54.5t-3 -57.5q-1 -38 4 -77
t10 -75q0 -8 4.5 -32t14 -49.5t24.5 -45t37 -18.5q18 1 34 8.5t29 18t21.5 21.5t10.5 19q11 24 27 58.5t31 71.5t27 71.5t16 58.5q4 11 6.5 28t4.5 33.5t2.5 29l0.5 12.5q-2 37 -7 79.5t-16 77.5q2 5 1.5 13.5t1.5 14.5zM451 1027q7 -5 5 -12.5t-9 -16.5t-16.5 -19
t-18.5 -22q-8 -11 -14 -17.5t-17 -23.5q-41 -64 -63 -96t-37 -18q-5 4 -10 8.5t-7 12t0 18t11 27.5q19 34 36 61t29 47t28.5 43t39.5 34q6 3 14 -3q1 -1 9 -7t20 -16z" />
    <glyph glyph-name="acircumflex" unicode="&#xe2;" horiz-adv-x="763" 
d="M506 150q-19 -26 -43.5 -50t-56 -41t-69.5 -24t-83 2q-14 4 -26 9.5t-29 5.5q-32 11 -52.5 37.5t-32.5 61.5t-17 76t-6 82q-2 45 1 90.5t12 84.5q31 88 79 159.5t120 120.5q19 9 51 17t70 -1q23 -10 40 -24t34 -29q2 9 0.5 20.5t4.5 18.5q20 5 42.5 9.5t42.5 10.5
q10 0 19 -3.5t11 -10.5q4 -16 5.5 -36.5t1 -42.5t-2 -43t-2.5 -37v-22.5t1.5 -38.5t3.5 -41.5t5 -30.5q-3 -29 -1.5 -54t6.5 -53q-3 -38 -1.5 -83.5t4.5 -90.5q2 -18 0 -39t0 -41q2 -18 4.5 -38t-3.5 -33q-9 -4 -21.5 -9t-25 -8.5t-25 -4t-22.5 3.5q-13 -2 -25 2
q-8 9 -10.5 23t-2.5 30t0.5 33t-1.5 32zM272 528q-14 -22 -18.5 -47t-11.5 -52t-16.5 -59t-7.5 -69q0 -1 0.5 -17t4.5 -36.5t12 -41t22 -30.5q3 -1 8 -3t11 -4.5t11.5 -4.5t7.5 -3q21 -2 36 0t29.5 11t32 26t43.5 44q14 18 30 36t29.5 38.5t21 44t3.5 53.5q-1 36 -1.5 70
t-5.5 66q-12 15 -22 32.5t-22 33t-29 25.5t-42 9q-27 -4 -46.5 -15.5t-33.5 -28.5t-25 -37t-21 -41zM424 973q28 -26 47.5 -49t21.5 -26q-2 -5 -6 -19.5t-7 -23.5t-6 -12t-8 -2t-8 2t-9 5q-32 28 -63 56t-64 52q-8 -11 -14 -17.5t-17 -23.5q-41 -64 -63 -96t-37 -18
q-5 4 -10 8.5t-7 12t0 18t11 27.5q19 34 36 61t29 47q13 20 29 43t40 34q5 3 13 -3q1 -1 9.5 -7.5t21.5 -17t29 -24t32 -27.5z" />
    <glyph glyph-name="atilde" unicode="&#xe3;" horiz-adv-x="690" 
d="M465 88q-12 30 -11 68q-16 -12 -32 -26t-34 -26t-39.5 -20.5t-48.5 -8.5q-12 1 -28.5 5t-34.5 13.5t-36.5 25t-35.5 39.5q-22 36 -38.5 81.5t-25.5 96t-10 105t8 108.5q6 48 16.5 94t29.5 85.5t47 69.5t69 47q10 4 25 7.5t31.5 4t33 -1t28.5 -6.5q13 -8 29 -21t21 -17
q-2 20 3 37t14 29q20 7 48.5 8t48.5 -8q3 -32 2 -65.5l-2 -67t-0.5 -67t6.5 -66.5q-1 -1 -1 -23t0.5 -57.5t2 -80.5t4.5 -90.5t8 -88t12 -73.5q-1 -11 1.5 -22.5t2.5 -25.5q1 -21 -9.5 -35.5t-27.5 -22t-37.5 -8.5t-39.5 4zM241 674q-16 -35 -26.5 -81t-9.5 -97
q0 -26 3.5 -61.5t12.5 -72.5t24 -70.5t38 -53.5q25 -14 50.5 -13.5t48 10.5t40 27.5t26.5 37.5q1 53 0 100t-3 92l-4 90t-2 95q-12 12 -22.5 26.5t-23.5 26.5t-29.5 19t-41.5 4q-13 -2 -25.5 -11t-23 -21t-19 -25t-13.5 -22zM435 1042q0 -3 -3.5 -15t-11 -28.5t-20 -34
t-28.5 -31.5q-18 -15 -35.5 -13.5t-34 9t-30 16.5t-22.5 9t-14.5 -9.5t-9.5 -21t-7 -21t-7 -10.5q-28 -5 -45 2t-26 15q-3 3 -1.5 15.5t6 29.5t12.5 36t17.5 35t20 27t21.5 11q17 0 32.5 -12.5t29.5 -26.5t26.5 -23.5t23.5 -3.5q10 6 15.5 17t9 22.5t8 20.5t13.5 10
q18 2 33.5 -3t26.5 -22z" />
    <glyph glyph-name="adieresis" unicode="&#xe4;" horiz-adv-x="690" 
d="M465 37q-12 30 -12 69q-16 -12 -32 -26t-34 -26.5t-39.5 -21t-48.5 -8.5q-12 1 -28 5t-34 13.5t-36.5 25t-35.5 39.5q-22 36 -38.5 81.5t-25.5 96.5t-10 105t8 108q6 49 16.5 95t29.5 85t47 69.5t69 47.5q10 4 25 7t31.5 4t32.5 -1t28 -7q13 -7 29.5 -20.5t21.5 -17.5
q-2 20 3 37t13 29q10 4 23 6t26.5 2t26 -2t22.5 -6q3 -32 2 -65.5l-2 -67t-0.5 -67t6.5 -66.5q-1 0 -1 -22t0.5 -58t2 -80.5t4.5 -90.5t8 -88.5t12 -73.5q-2 -11 1 -22.5t3 -25.5q0 -21 -10.5 -35.5t-27.5 -22t-37 -8.5t-39 4zM240 623q-16 -35 -26 -81t-9 -97
q0 -26 3.5 -61.5t12.5 -72.5t24 -70.5t38 -53.5q25 -14 50 -13t47.5 11t40 27t26.5 37q1 53 0 100t-3 92t-4 90.5t-2 95.5q-12 12 -22.5 26t-23.5 26t-29.5 19.5t-40.5 4.5q-13 -2 -25.5 -11.5t-23.5 -21.5t-19.5 -25t-13.5 -22zM478 984q2 -3 4.5 -5.5t4.5 -5.5
q8 -11 11.5 -27.5t2.5 -31.5q0 -13 -11 -24.5t-26.5 -18.5t-32.5 -7t-30 10q-10 8 -19 22.5t-11 28.5q0 2 -0.5 13.5t2.5 22.5q2 11 9.5 24t30.5 21q12 4 23 1.5t20 -8t15 -10.5t7 -5zM226 986q5 -2 12 -4.5t15 -8.5q18 -15 19.5 -36t-9 -38.5t-30 -27t-43.5 -0.5
q-11 3 -17 6.5t-11 8.5q-7 5 -9.5 11.5t-5.5 20.5q-1 17 2.5 34.5t15.5 26.5q8 5 24 9.5t37 -2.5z" />
    <glyph glyph-name="aring" unicode="&#xe5;" horiz-adv-x="828" 
d="M517 696q31 11 73 17t84 7q2 -5 6.5 -7.5t8.5 -6.5q-1 -3 0 -36.5t3.5 -84.5t6 -113t7 -122t6.5 -110.5t6 -79.5q-3 -25 -3.5 -49t-1 -47.5t-3.5 -45t-11 -41.5q-4 -2 -8 -5t-9 -1q-7 -8 -17 -11t-21.5 -4.5l-23 -3t-20.5 -5.5q-5 6 -11 11q-6 23 -7 46t-0.5 46t0.5 46
t-3 46q4 17 3.5 42.5t0.5 45.5q-35 -130 -104 -232q-9 -14 -29 -27t-45 -20.5t-52 -9t-48 6.5q-17 3 -34.5 11.5t-33.5 18.5t-28.5 19.5t-19.5 15.5q-27 30 -46.5 70t-32 86.5t-17 98t-1.5 103.5q3 43 9 86t19 84.5t35.5 78.5t59.5 68q25 26 67 34t84 6q18 -2 33.5 -8.5
t28.5 -14.5t23 -15t16 -11q4 -9 10.5 -15t14 -12t14.5 -12t11 -15q-4 -20 -13.5 -34t-21.5 -25.5t-24.5 -22.5t-23.5 -23q-4 -1 -5.5 -0.5t-5.5 0.5q-15 25 -32.5 41.5t-34.5 23t-33 4t-27 -14.5q-19 -15 -31 -36.5t-19 -47.5t-10 -54.5t-3 -57.5q-1 -38 4 -77t10 -75
q0 -8 4.5 -32t14 -49.5t25 -45t37.5 -18.5q18 1 34 8.5t28.5 17.5t21 21.5t10.5 19.5q12 24 27.5 58.5t30.5 71t27 71t16 59.5q4 11 7 28t4.5 33.5t2.5 29t0 12.5q-2 37 -7 79t-16 77q2 5 1.5 14t1.5 15zM338 798q-4 3 -10.5 9t-13.5 17t-13.5 26.5t-9.5 37.5q-7 45 2.5 78
t17.5 49t22.5 28t31 19t33.5 9.5t29 0.5q25 -5 41 -15t29 -24q6 -7 11.5 -17t10 -20.5t8 -20.5t4.5 -17t3 -25t-0.5 -40.5t-10 -46t-25.5 -42.5q-18 -18 -37.5 -25t-39.5 -6.5t-39 6.5t-36 14q-2 0 -4 1.5t-4 3.5zM396 999q-6 -3 -14.5 -12.5t-13.5 -34.5q-5 -18 -2.5 -36.5
t10.5 -32.5t21.5 -22t32.5 -6t29 14.5t14 28.5t2.5 32t-4.5 26t-10 20.5t-16.5 17.5t-22 9t-26.5 -4z" />
    <glyph glyph-name="ccedilla" unicode="&#xe7;" horiz-adv-x="681" 
d="M328 87q-28 10 -54 24.5t-48 31t-38 34.5t-25 35q-35 43 -52.5 108.5t-19.5 136t12 139t43 118.5q42 78 100.5 128t122.5 56q44 1 80 -8t66 -24t56 -34.5t50 -40.5q-6 -16 -17.5 -36t-22 -38t-19 -30.5l-8.5 -12.5q-10 4 -20.5 12.5t-24 17.5t-31 16t-41.5 8
q-21 0 -43 -5.5t-43 -16t-38.5 -26t-29.5 -34.5q-17 -26 -28.5 -59.5t-16 -70t-1 -74.5t16.5 -71q2 -22 16 -48t34.5 -49.5t45 -41t47.5 -21.5q51 -8 101 6.5t82 40.5q9 1 14.5 -2t10.5 -6q2 -9 6 -19t6.5 -19.5t1.5 -19t-8 -17.5q-10 -14 -25.5 -28.5t-34 -27.5t-39.5 -24
t-42 -17q-22 -16 -37 -28q-13 -11 -21 -21t0 -15q11 -6 25 -17t25 -26t17.5 -34.5t2.5 -42.5t-10.5 -37.5t-16 -23.5t-23 -14t-32.5 -9q-18 -4 -35 -0.5t-30 11t-21.5 15.5t-11.5 13q-2 2 2.5 9.5t11 15t13.5 12t12 1.5q15 -11 26 -11t18.5 7t11.5 19t5 24t-12.5 20
t-31.5 15.5t-35.5 17.5t-23.5 25q-5 15 8 36.5t33 41.5z" />
    <glyph glyph-name="egrave" unicode="&#xe8;" horiz-adv-x="828" 
d="M251 352q9 -43 22.5 -83t36.5 -70q11 -15 20 -20.5t12 -7.5q31 -5 62 -1.5t59.5 11.5t54.5 20t48 25q38 23 77.5 44.5t74.5 47.5q3 0 14 -3t16 -6q5 -23 9.5 -45t10.5 -40q-2 -6 -2.5 -12t-4.5 -11q-17 -19 -48 -42.5t-64 -45t-63 -38t-45 -20.5q-11 -8 -30.5 -16
t-43.5 -14t-48.5 -8t-43.5 1q-32 2 -60 15t-54 28q-62 38 -97.5 101t-50.5 148q-5 -2 -9.5 -4.5t-10.5 -0.5q-9 6 -12 23t-5 33q-2 17 -1 32t-5 33q5 10 14.5 14t20.5 8q4 42 11 79t14 75q13 42 27.5 83t34 77t46 65t63.5 47q1 1 15.5 9.5t40 16.5t60 12.5t75.5 -2.5
q72 -21 111 -74t56 -130q0 -2 2.5 -18.5t5 -38t4.5 -42.5t2 -32q0 -12 2.5 -28.5t3.5 -32t-1.5 -29.5t-12.5 -21q-14 -7 -32.5 -14t-37.5 -13t-36.5 -10.5t-29.5 -7.5q-23 -7 -52 -14.5t-59.5 -14.5t-60 -14t-53 -12t-38 -8.5t-15.5 -3.5zM404 759q-25 -10 -42.5 -20
t-30 -20.5t-21.5 -21.5t-17 -22q-21 -37 -33 -84t-14 -100q78 13 149 33t137 49q1 35 -2.5 72.5t-17 66.5t-39.5 43.5t-69 3.5zM375 1103l25.5 -25.5t22 -23t15 -17.5t6.5 -8q-2 -5 -6 -19.5t-7 -24.5q-5 -14 -14 -14q-5 1 -8.5 2t-8.5 6q-32 27 -63 55t-64 52l-19.5 13
t-18.5 13.5t-13 12.5t-2 10q10 14 22 27t27 21q7 3 14 -4q1 -1 9.5 -7.5t21.5 -17t29 -24t32 -27.5z" />
    <glyph glyph-name="eacute" unicode="&#xe9;" horiz-adv-x="688" 
d="M371 871q66 -11 108.5 -49t61.5 -98q12 -41 21 -76t16 -68t12 -67.5t8 -73.5q-7 -11 -19 -15.5t-26 -6t-29.5 -1.5h-28.5q-29 0 -60.5 -1.5t-63.5 -2.5t-63.5 -0.5t-60.5 4.5q-4 -16 -3.5 -44.5t3 -58.5t5.5 -56t3 -36q3 -31 10 -63.5t20 -59t33.5 -44t51.5 -18.5
q28 1 49 19t34 45.5t17.5 62t0.5 68.5q1 8 1 22t-0.5 28t-0.5 24.5t1 12.5q7 5 15.5 2t15.5 -1q8 -6 17.5 -6.5t19.5 0t19.5 0t17.5 -5.5q2 -20 5 -40t8 -37q3 -39 0 -70.5t-9 -55.5t-13 -41.5l-11 -27.5q-10 -17 -28.5 -39t-44 -41.5t-57 -32t-68.5 -10.5l-35 5t-45 11.5
t-47 24.5t-41 44q-34 57 -60.5 136.5t-36.5 166.5q-5 50 -2.5 105t12.5 97q-1 2 2.5 18.5t8.5 40.5t13 53t16 55.5t17.5 48.5t17.5 32q9 21 25.5 44.5t40 42.5t55 29.5t71.5 4.5zM387 726q-33 6 -52 -8t-31 -38.5t-19.5 -53t-18.5 -50.5q-2 -11 -3.5 -20.5t-1.5 -18.5
q54 -8 110.5 -6t111.5 3q-8 64 -28.5 115t-67.5 77zM410 1122q6 -5 4 -12.5t-8.5 -16.5t-16 -19t-18.5 -22q-8 -11 -14 -18t-17 -23q-42 -64 -64 -96t-36 -18q-5 4 -10 8.5t-7 12t0 18t11 27.5q19 33 36 60.5t29 47.5t28.5 43t39.5 34q7 3 14 -3q1 -1 8.5 -7t20.5 -16z" />
    <glyph glyph-name="ecircumflex" unicode="&#xea;" horiz-adv-x="688" 
d="M371 966q66 -12 108.5 -49.5t61.5 -97.5q12 -41 21 -76t16 -68.5t12 -67.5t8 -73q-7 -11 -19 -16t-26 -6.5t-29.5 -1t-28.5 0.5q-59 -2 -124.5 -5t-123.5 5q-4 -16 -3.5 -45t2.5 -59t5 -56t4 -36q3 -31 10 -63t20 -58.5t33.5 -44t51.5 -19.5q28 1 49 19t34 45.5t17.5 62
t0.5 69.5q1 8 0.5 22t-0.5 27.5v24.5t1 13q7 5 15.5 2t15.5 -2q8 -6 17.5 -6.5t19.5 0t19 0t17 -5.5q3 -20 6 -39.5t8 -36.5q3 -39 0 -71t-9 -56t-13 -41.5l-11 -27.5q-10 -17 -28.5 -39t-44 -41t-57 -31.5t-68.5 -10.5l-35 5t-45 11.5t-47 24t-41 43.5q-34 58 -61 137.5
t-36 166.5q-5 50 -2.5 105t12.5 97q-1 2 2.5 18.5t8.5 40.5t13 52.5t16 55.5t17.5 48.5t17.5 31.5q9 21 25.5 44.5t40 42.5t55 29.5t71.5 5.5zM387 820q-33 7 -52.5 -7.5t-31 -38.5t-19.5 -52.5t-18 -50.5q-2 -11 -3.5 -21t-1.5 -19q54 -8 110.5 -5.5t111.5 3.5
q-8 64 -29 115t-67 76zM446 1169q28 -26 47.5 -48.5t21.5 -25.5q-2 -5 -6 -19.5t-7 -23.5t-6 -12t-8 -2t-8 1.5t-9 5.5q-32 28 -63 56t-64 52q-8 -11 -14 -18t-17 -23q-41 -64 -63 -96t-37 -18q-5 4 -10 8.5t-7 11.5t0 18t11 28q19 33 36 60.5t29 47.5q13 20 29 43t40 34
q5 3 13 -3q1 -1 9.5 -7.5t21.5 -17t29 -24t32 -28.5z" />
    <glyph glyph-name="edieresis" unicode="&#xeb;" horiz-adv-x="684" 
d="M600 471q-2 -17 -9 -24q-37 -5 -78 -7.5t-82.5 -4.5t-81 -5.5t-73.5 -9.5q0 -2 1.5 -8t3 -13t2.5 -14t1 -10q8 -41 18 -82t28 -75t46.5 -57.5t74.5 -28.5q13 3 26.5 -1.5t24.5 2.5q9 -6 23 -4.5t26.5 3t21.5 -2.5t8 -21q-12 -19 -17 -44.5t-17 -44.5q-18 -2 -35 -6
t-33.5 -7t-34 -4.5t-38.5 2.5q-73 9 -122 46t-79.5 92t-46.5 124t-24 143q-24 0 -43 3q-10 8 -10 16t6.5 13t17.5 7.5t23 0.5q1 3 0.5 8.5t-1.5 9.5q-5 2 -10.5 0t-11.5 -1q-9 2 -16.5 14t-12 27t-6 30.5t2.5 25.5q5 14 19 14.5t31 -2.5q1 23 2.5 51t4.5 56.5t8 55.5t13 48
q9 29 29 56t46 47t56 31.5t58 9.5q17 -2 41 -5t49 -11t48 -22t40 -36q45 -55 73 -129.5t33 -159.5q0 -2 -0.5 -12t-0.5 -23v-27t1 -23q-2 -2 -10 -7t-14 -4zM441 765q-8 8 -18 13t-19 8t-16 4t-9 1q-26 1 -43.5 -7.5t-29.5 -22.5t-20 -32.5t-14 -38.5q-1 -26 -7.5 -51
t-3.5 -56q23 4 48.5 4t51 -1t50 -0.5t45.5 5.5q11 -6 22.5 -4.5t23.5 -0.5q-6 52 -21 98t-40 81zM266 466q2 -2 2 -6t4 -5q25 2 51.5 4.5t46.5 8.5q-27 2 -52.5 1.5t-51.5 -3.5zM499 1050q2 -3 4.5 -5.5t4.5 -5.5q8 -11 12 -28t2 -31q0 -13 -10.5 -25t-26 -18.5t-33 -6.5
t-30.5 10q-10 8 -19 22.5t-11 28.5v13.5t2 22.5q3 11 10 23.5t31 21.5q12 4 23 1t20 -8t14.5 -10t6.5 -5zM247 1051q6 -2 12.5 -4t14.5 -8q18 -15 19.5 -36t-9 -38.5t-29.5 -27t-43 -1.5q-11 4 -17.5 7.5t-11.5 8.5q-7 5 -9.5 11.5t-5.5 20.5q-1 17 3 34.5t15 25.5
q9 5 24.5 10t36.5 -3z" />
    <glyph glyph-name="igrave" unicode="&#xec;" horiz-adv-x="425" 
d="M192 791q27 2 57.5 -2t48.5 -20q-8 -49 -13.5 -113.5t-3.5 -124.5q-6 -56 -9.5 -114t-7 -116.5t-7 -115.5t-7.5 -110q-7 -13 -27 -16q-9 4 -19 4.5l-20 1t-19.5 2.5t-16.5 9q-5 26 -4 49t2 52q-7 100 1.5 196t14.5 195q4 60 8 116.5t22 106.5zM265 983q28 -26 48 -48.5
t22 -25.5q-2 -5 -6 -19.5t-7 -23.5t-6 -12t-8 -2t-8.5 1.5t-8.5 5.5q-32 28 -63 56t-64 52l-19.5 13t-18.5 13.5t-13 12t-2 9.5q10 14 22 27t27 21q6 3 14 -3q1 -1 9.5 -7.5t21.5 -17t29 -24t31 -28.5z" />
    <glyph glyph-name="iacute" unicode="&#xed;" horiz-adv-x="414" 
d="M300 726q0 -63 -3.5 -127.5t-9 -129.5t-12.5 -128.5t-14 -123.5q-11 -73 -23 -145.5t-27 -145.5q-9 -3 -22 -3.5t-26 0.5t-24.5 3.5t-18.5 7.5q1 8 1.5 14.5t0.5 14.5q3 36 8 71t11 70t11 70.5t7 72.5q1 26 2.5 63t2.5 77.5t2.5 81t2.5 75t1.5 58t0.5 30.5q5 26 5.5 52.5
t13.5 44.5q19 3 39.5 1.5t40.5 7.5q8 0 17 -2t13 -10zM299 1035q6 -5 4 -12t-8.5 -16t-16 -19.5t-18.5 -22.5q-8 -11 -14 -17.5t-17 -23.5q-42 -64 -64 -96t-36 -18q-5 4 -10 8.5t-7 12t0 18t11 27.5q19 34 36 61t29 47t28.5 43t39.5 34q6 3 14 -3q1 -1 8.5 -7t20.5 -16z
" />
    <glyph glyph-name="icircumflex" unicode="&#xee;" horiz-adv-x="484" 
d="M324 736q4 -28 3 -52t0 -53q-6 -59 -12.5 -122t-14 -126t-17.5 -125.5t-23 -120.5q-15 -25 -26.5 -51.5t-14.5 -61.5q-14 -9 -28.5 -10t-30.5 2q-4 -3 -17.5 -3t-27 4.5t-21.5 15.5t0 31q16 45 22.5 93.5t23.5 88.5q5 46 18 89t18 88q13 61 13.5 129.5t4.5 137.5
q0 1 -1 7t-0.5 14t3 15.5t10.5 11.5q26 6 59 7t59 -9zM354 981q28 -26 48 -49t22 -26q-2 -5 -6 -19t-7 -24q-3 -9 -6 -12t-8 -2t-8.5 2t-8.5 5q-32 28 -63 56t-64 52q-8 -11 -14 -17.5t-17 -23.5q-42 -64 -64 -96t-36 -18q-5 4 -10 8.5t-7 12t0 18t11 27.5q19 34 36 61
t29 47t28.5 43t39.5 34q3 2 7 0.5t7 -3.5q1 -1 9.5 -7.5t21.5 -17t29 -24t31 -27.5z" />
    <glyph glyph-name="idieresis" unicode="&#xef;" horiz-adv-x="449" 
d="M294 744q5 -28 3.5 -52t-0.5 -53q-11 -119 -25.5 -247.5t-40.5 -246.5q-15 -24 -27 -50.5t-14 -61.5q-14 -10 -29 -10.5t-30 2.5q-4 -3 -17.5 -3t-27 4.5t-21.5 15.5t-1 30q9 23 14 47t9.5 47.5t9.5 46t13 42.5q5 46 18.5 89t18.5 88q13 60 13 128.5t4 137.5q0 1 -1 7
t-0.5 14t3.5 16t11 11q26 6 59 7t58 -9zM395 948q2 -2 4.5 -5t4.5 -5q8 -11 11.5 -28t2.5 -32q0 -13 -11 -24.5t-26.5 -18t-32.5 -6.5t-30 10q-10 8 -19 22.5t-11 28.5q-1 2 -1 13.5t3 21.5q2 11 9.5 24t30.5 21q12 4 23 1.5t20 -7.5t15 -10.5t7 -5.5zM143 950q5 -2 12 -4.5
t15 -7.5q18 -15 19.5 -36t-9 -38.5t-30 -27t-43.5 -1.5q-11 4 -17 7.5t-11 7.5q-7 5 -10 11.5t-5 21.5q-1 17 2.5 34.5t15.5 25.5q9 5 24.5 9.5t36.5 -2.5z" />
    <glyph glyph-name="ntilde" unicode="&#xf1;" horiz-adv-x="855" 
d="M701 563q0 9 4 14.5t11 8t14.5 1t13.5 -6.5q2 -10 -4 -20t-7 -22q-9 -29 -15.5 -61t-11 -65t-8 -67t-7.5 -65q-14 -43 -20 -89.5t-18 -91.5v-11q-2 -1 -4 -7q-21 -7 -45 -3.5t-45 3.5q-4 3 -5 7.5t-3 8.5q1 104 8 214t8 213q0 1 0.5 19t0 42.5t-3 50t-6.5 42.5
q-5 3 -12 7t-16 5.5t-18.5 -2t-17.5 -15.5q-70 -127 -123 -267t-95 -295l-5.5 -5.5t-4.5 -6.5q-11 -3 -20.5 -8t-19.5 -9.5t-21 -7.5t-26 -2q-8 2 -13 8t-13 9q-4 60 -6 125t-3.5 131t-2.5 131.5t-1 127.5q-5 40 -7.5 85.5t-2.5 89.5q6 2 14 4q2 5 -0.5 8t1.5 7q1 1 9 4.5
t19 7t23 6.5t20 3q11 0 17 -6.5t10 -16t5.5 -21t3.5 -21.5q-1 -7 0 -16.5t2.5 -19.5t2.5 -20t0 -19q-2 -44 4.5 -89.5t5.5 -88.5q18 40 35.5 80.5t37 78.5t42.5 73t53 63q28 23 68.5 36t85.5 2q37 -9 60 -40.5t35 -71.5t15 -83t2 -76zM642 1016q0 -3 -3.5 -15t-11 -28.5
t-20 -34t-28.5 -31.5q-18 -15 -35.5 -13.5t-34 9t-30 16.5t-22.5 9t-14.5 -9.5t-9.5 -21t-7 -21.5t-7 -11q-28 -5 -45 2t-26 15q-3 3 -1.5 15.5t6 29.5t12.5 36t17.5 35t20 27t21.5 11q17 1 32.5 -11.5t29.5 -26.5t26.5 -24t23.5 -4q10 6 15.5 17.5t9 23t8 20t13.5 9.5
q18 2 33.5 -2.5t26.5 -21.5z" />
    <glyph glyph-name="ograve" unicode="&#xf2;" horiz-adv-x="745" 
d="M513 106q-45 -36 -96 -47t-123 -1q-49 3 -84 23.5t-58.5 53.5t-36.5 76t-18 90q-2 13 -4.5 36.5t-2 52.5t4.5 60.5t15 60.5q23 69 54 128t81 101q1 3 2 6.5t1 8.5q22 16 46.5 34t52.5 32t59.5 21t68.5 1q27 -6 48 -25t38.5 -44.5t32 -55.5t27.5 -58q19 -49 27.5 -109
t5.5 -119t-18 -113t-43 -91q-14 -35 -37.5 -64t-42.5 -58zM272 562q-22 -54 -33 -116.5t0 -133.5q2 -22 12.5 -44t27.5 -38.5t41 -24.5t53 0q32 13 56 36.5t41 54t26.5 67.5t13.5 78q7 39 2.5 74t-17 64t-32 52.5t-42.5 38.5q-6 -1 -11.5 1.5t-11.5 0.5q-27 -1 -46.5 -11
t-33.5 -26t-25 -35t-21 -38zM429 1032q28 -26 47.5 -48.5t21.5 -25.5q-2 -5 -6 -19.5t-7 -23.5t-6 -12t-8 -2q-5 0 -8 1t-9 6q-32 28 -63 55.5t-64 52.5q-9 6 -19.5 12.5t-18.5 13.5t-13 12.5t-2 9.5q10 14 22 27t28 21q6 3 13 -4q1 -1 9.5 -7.5t21.5 -17t29 -24t32 -27.5z
" />
    <glyph glyph-name="oacute" unicode="&#xf3;" horiz-adv-x="670" 
d="M137 637q12 28 27 62t38 64t56 50.5t80 19.5q34 -2 62.5 -27t50.5 -56.5t36.5 -61.5t19.5 -41q26 -55 46 -117t26 -136v-27t-1.5 -58t-6 -67t-13.5 -54q-5 -12 -12.5 -28t-15 -31t-13 -25.5t-6.5 -10.5q-18 -45 -50 -78.5t-83 -49.5q-27 -7 -54 -2t-46 16
q-98 23 -136 112q-17 49 -30.5 110.5t-18.5 125.5t-0.5 127t23.5 116q0 1 1.5 8.5t4.5 17.5t7 21t8 20zM428 375q-4 41 -9 85.5t-16 84.5t-31.5 71t-55.5 46q-20 0 -35 -15.5t-19 -29.5l2 -1t3.5 -3.5t0.5 -5.5t-6 -6q-20 -29 -33.5 -60.5t-20 -68t-6.5 -79.5t6 -95
q6 -23 11 -47t11.5 -46.5t15.5 -42.5t23 -35q8 -7 23 -13t31.5 -5.5t31.5 11.5t23 38q7 18 10.5 42.5t4 50.5t-0.5 52.5t-4 48.5q-4 66 -21 122.5t-47 98.5q-7 5 -11 15.5t7 15.5q15 0 27.5 -9.5t22.5 -25.5t17.5 -35.5t13.5 -38.5q8 -48 17 -97t9 -99q2 17 3.5 36.5
t1.5 39.5zM380 1116q7 -6 5 -13t-8.5 -16t-16 -19.5t-18.5 -21.5q-8 -11 -14 -18t-17 -24q-42 -64 -64 -96t-37 -18l-9 9t-7 12t0 17.5t11 27.5q19 34 36 61t29 47t28.5 43t39.5 35q7 3 14 -4q1 -1 8.5 -7t19.5 -15z" />
    <glyph glyph-name="ocircumflex" unicode="&#xf4;" horiz-adv-x="745" 
d="M281 709q-2 2 -5 0.5t-5 0.5q4 21 19.5 36t35 25.5t40.5 15.5t35 7q16 -2 36.5 -5.5t40 -8.5t35 -11.5t21.5 -12.5q10 -10 23 -19t26.5 -17.5t25 -16.5t18.5 -15q20 -18 32 -39.5t19.5 -42.5t11 -38t7.5 -26q9 -63 5 -114t-13 -90.5t-21 -68.5t-20 -48q-17 -42 -43.5 -79
t-55.5 -64.5t-57 -44t-48 -17.5q-63 -4 -114 27.5t-96 109.5q-31 62 -42 139t-4 154t30.5 146.5t62.5 116.5zM400 647q-18 -10 -29 -26.5t-18.5 -37t-12 -44t-8.5 -45.5q-5 -22 -7 -47.5t-1.5 -52t4 -51.5t8.5 -46q4 -17 11.5 -40t19 -43.5t27.5 -35t39 -13.5q20 2 33 16.5
t33 48.5q14 23 25 55.5t18 69.5t8.5 76t-3.5 75t-17.5 67t-32.5 52q-9 6 -17.5 12.5t-18.5 11.5q-5 -6 -11.5 -4.5t-14.5 3.5t-17 3.5t-18 -4.5zM513 965q28 -26 47.5 -48.5t21.5 -25.5q-2 -5 -6 -19.5t-7 -23.5t-5.5 -12t-7.5 -2t-8.5 1.5t-8.5 5.5q-32 28 -63 56t-64 52
q-8 -11 -14.5 -18t-17.5 -23q-41 -64 -63 -96.5t-37 -17.5q-4 4 -9 8.5t-7 11.5t0 18t11 28q19 33 36 60.5t29 47.5t28 42.5t40 34.5q6 3 13 -4q1 0 9.5 -7t22 -17.5t29.5 -24t31 -27.5z" />
    <glyph glyph-name="otilde" unicode="&#xf5;" horiz-adv-x="745" 
d="M513 122q-45 -36 -96 -47.5t-123 -1.5q-49 3 -84.5 24t-59 54t-36.5 75.5t-17 89.5q-2 13 -4.5 37t-2 52.5t4.5 60t15 60.5q23 69 54 128t81 101q1 4 2 7t1 8q22 17 46.5 35t52.5 32t59.5 21t68.5 1q27 -6 48 -25t38.5 -44.5t32 -55.5t27.5 -58q19 -49 27 -109t5 -119.5
t-17.5 -113.5t-42.5 -91q-14 -35 -37.5 -63.5t-42.5 -57.5zM272 578q-22 -55 -33 -117.5t0 -133.5q2 -22 12.5 -44t27.5 -38.5t41 -24t53 0.5q32 13 56 36.5t41 54t26.5 67.5t13.5 77q7 39 2.5 74t-17 64.5t-32 52.5t-42.5 38q-6 0 -11.5 2.5t-11.5 -0.5q-27 -1 -46.5 -11
t-33.5 -25.5t-25 -34.5t-21 -38zM555 1046q0 -3 -3.5 -15t-11 -28.5t-20 -34t-28.5 -31.5q-18 -15 -35.5 -13.5t-34 9t-30 16.5t-22.5 9t-14.5 -9.5t-9.5 -21t-7.5 -21.5t-7.5 -11q-27 -5 -44 2t-26 15q-3 3 -1.5 15.5t6 29.5t12.5 36t17.5 35t20 27t21.5 11q16 0 31.5 -12
t30 -26t26.5 -24t23 -4t16.5 17.5t9 23t8 20t13.5 9.5q17 2 33 -2.5t27 -21.5z" />
    <glyph glyph-name="odieresis" unicode="&#xf6;" horiz-adv-x="698" 
d="M186 722q-2 2 -5 0.5t-5 0.5q4 21 19.5 36t35.5 25.5t40.5 15.5t35.5 7q16 -2 36.5 -5.5t39.5 -8.5t34.5 -11.5t21.5 -12.5q10 -10 23 -19t26.5 -17.5t25 -16.5t18.5 -15q20 -17 32 -38.5t19.5 -42.5t11 -38.5t7.5 -26.5q9 -63 5 -114t-13.5 -90.5t-21 -68.5t-18.5 -48
q-18 -42 -44.5 -79t-55.5 -64.5t-57 -44t-48 -17.5q-63 -4 -114 27.5t-96 109.5q-31 62 -42 139t-4 154t30.5 146.5t62.5 116.5zM305 660q-18 -10 -29 -26.5t-18.5 -37t-12 -44t-8.5 -45.5q-5 -22 -7 -47.5t-1.5 -52t4 -51.5t8.5 -46q4 -17 11.5 -40t19 -43.5t28 -34.5
t38.5 -13q20 1 33 15.5t33 48.5q21 35 35 89.5t16 112t-10 110t-43 84.5q-9 5 -17.5 12t-18.5 12q-5 -6 -11.5 -5t-14.5 3t-17 3.5t-18 -4.5zM514 992q2 -3 4 -5.5t4 -5.5q9 -11 12.5 -28t2.5 -31q0 -13 -11 -25t-26.5 -18.5t-32.5 -6.5t-30 10q-10 8 -19 22.5t-11 28.5
q0 2 -0.5 13.5t2.5 22.5q2 11 9.5 23.5t30.5 21.5q12 4 23 1t20 -8t15 -10t7 -5zM262 993q5 -2 12 -4.5t15 -7.5q18 -15 19.5 -36t-9 -38.5t-30 -27t-43.5 -1.5q-11 4 -17 7.5t-11 7.5q-8 5 -10.5 12t-4.5 21q-1 17 2.5 34.5t14.5 25.5q9 5 24.5 10t37.5 -3z" />
    <glyph glyph-name="oslash" unicode="&#xf8;" horiz-adv-x="764" 
d="M141 42q-23 11 -38 25q-8 7 -13 14l62 96q-15 29 -24 63.5t-13 72.5q-2 13 -4 36.5t-2 52t4 60t15 61.5q23 69 54.5 128t81.5 101q1 3 1.5 6.5t0.5 8.5q22 16 46.5 34t52.5 32t60 21t69 1q6 -2 11.5 -3.5t10.5 -4.5q16 31 27 47t21.5 20.5t21.5 -1t28 -15.5
q11 -8 15.5 -16t4.5 -16q0 -9 -3 -17l-43 -75q15 -24 28 -50t24 -52q19 -49 27 -109t5 -119.5t-18 -113.5t-43 -91q-14 -35 -37 -63.5t-42 -57.5q-45 -36 -96.5 -47t-123.5 -1q-17 1 -28.5 2t-20.5 3t-18 7t-19 13q-15 -20 -30 -33q-13 -11 -28 -19t-27 -1zM317 227
q32 -20 75 -10q32 13 56 36.5t40.5 54t26 67.5t13.5 78q8 45 2 83t-23 70zM440 682q-6 -1 -11.5 1.5t-11.5 0.5q-27 -1 -46.5 -11.5t-33.5 -26t-25.5 -34.5t-21.5 -38q-22 -54 -32.5 -116.5t0.5 -133.5z" />
    <glyph glyph-name="ugrave" unicode="&#xf9;" horiz-adv-x="767" 
d="M637 881q-1 -43 -2 -87t-2 -89q-1 -21 -3 -55t-5 -75t-6.5 -84.5t-6.5 -84t-4.5 -74t-1.5 -53.5q4 -30 4 -58.5t-1 -56.5t-1 -56t3 -55q0 -17 -17 -24t-41 -9q-12 -2 -24 2.5t-23 9.5q-4 20 -6 43.5t-5 45.5q-9 -16 -23 -31.5t-31 -28.5t-35.5 -21t-35.5 -9
q-49 -4 -88 7.5t-68.5 35.5t-49.5 58.5t-31 75.5q-19 82 -21 169.5t0 172.5q-2 15 -1 54.5t4.5 85t8 86.5t9.5 59q14 5 29.5 4.5t32 -2.5t32.5 -4t31 -1q12 -1 16.5 -11t6.5 -15q-11 -71 -17.5 -149.5t-5.5 -157.5t13 -154t39 -138q7 -12 16.5 -15.5t19.5 -2t18 6t11 7.5
q40 28 59.5 75t28.5 103.5t12 118.5t11 119q0 14 3 44t7 64t8 67t4 53q0 11 2.5 20t12.5 15q17 -4 32.5 -0.5t29.5 7t27 3t25 -10.5zM388 1054q14 -13 26.5 -25.5t22 -23t15 -17.5t6.5 -8q-2 -5 -6 -19.5t-7 -23.5t-6 -12t-8 -2q-5 0 -8.5 1t-8.5 6q-32 28 -63 56t-64 52
q-9 6 -19.5 12.5t-18.5 13.5t-13 12.5t-2 9.5q10 14 21.5 27t27.5 21q7 3 14 -4q1 -1 9.5 -7.5t21.5 -17t29 -24t31 -27.5z" />
    <glyph glyph-name="uacute" unicode="&#xfa;" horiz-adv-x="653" 
d="M433 245q-5 -45 -15.5 -88t-30 -77t-51 -56.5t-79.5 -26.5q-45 5 -69.5 31.5t-36.5 65.5t-15 85.5t-6 90.5q0 13 1 43t2.5 68.5t3.5 81.5t4.5 83.5t4 74.5t3.5 53q2 18 4 39.5t10 35.5q26 10 56.5 7.5t53.5 -19.5q4 -26 2 -54.5t-7 -53.5q-9 -86 -13 -172.5t-2 -174.5
q-1 -17 -2.5 -39.5t-0.5 -43t6 -34.5t17 -14q8 0 11 5t8 9q16 41 27.5 87t19.5 94.5t12.5 98t7.5 96.5q3 18 5.5 53.5t4 72.5t3 67.5t1.5 39.5q3 7 16.5 8.5t30 -1t31.5 -7.5t23 -11q2 -4 4 -8.5t4 -8.5q3 -32 6 -74t6.5 -87.5t6.5 -91.5t6 -85.5t6 -69.5t6 -44
q13 -68 16 -132.5t8 -132.5q-2 -8 -5 -12t-8 -8q-17 -4 -32.5 -8t-30.5 -9q-16 7 -18 29q-4 55 -7.5 114t-8.5 110zM409 1044q7 -5 5 -12t-9 -16t-16.5 -19.5t-18.5 -22.5q-8 -11 -14 -17.5t-17 -23.5q-41 -64 -63 -96t-37 -18q-5 4 -10 8.5t-7 12t0 18t11 27.5q19 34 36 61
t29 47t28.5 43t39.5 35q7 3 14 -4q1 -1 9 -7t20 -16z" />
    <glyph glyph-name="ucircumflex" unicode="&#xfb;" horiz-adv-x="768" 
d="M701 854q-1 -43 -2 -87.5t-3 -89.5q0 -21 -2.5 -55t-5.5 -74.5t-6.5 -84t-6 -84t-4.5 -74t-1 -53.5q3 -30 3 -58.5t-0.5 -56.5l-1 -56t2.5 -55q1 -18 -16 -24.5t-41 -9.5q-13 -1 -24.5 3.5t-22.5 9.5q-5 20 -6.5 43.5t-5.5 44.5q-9 -15 -23 -31t-31 -28.5t-35 -21
t-36 -8.5q-49 -5 -88 7t-68.5 36t-49.5 58.5t-31 75.5q-18 82 -20.5 169t-0.5 172q-1 10 -1 32t1.5 49.5t3.5 58.5t5 59.5t6 51.5t6 34q14 5 30 5t32.5 -2t32.5 -4t30 -1q12 -1 17 -11t6 -15q-10 -71 -17 -150t-5.5 -158t13 -153.5t38.5 -137.5q7 -12 17 -15.5t19.5 -2
t17.5 6t12 7.5q40 27 59.5 74t28 103.5t11.5 118.5t11 119q0 15 3.5 45t7.5 64t8 67t4 53q0 11 2.5 20t11.5 15q17 -4 32.5 -0.5t30 7t27.5 3t25 -10.5zM541 1039q28 -26 48 -49t22 -26q-2 -5 -6 -19t-7 -23q-4 -9 -6.5 -12t-7.5 -3q-5 1 -8.5 2t-8.5 6q-32 28 -63 55.5
t-64 52.5q-8 -11 -14 -18t-17 -24q-42 -64 -64 -96t-36 -18q-5 4 -10 9t-7 12t0 17.5t11 27.5q19 34 36 61t29 47t28 43t40 35q6 3 14 -4q1 -1 9.5 -7.5t21.5 -17t29 -24t31 -27.5z" />
    <glyph glyph-name="udieresis" unicode="&#xfc;" horiz-adv-x="623" 
d="M246 799q-4 -26 -6.5 -63.5t-4 -79t-2 -83.5t-1 -77.5t0 -61t0.5 -33.5q2 -30 4.5 -72.5t7.5 -80t13 -63t21 -20.5q11 9 16.5 24t8.5 32t4.5 35t3.5 33q8 62 10 123t2.5 122.5t2.5 123.5t11 127q-1 3 -2.5 9.5t-1.5 12.5t2.5 10.5t9.5 3.5q15 -5 31.5 -6l33 -2t32 -4
t28.5 -10q-2 -10 -4 -17.5t-1 -16.5q5 -3 11 -4t10 -5q7 -139 5 -272.5t-9 -268.5q4 -34 2.5 -71.5t1.5 -75.5q-1 -11 -14 -16.5t-29.5 -7.5t-31.5 -1.5t-19 1.5q-12 2 -14 14.5t0 23.5q-14 -14 -29 -31t-37 -25q-31 -5 -60 1t-49 20q-35 35 -50 88t-19.5 113t-4 121.5
t-2.5 114.5q-3 60 -6 123.5t0 117.5q-4 26 -0.5 50t1.5 46q2 6 7.5 8t12.5 1t13.5 -3.5t10.5 -5.5q23 -3 44 -7t35 -15zM459 1006q2 -3 4.5 -5.5t4.5 -5.5q8 -11 12 -27.5t2 -31.5q0 -13 -10.5 -24.5t-26 -18t-33 -7t-30.5 9.5q-10 8 -19 22.5t-11 29.5v13.5t2 21.5
q3 11 10 24t31 21q12 4 23 1.5t20 -8t14.5 -10.5t6.5 -5zM207 1008q6 -2 13 -4.5t15 -8.5q18 -14 19 -35t-9.5 -38.5t-29.5 -27t-43 -1.5q-11 3 -17.5 7t-11.5 8q-7 5 -9.5 11.5t-5.5 21.5q-1 17 2.5 34t15.5 26q9 5 24.5 9.5t36.5 -2.5z" />
    <glyph glyph-name="yacute" unicode="&#xfd;" 
d="M224 674q4 -68 9.5 -140t13 -143t18 -139.5t25.5 -129.5q5 -22 16.5 -46t34.5 -28q19 -3 31 5.5t27 13.5q36 30 60 73t39 94t23.5 108.5t13.5 115.5q6 23 5.5 47t-2.5 47.5t-2.5 45.5t4.5 41q12 1 24.5 -1t25 -4.5t24 -3t21.5 5.5q4 -4 11.5 -3.5t12.5 -2.5
q0 -17 3.5 -40t7 -45t7 -38t3.5 -17q4 -26 7.5 -62.5t0.5 -70.5q-2 -22 -6 -47.5t-2 -54.5q3 -44 -0.5 -84.5t-1.5 -80.5q0 -4 0.5 -12t0.5 -16.5t-0.5 -16.5t-0.5 -11q-1 -8 -3.5 -14.5t-3.5 -14.5q-2 -38 -6 -78.5t-4 -82.5q-1 -4 -5 -10q3 -39 -4.5 -73.5t-11.5 -75.5
q-1 -3 -2.5 -5.5t-3.5 -4.5q-1 -39 -9.5 -75t-15.5 -74q-3 -20 -12 -50l-15 -50q-14 -35 -29 -69t-37 -61.5t-51.5 -47.5t-71.5 -26q-30 1 -56 4t-49 12q-54 33 -93 81t-56 119q-2 16 5.5 24t18 13t21.5 10t17 14q7 -2 16 -3t14 -6q6 -24 17 -42.5t24.5 -35t28 -31.5
t26.5 -33q14 -11 33.5 -11t45.5 20q39 35 61.5 86t35.5 110t18.5 123.5t9.5 127.5q-2 66 5.5 128.5t4.5 124.5q-15 -27 -33.5 -51t-41.5 -43t-51.5 -32.5t-65.5 -18.5q-68 1 -108 33.5t-61 78.5q-16 35 -30 82.5t-24.5 94t-16.5 87t-5 62.5q1 2 0.5 21t-2 49t-3.5 67
t-3.5 73.5t-3 70t-2.5 55.5q1 4 2.5 6t3.5 4h34t35.5 -2t32.5 -6.5t26 -13.5zM508 957q7 -5 5 -12.5t-8.5 -16.5t-16 -19t-18.5 -22q-8 -11 -14 -18t-17 -23q-42 -64 -64 -96.5t-37 -17.5q-4 4 -9 8.5t-7 11.5t0 18t11 28q19 33 36 60.5t29 47.5t28.5 42.5t39.5 34.5
q5 2 14 -3q1 -1 8.5 -7t19.5 -16z" />
    <glyph glyph-name="ydieresis" unicode="&#xff;" 
d="M224 792q5 -68 10 -140t12.5 -143t18 -139.5t25.5 -129.5q3 -11 7 -23.5t10 -23t14.5 -18.5t19.5 -10q19 -3 31.5 6t26.5 14q36 30 60 73t39 94t23.5 108.5t13.5 115.5q6 23 5.5 47t-2.5 47t-2.5 45t4.5 41q12 2 24.5 -0.5t25 -4.5t24 -2.5t21.5 5.5q4 -5 11.5 -4
t12.5 -2q0 -17 3.5 -40t7.5 -45t7 -38t3 -17q4 -27 7.5 -63.5t0.5 -70.5q-2 -21 -6 -47t-2 -55q3 -44 -0.5 -84.5t-0.5 -79.5v-12v-17v-17v-11q-1 -8 -4 -14.5t-3 -14.5q-3 -37 -7 -78t-4 -82q-1 -3 -2 -5.5t-3 -5.5q3 -38 -4.5 -72.5t-11.5 -75.5q-1 -4 -2.5 -6t-3.5 -4
q-1 -40 -9.5 -76t-15.5 -74q-2 -10 -5 -23t-7 -26.5l-8 -27t-7 -23.5q-14 -35 -29 -68.5t-37 -61.5t-51.5 -47.5t-71.5 -25.5q-29 1 -55.5 3.5t-49.5 12.5q-54 33 -93 81t-56 119q-2 15 5.5 23.5t18 13.5t21.5 10t17 14q7 -2 16 -3t14 -6q6 -24 17 -42.5t24.5 -35t28 -32
t26.5 -33.5q14 -11 34 -11t45 20q39 36 62 86.5t35.5 110t18 124t9.5 127.5q-1 33 1 65t4.5 63.5t4.5 62.5t1 61q-16 -26 -34 -50t-41 -43t-52 -32.5t-66 -18.5q-68 1 -108 33.5t-61 77.5q-16 35 -30 82.5t-24.5 94.5t-16.5 87.5t-5 62.5q1 1 0.5 20.5t-2 49t-3.5 66.5
t-3.5 74t-3 70t-2.5 56q1 3 2.5 5.5t3.5 4.5q16 -1 34 -1t35.5 -1.5t32.5 -6t26 -13.5zM543 991q2 -3 4.5 -5.5l4.5 -4.5q8 -11 11.5 -28t2.5 -32q0 -13 -11 -24.5t-26.5 -18t-32.5 -7t-30 9.5q-10 8 -19 22.5t-11 29.5q-1 2 -1 13.5t3 21.5q2 11 9.5 24t30.5 21
q12 4 23 1.5t20 -8t15 -10.5t7 -5zM291 993q5 -2 12 -4.5t15 -7.5q18 -15 19.5 -36t-9 -38.5t-30 -27t-43.5 -1.5q-11 3 -17 7t-11 8q-7 5 -10 11.5t-5 21.5q-1 17 2.5 34t15.5 26q8 5 24 9.5t37 -2.5z" />
    <glyph glyph-name="Ydieresis" unicode="&#x178;" horiz-adv-x="901" 
d="M883 1481q7 1 -4.5 -34.5t-34 -95.5t-54 -137.5t-66.5 -160.5t-69.5 -165t-63.5 -150t-49 -116t-26 -63q-1 -15 -3 -48.5t-4 -76.5t-4 -90.5t-4 -90t-3.5 -74.5t-1.5 -45q3 -29 7 -56.5t-2 -53.5q-2 -6 -12 -8t-23.5 -2t-28.5 1t-27 1q-21 -4 -35.5 -3t-15.5 11
q-1 28 -2 79t-2 112t-2 126.5t-2 121.5t-2 97t-1 54q-2 9 -8 35.5t-16 66t-23 89t-29 103.5q-24 81 -51 167t-52.5 164t-46 140.5t-31.5 95.5q-1 6 6.5 10t18.5 6q12 2 26.5 1.5t25.5 1.5q5 1 12 4t14.5 5.5t14.5 3.5t12 -3q9 -8 14 -20.5t10 -28.5q7 -24 19.5 -63t28 -88
t33 -103.5t35 -108.5t34 -104t30 -90t22.5 -66t11 -32q5 9 17 35t28.5 63t36 82.5t39.5 94.5q27 66 52.5 133t45.5 123t33.5 93.5t16.5 45.5q4 14 14 14q37 -5 73 -5t69 2zM666 1643q2 -3 4.5 -5.5l4.5 -4.5q9 -11 12.5 -28t1.5 -32q0 -13 -10.5 -24.5t-26 -18t-33 -7
t-30.5 9.5q-10 8 -19 22.5t-10 29.5q-1 2 -1 13.5t2 22.5q3 10 10 23t31 21q12 4 23 1.5t20 -7.5t14.5 -10.5t6.5 -5.5zM414 1645q6 -2 13 -4.5t15 -7.5q18 -15 19 -36t-9.5 -38.5t-29.5 -27t-43 -1.5q-11 4 -17.5 7.5t-11.5 7.5q-7 5 -9.5 11.5t-5.5 21.5q-1 17 3 34t15 26
q9 5 24.5 10t36.5 -3z" />
    <glyph glyph-name="circumflex" unicode="&#x2c6;" horiz-adv-x="801" 
d="M492 1172q28 -26 47.5 -49t21.5 -26q-2 -5 -6 -19.5t-7 -23.5t-6 -12t-8 -2t-8 2t-9 5q-32 28 -63 56t-64 52q-8 -11 -14 -17.5t-17 -23.5q-41 -64 -63 -96t-37 -18q-5 4 -10 8.5t-7 12t0 18t11 27.5q19 34 36 61t29 47q13 20 29 43t40 34q5 3 13 -3q1 -1 9.5 -7.5
t21.5 -17t29 -24t32 -27.5z" />
    <glyph glyph-name="ring" unicode="&#x2da;" horiz-adv-x="727" 
d="M290 1011q-4 3 -10.5 9t-13.5 17t-13.5 26.5t-9.5 37.5q-7 45 2.5 78t17.5 49t22.5 28t31 19t33.5 9.5t29 0.5q25 -5 41 -15t29 -24q6 -7 11.5 -17t10 -20.5t8 -20.5t4.5 -17t3 -25t-0.5 -40.5t-10 -46t-25.5 -42.5q-18 -18 -37.5 -25t-39.5 -6.5t-39 6.5t-36 14
q-2 0 -4 1.5t-4 3.5zM348 1212q-6 -3 -14.5 -12.5t-13.5 -34.5q-5 -18 -2.5 -36.5t10.5 -32.5t21.5 -22t32.5 -6t29 14.5t14 28.5t2.5 32t-4.5 26t-10 20.5t-16.5 17.5t-22 9t-26.5 -4z" />
    <glyph glyph-name="tilde" unicode="&#x2dc;" horiz-adv-x="778" 
d="M537 1199q0 -3 -3.5 -15t-11 -28.5t-20 -34t-28.5 -31.5q-18 -15 -35.5 -13.5t-34 9t-30 16.5t-22.5 9t-14.5 -9.5t-9.5 -21t-7 -21t-7 -10.5q-28 -5 -45 2t-26 15q-3 3 -1.5 15.5t6 29.5t12.5 36t17.5 35t20 27t21.5 11q17 0 32.5 -12.5t29.5 -26.5t26.5 -23.5
t23.5 -3.5q10 6 15.5 17t9 22.5t8 20.5t13.5 10q18 2 33.5 -3t26.5 -22z" />
    <glyph glyph-name="endash" unicode="&#x2013;" horiz-adv-x="743" 
d="M737 628q6 -19 5.5 -40.5t-2.5 -45.5q-11 -5 -28 -9t-37 -6.5t-40.5 -2.5t-38.5 2q-6 1 -39.5 0.5t-82 -1.5t-107 -3t-114 -4.5t-102.5 -5t-73 -5.5q-37 -4 -56 -1.5t-21 14.5q1 23 0 53.5t5 53.5q6 6 18 6q16 0 65 1t114.5 2t140.5 2t144 2.5t125 3.5t84 4q18 1 29 -4
t11 -16z" />
    <glyph glyph-name="emdash" unicode="&#x2014;" horiz-adv-x="987" 
d="M981 609q6 -19 5.5 -40.5t-2.5 -45.5q-11 -5 -28 -9t-37 -6.5t-40.5 -2.5t-38.5 2q-4 1 -35 0.5t-79 -1t-109.5 -1.5t-127 -2.5t-130.5 -3t-121 -3.5t-98.5 -4t-61.5 -4q-37 -4 -56 -1.5t-21 14.5q1 23 0 53.5t5 53.5q6 6 18 6t53.5 0.5t102 1.5t134.5 1.5t151.5 1.5
t154 2t141 2t112 2.5t68.5 3.5q18 1 29 -4t11 -16z" />
    <glyph glyph-name="quoteleft" unicode="&#x2018;" horiz-adv-x="366" 
d="M209 1637q7 -13 4 -30q-5 -32 3.5 -58t17.5 -42q3 -7 11 -19t11 -26q-11 -14 -29.5 -19t-35.5 -12q-1 0 -7.5 8.5t-15 21.5t-17.5 27.5t-14 28.5q-11 27 -17 48.5t-8 32.5q-6 25 10 31q40 13 59.5 16.5t27.5 -8.5z" />
    <glyph glyph-name="quoteright" unicode="&#x2019;" horiz-adv-x="342" 
d="M205 1700q14 -51 22.5 -106.5t0.5 -110.5q-3 -8 -18 -15.5t-31 -11.5t-28.5 -4t-12.5 8q1 12 2.5 28.5t2 35t0.5 37t-2 32.5q-2 15 -8 25.5t-11.5 19.5t-9 17.5t-0.5 17.5q1 4 15.5 11t31.5 12.5t31 7.5t15 -4z" />
    <glyph glyph-name="quotedblleft" unicode="&#x201c;" horiz-adv-x="484" 
d="M349 1586q-2 -22 1.5 -42.5t8 -40t9.5 -38.5t6 -37q-9 -5 -24.5 -10.5t-26.5 -7.5q-12 -1 -21 10t-16.5 28.5t-12.5 38t-8 37.5q-7 35 -11.5 73.5t9.5 73.5q13 8 32 7t35 -2q13 -2 14 -12q1 -8 2 -20.5t1.5 -25t1 -22t0.5 -10.5zM209 1637q7 -13 4 -30q-5 -32 3.5 -58
t17.5 -42q3 -7 11 -19t11 -26q-11 -14 -29.5 -19t-35.5 -12q-1 0 -7.5 8.5t-15 21.5t-17.5 27.5t-14 28.5q-11 27 -17 48.5t-8 32.5q-6 25 10 31q40 13 59.5 16.5t27.5 -8.5z" />
    <glyph glyph-name="quotedblright" unicode="&#x201d;" horiz-adv-x="488" 
d="M322 1753q22 -30 34 -60.5t17 -58.5t5 -51t-3 -37t-11.5 -29.5t-21.5 -28.5t-30.5 -22t-38.5 -10q-5 1 -8 2.5t-5 7.5q0 3 4 12t8.5 22.5t8 30.5t2.5 37q-2 18 -7.5 38t-12.5 38t-14 33t-11 23v5t5 10q2 3 10.5 9.5t20 12.5t24.5 10.5t24 5.5zM205 1700
q14 -51 22.5 -106.5t0.5 -110.5q-3 -8 -18 -15.5t-31 -11.5t-28.5 -4t-12.5 8q1 12 2.5 28.5t2 35t0.5 37t-2 32.5q-2 15 -8 25.5t-11.5 19.5t-9 17.5t-0.5 17.5q1 4 15.5 11t31.5 12.5t31 7.5t15 -4z" />
    <glyph glyph-name="bullet" unicode="&#x2022;" horiz-adv-x="628" 
d="M163 673q3 28 28.5 55t60.5 44.5t75 21.5t72 -14t48.5 -51.5t19.5 -71.5t-6 -76t-27 -64q-36 -48 -88 -56.5t-110 20.5q-29 14 -45 35t-23.5 46.5t-7.5 53.5t3 57z" />
    <glyph glyph-name="ellipsis" unicode="&#x2026;" horiz-adv-x="1083" 
d="M876 168q12 -8 21 -16.5t15 -20.5q6 -11 7.5 -16.5t2.5 -12.5q2 -17 -5 -30.5t-15 -26.5q-8 -11 -22 -16t-29.5 -7t-30 -0.5t-21.5 4.5q-15 7 -21 19.5t-7 30.5q0 35 21.5 62.5t56.5 33.5q5 1 14 -0.5t13 -3.5zM245 165q9 -3 19 -11t18 -19t13 -24.5t2 -28.5
q-5 -29 -18.5 -39.5t-34.5 -17.5q-53 -11 -76 28q-3 5 -4 9.5t-2 10.5q-4 22 0.5 42.5t15.5 30.5q12 11 30 17.5t37 1.5zM516 163q26 4 50 -8t31 -33t6 -34t-5 -28q-1 -3 -6 -9.5t-12 -13t-16 -12t-19 -8.5q-10 -2 -20.5 -1t-19.5 4t-16 7t-10 7q-12 14 -16 25t-6 26
q2 26 17.5 49.5t41.5 28.5z" />
    <glyph glyph-name="Euro" unicode="&#x20ac;" horiz-adv-x="989" 
d="M171 613q-22 2 -41.5 10.5t-39.5 12.5q3 27 5 44.5t9.5 27.5t22.5 12t45 -1q-1 11 0.5 29t2.5 32q-13 6 -29.5 9t-32.5 4q-9 14 -5 34.5t8 36.5q5 6 13.5 9t18 3.5t20.5 1t20 2.5q1 0 7.5 33t20.5 80.5t36 102t54 98.5q37 50 77.5 84.5t76.5 57t63.5 34.5t39.5 18
q23 7 42 9.5t40 3.5q29 2 61.5 -3t65.5 -21t65 -45t62 -75q-8 -27 -15.5 -55t-19.5 -52q-3 -5 -8.5 -6.5t-12.5 -1.5t-12.5 2t-8.5 6q-3 5 -15 21t-28.5 33.5t-35 32.5t-34.5 20t-35 5.5t-38 -1t-36.5 -5.5t-29.5 -8q-15 -6 -37.5 -20t-48 -35t-52 -49t-48.5 -64
q-18 -28 -30 -63t-20 -65.5t-12 -52.5t-5 -24q30 -3 65.5 -5t71.5 -3.5t71 -3t65 -1.5q5 -2 9.5 -7t-1.5 -10q2 -20 -4 -45.5t-6 -48.5q-2 -2 -4.5 -3.5t-4.5 -4.5q-6 0 -26 0.5t-48.5 1.5t-62 3t-65.5 3.5t-58.5 3.5t-41.5 4v-26.5t1 -29.5q13 -3 38 -5t54.5 -5t60 -6.5
t55 -9t39.5 -12t14 -15.5t-2.5 -23t-4 -26.5t-7 -21t-12.5 -7.5q-60 5 -113.5 12t-104.5 10q10 -53 20.5 -90.5t21.5 -65t22 -47.5t23 -38q21 -33 51.5 -53.5t63.5 -31t65.5 -11.5t58.5 5q50 25 87.5 60.5t78.5 69.5q8 1 17 -12t15.5 -31t10 -35t0.5 -23q-6 -10 -15 -23
t-20.5 -27.5t-24.5 -27.5t-26 -23q-24 -18 -53.5 -31t-62 -20t-65.5 -8t-63 6q-61 14 -104.5 47.5t-78.5 73.5q-38 54 -62 96.5t-40 82.5t-25.5 81.5t-18.5 94.5z" />
    <glyph glyph-name="trademark" unicode="&#x2122;" horiz-adv-x="892" 
d="M726 1000q-1 -5 -8.5 -7t-16 -3t-16.5 -0.5t-11 1.5q-5 3 -6 5t-1 10q1 5 2 29t1 58v74t-0.5 77t-1 67t-1.5 44q-13 -35 -21.5 -60t-15.5 -44.5t-13 -37.5t-14 -39q-1 -5 -10 -9t-14 -4q-9 5 -12 15t-5 26q-3 26 -12.5 75.5t-34.5 130.5q-3 -17 -5 -48t-4 -69t-3.5 -79.5
t-3.5 -79t-4 -67t-4 -44.5q0 -22 -13 -25q-6 -3 -13 -2t-15 1q-7 0 -13 0.5t-6 4.5q1 20 2.5 37.5t1.5 37.5q3 39 6.5 90.5t8 106.5t9 109t8.5 98t7.5 73.5t6.5 35.5q4 8 18 6q4 0 8.5 -4.5t7.5 -9.5q2 -5 7.5 -19t11.5 -32.5t12.5 -39.5t12.5 -39.5t10.5 -32.5t6.5 -19
q1 -2 3.5 -10.5t6 -19t6.5 -21.5t5 -19q1 4 10.5 34.5t22 71t26 81.5t21.5 65q10 29 24 29q4 0 7 -3t6 -12t5 -26.5t4 -46.5q-1 -3 0 -21t2 -44t2.5 -57.5t2.5 -60t1 -51t-1 -32.5q4 -131 1 -190.5t-5 -64.5zM170 1609q4 2 10.5 0.5t15.5 -1.5q3 -1 17 -2.5t33.5 -3t41 -3
t41 -3t34 -2.5t19.5 -1q6 0 8.5 -1.5t6.5 -1.5q7 -8 3.5 -21.5t-3.5 -24.5q-3 -4 -8 -8.5t-13 -4.5q-19 2 -31.5 4t-29.5 4q0 -2 -2 -28t-5 -66.5t-6 -91t-4 -101.5q-3 -78 -0.5 -122t4.5 -69q0 -9 -11.5 -12.5t-22.5 -3.5q-7 0 -17.5 -1t-11.5 5q-3 28 -5.5 88.5
t-0.5 133.5q1 42 2.5 83t3.5 77t4 65.5t3 48.5q-37 9 -78 1q-2 0 -3 5.5t-3 7.5q0 6 -1 13.5t-0.5 15t2.5 13.5t7 8z" />
    <glyph glyph-name="minus" unicode="&#x2212;" horiz-adv-x="716" 
d="M624 779q-1 -6 -0.5 -13.5t1.5 -16t1 -15.5t-2 -11q-3 -2 -18.5 -5.5t-38.5 -7t-51 -7t-55 -5.5t-50.5 -2.5t-38.5 1.5q-36 -1 -68.5 -1t-64.5 1t-65 1t-70 -1q-8 -1 -11.5 18t-2.5 41.5t5 42t12 19.5q24 0 46 1l44 2t45 2t49 1q35 5 75 7t71 2q12 1 36.5 4t51.5 6
t50.5 4.5t33.5 1.5q4 0 7 -2.5t4.5 -10t2.5 -21t1 -36.5z" />
    <glyph glyph-name="zero.alt" horiz-adv-x="860" 
d="M694 401q-14 -45 -28 -85.5t-37 -86.5q-23 -49 -59 -83.5t-87 -52.5q-22 -7 -46 -8t-47 2.5t-44 11.5t-36 19q-8 5 -19.5 14.5t-23.5 21t-22.5 22t-14.5 18.5q-27 42 -45.5 76.5t-31.5 65t-21 58.5t-15 57q-7 24 -12 62.5t-8 75.5t-4.5 64t-1.5 28q-2 35 1.5 70.5
t5.5 62.5q2 17 3.5 32.5t3.5 30.5q3 44 10.5 88.5t15.5 85.5q3 17 9.5 44t13.5 58t15 62t14 57q9 39 19.5 73t26.5 62.5t38.5 52t54.5 41.5q29 16 68.5 27.5t79.5 1.5q27 -8 60 -22.5t54 -33.5q49 -47 73 -88t41 -81q18 -33 29.5 -84t18.5 -108.5t10 -116t3.5 -108t-0.5 -84
t-2 -42.5q-4 -48 -11 -99t-15.5 -99t-18 -90.5t-18.5 -72.5zM407 1365q-20 -21 -36.5 -47t-27.5 -58q-50 -135 -70 -281t-25 -301q0 -11 -1.5 -43.5t0.5 -75t10 -90t27 -88.5l4 -10t13.5 -27.5t26.5 -40.5t44 -49q20 -20 39 -23t39 2q34 8 59 36.5t43 69t30 88.5t20 96
t12.5 92t7.5 76q7 48 9.5 102.5t2.5 110t-3 109.5t-7 102q-7 58 -18.5 100t-28.5 73t-39.5 53.5t-51.5 40.5q-3 1 -11 3t-19 1t-24 -5.5t-25 -15.5z" />
    <glyph glyph-name="one.alt" horiz-adv-x="516" 
d="M354 1523q8 -4 11 -23.5t5 -64.5t3.5 -119t6.5 -187q0 -17 1 -43.5t1.5 -57t1.5 -62.5t1 -59v-46.5t-1 -25.5q-1 -72 -0.5 -151t0.5 -158t-1 -156t-4 -145q-1 -21 -2.5 -44l-3 -46t-2.5 -44.5t-1 -38.5q-2 -3 -4.5 -6t-7.5 -3q-22 6 -52 13t-53 8q-9 0 -11.5 13.5t-2 39
t2.5 61.5t2 81q0 10 1.5 50.5t3.5 99.5t3.5 130.5t0.5 144.5q0 63 -2 132.5t-4.5 137.5t-5 131t-5.5 114t-5.5 85.5t-3.5 45.5q-33 -14 -64.5 -32t-66.5 -29q-10 2 -19.5 12.5t-14.5 21.5q-3 18 2.5 39t21.5 34q1 0 24 13.5t53 32t60 37.5t45 29q12 8 21.5 15t18.5 12.5
t20 7.5t26 0z" />
    <glyph glyph-name="two.alt" horiz-adv-x="611" 
d="M256 259q15 3 39 3.5t48.5 0t46 -2.5t30.5 -5q4 -2 4.5 -17.5t-1 -36.5t-4.5 -44t-6 -39q-5 -12 -26 -12q-57 2 -106 9t-104 12q-10 1 -23 1h-25t-21 1t-11 4q-8 8 -7 18.5t3 23.5q4 15 10 43t13 62t15 71t16 71t15 61.5t13 42.5q11 44 26.5 95t31.5 100.5t30 92.5t21 70
q10 43 23.5 89t26 91t23 87.5t14.5 78.5q4 52 5.5 98.5t-6.5 87.5q-2 7 -6 16t-11 15.5t-16.5 9t-22.5 -2.5q-16 -13 -25.5 -36.5t-15 -51.5t-7.5 -57t-3 -53t-1 -39.5t-2 -16.5q-4 -3 -17 -5t-30 -3.5t-34.5 -3t-29.5 -2.5q-7 0 -7 7q-1 52 7 105t19 98q5 28 13 58.5
t19 53.5q3 5 10.5 19t22.5 28.5t38.5 25.5t58.5 11q18 0 36 -4t34 -10t28 -12.5t18 -11.5q9 -6 21 -20.5t23 -34t19.5 -42.5t10.5 -47q3 -41 -2 -79.5t-10 -81.5q-22 -168 -61 -329t-87 -309q-17 -65 -36 -129.5t-39 -127.5q-8 -24 -15 -48t-14 -47z" />
    <glyph glyph-name="three.alt" horiz-adv-x="602" 
d="M428 804q16 -18 29 -42t23.5 -52t18.5 -58t13 -59q7 -38 4.5 -75t-8.5 -68q-5 -25 -13.5 -53t-18 -53.5t-19 -46t-16.5 -29.5q-7 -13 -30.5 -40t-56 -53t-70 -44.5t-73.5 -13.5q-32 2 -54 13t-37.5 26.5t-24.5 32t-15 28.5q-9 24 -14 36t-6 18.5t2 10t10 11.5
q7 9 15.5 20.5t17 22.5t17 20t17.5 12q4 0 11.5 -9t16.5 -21.5t20 -24.5t23 -18q27 -10 49.5 -3t39 21t28 31t17.5 28q14 38 27 79.5t8 91.5q0 27 -7 53t-18 49q-24 43 -55.5 61t-71.5 26q6 29 11.5 62t16.5 60q28 7 47 22t38 32q5 4 14.5 20.5t19 39t17 48.5t8.5 49
q1 8 0.5 34t-2.5 57t-5 61t-7 47q-2 10 -5.5 23.5t-10 25.5t-16.5 20.5t-26 9.5q-26 0 -43 -18t-28 -41t-18 -44t-13 -27q-6 -3 -19 1.5t-27.5 12t-27 15.5t-15.5 11q-4 2 -4.5 8t1.5 14.5t5 17.5t5 16q4 10 17.5 38.5t35.5 59t51.5 56t65.5 30.5q43 4 71.5 -2.5t46.5 -16
t26 -19t10 -11.5q3 -3 10 -12.5t15.5 -23t16 -28.5t11.5 -30q6 -13 11.5 -50.5t8 -82.5t2 -89.5t-5.5 -72.5q-5 -25 -9 -41.5t-8 -29.5t-9 -25.5t-12 -29.5q-5 -12 -15 -30t-20.5 -37t-20.5 -35t-14 -23z" />
    <glyph glyph-name="four.alt" horiz-adv-x="637" 
d="M438 523q6 -3 25.5 -7.5t41.5 -9t41.5 -10t25.5 -9.5q3 -12 3.5 -33t-1 -42t-4.5 -38t-7 -22q-3 -4 -22 -2.5t-41.5 5t-44 7.5t-28.5 5q-5 -22 -10.5 -60.5t-9.5 -77.5t-6.5 -71.5t-2.5 -42.5q0 -8 -16 -13.5t-39.5 -8t-50 -0.5t-47.5 8q-3 1 -3.5 17t1 40t4 52.5t5.5 55
t5.5 47.5t3.5 30q-9 3 -28 6t-42 6.5t-48.5 7t-48 7t-40 5.5t-24.5 4q60 208 120.5 391.5t117 329.5t107 249t91.5 151q15 20 32 22.5t27 -5.5q13 -13 16.5 -60t0 -116.5t-12 -154t-19.5 -172.5t-23 -172t-22.5 -151.5t-18 -112.5t-8.5 -55zM207 522q19 2 36.5 0t35.5 0
q1 14 4.5 50.5t8 84.5t10.5 101t13 101q-3 -8 -11.5 -34t-20.5 -61.5t-25 -75.5t-24 -75t-18.5 -60t-8.5 -31z" />
    <glyph glyph-name="five.alt" horiz-adv-x="721" 
d="M685 1500q1 -17 3.5 -35t2 -34.5t-6 -30t-20.5 -20.5q-26 -8 -60.5 -13.5t-73 -9.5t-76.5 -7.5t-70.5 -7t-55.5 -9t-30 -13.5q-3 -31 -6 -83t-6 -112.5t-5.5 -122.5t-4 -113.5t-1.5 -86t2 -39.5q33 -3 76.5 -8.5t86.5 -22t79.5 -48.5t56.5 -88q10 -37 12 -75t0 -72.5
t-7.5 -63t-9.5 -44.5q-4 -17 -9 -31t-11 -28t-13 -28.5t-14 -31.5q-3 -5 -11.5 -19.5t-24.5 -32.5t-40.5 -36t-59.5 -31t-81 -16.5t-106 7.5q-14 3 -32.5 8.5t-35 13t-29 17.5t-14.5 22q5 24 8.5 51t11.5 52q2 4 22 -5t50.5 -18.5t68 -13.5t75.5 11t73 55.5t59 118.5
q2 13 4 36.5t-3.5 51.5t-23.5 55.5t-57 48.5q-39 13 -80.5 17t-76.5 3t-58.5 -4.5t-25.5 -5.5q-8 -1 -11.5 18t-4.5 49.5t0.5 69t4.5 76.5t6 71.5t6 55.5q5 38 9 86.5t7 99.5t5.5 101.5t5 91.5t5.5 69t7 36q1 5 9.5 9.5t21.5 8.5t28.5 7.5t30.5 6.5q21 5 60.5 12.5t86 14.5
t95 13t88 8t64.5 0t24 -12z" />
    <glyph glyph-name="six.alt" horiz-adv-x="769" 
d="M665 1353q3 -14 -5.5 -41t-21 -54.5t-25 -49t-17.5 -24.5q-13 5 -24.5 23.5t-28.5 36t-43.5 26.5t-69.5 -5q-14 -6 -41.5 -32t-54 -74t-44.5 -120t-13 -170q99 19 174 7t125 -60t76 -134.5t27 -215.5q-1 -14 -5.5 -43t-14 -67.5t-24 -81.5t-35 -85t-47 -79t-60.5 -61.5
t-74.5 -34t-89.5 3.5q-21 8 -38.5 22.5t-31 28.5t-23.5 24.5t-16 10.5q-12 -2 -22 14.5t-18.5 40t-15.5 47t-11 35.5q-18 77 -29 153.5t-13 166.5t7.5 201.5t32.5 258.5q3 13 12 49.5t26.5 84.5t43.5 103t63 106q17 18 34.5 35.5t38 31.5t46 23t58.5 11q49 -3 82 -15
t54 -28.5t34 -35t22 -33.5zM366 131q4 -1 11.5 -2.5t16 -2t17.5 0.5t16 6q40 35 68 79t46.5 92.5t27 98t9.5 95t-5.5 83.5t-17.5 63q-14 26 -27 43.5t-29.5 29t-38.5 18t-53 9.5q-1 -1 -17 -0.5t-36.5 -2.5t-40.5 -10.5t-27 -24.5q-2 -2 -14 -7t-15 -7q-17 -36 -22 -89.5
t-1.5 -113.5t15 -121t29 -111.5t40 -85t48.5 -40.5z" />
    <glyph glyph-name="seven.alt" horiz-adv-x="615" 
d="M499 1529q2 -3 4 -7.5t1 -7.5q0 -14 -6.5 -49.5t-14.5 -85t-15.5 -109t-8.5 -120.5q-1 -128 -3 -250.5t-6 -242t-11 -237.5t-18 -238q-1 -7 -13 -8.5t-29.5 0.5t-36 5.5t-33.5 5.5q-13 2 -15 17q0 18 1 48t3 65t3.5 72.5t3.5 70.5t3.5 58.5t2.5 37.5q4 45 7 97.5t5.5 99
t3.5 81t1 45.5q-2 28 -3 58t-4 60q0 6 3.5 11.5t6.5 7.5q7 3 15 0v28.5t-0.5 61t-1 79.5t-1.5 84.5t-1 76.5v55q-5 3 -9 1.5t-9 -2.5q-48 -8 -98.5 -5t-95.5 0q-17 -1 -34.5 -7t-34.5 -4q-8 0 -14 13.5t-9.5 30t-5.5 31.5t-2 18q0 12 8.5 21.5t16.5 14.5q3 2 19.5 3t38 1
t43 -0.5t34.5 -1.5q32 -4 66.5 -1.5t63.5 3.5q16 3 42.5 8t53.5 8.5t50.5 4t32.5 -6.5z" />
    <glyph glyph-name="eight.alt" horiz-adv-x="773" 
d="M488 922q24 -32 46.5 -63t41.5 -59.5t33.5 -52.5t22.5 -42q18 -39 31.5 -92t21.5 -98q8 -48 8 -107.5t-10 -116.5q-9 -50 -31.5 -91t-53 -73t-65.5 -53.5t-68 -31.5t-71.5 -15t-76 -1t-72 18t-60.5 42t-50.5 65.5t-42 84.5t-26.5 104.5t-3 125.5q3 41 8.5 72t16 63t27 70
t43.5 94q7 17 20.5 35.5t28 33.5t28.5 23.5t24 4.5q3 -1 7.5 -7t9.5 -13t9.5 -13.5t6.5 -8.5q15 22 31.5 43.5t26.5 46.5q-13 12 -24 23.5t-22.5 23.5t-24 25.5t-27.5 30.5q-25 28 -40.5 48.5t-29.5 44.5q-35 64 -46.5 119t-10.5 88q5 69 33.5 116t67.5 79q44 33 94.5 42
t92.5 1q43 -8 75.5 -30t56.5 -47q21 -25 34.5 -53t21 -63.5t9.5 -81t0 -105.5q-7 -62 -30 -114.5t-57 -90.5q-8 -10 -19 -23t-16 -21zM494 1153q6 35 7.5 68t-9.5 75q-8 32 -23.5 59t-30.5 42q-8 10 -24 21t-35 18.5t-38.5 9t-35.5 -8.5q-17 -11 -29 -29t-19 -40.5t-8.5 -47
t1.5 -46.5q8 -49 21.5 -79.5t34.5 -61.5q10 -15 24 -34.5t30 -38.5t32 -36t30 -28q26 30 45 71t27 86zM218 255q12 -20 26 -38.5t32 -33.5t41 -24.5t53 -11.5q40 1 71.5 13t54.5 31t38.5 42.5t24.5 46.5q23 73 18.5 151t-24.5 149q-12 49 -43 110.5t-86 131.5
q-52 -66 -81 -142.5t-37 -174.5q-3 -55 -2 -92t12 -74q0 -5 -5 -7.5t-13.5 -3.5t-19.5 -2t-21 -2q-5 0 -12 -1t-14 -1t-12.5 1.5t-5.5 6.5q-19 176 8 317q-11 -21 -22 -49t-19.5 -60.5t-12.5 -68.5t-1 -72q5 -50 20 -83t32 -59z" />
    <glyph glyph-name="nine.alt" horiz-adv-x="713" 
d="M524 1365q22 -71 33 -123t14 -99.5t-1 -95.5t-11 -111q9 -1 18 1t17.5 3.5t15.5 1t13 -5.5q-3 -29 -5.5 -57t-7.5 -55q-6 -8 -15 -11t-18.5 -4.5t-20 -3t-20.5 -5.5q-5 -52 -13.5 -127t-22 -166t-32 -194t-41.5 -211q-1 -12 -20.5 -25t-43 -21.5t-42.5 -9.5t-19 11
q13 71 31 162t35.5 186.5t33 186t23.5 161.5q-16 -5 -39.5 -6t-38.5 -1q-43 5 -85 18.5t-76 42.5q-29 26 -52 72t-37 109q-5 31 -6 73t0.5 86t5.5 87.5t10 77.5q17 73 46.5 130t79.5 102q23 15 49.5 21t53.5 5t51.5 -10t43.5 -24q29 -28 55 -58.5t44 -68.5q7 -12 5 -24
t-11 -20zM292 1410q-28 -22 -43 -56.5t-26 -74.5q-10 -66 -11 -115.5t3.5 -88t13.5 -69t21 -58.5q14 -35 34 -53.5t44.5 -24.5t52.5 -0.5t60 19.5q13 6 17.5 31t3 62.5t-8 84t-16 95.5t-21 97.5t-22.5 89.5q-5 17 -16 31t-25 22.5t-30 11t-31 -3.5z" />
    <glyph glyph-name="A.alt" horiz-adv-x="838" 
d="M596 411q-14 3 -25.5 3.5t-25.5 -1.5q-64 -6 -123 -15t-121 -13q0 -1 -5.5 -37t-14.5 -90.5t-19.5 -117.5t-20.5 -118.5t-18.5 -94t-13.5 -43.5q-6 -8 -25 -7.5t-39 5t-36.5 11.5t-17.5 13q-2 6 2.5 28t11 53t14 68t12.5 73q6 40 11 70t8.5 57t6 54t4.5 62q-37 12 -53 54
q-8 21 -0.5 37t18.5 24q8 5 22.5 9t27.5 3q14 166 31 307.5t33 249.5t30 179.5t23 98.5t20 56.5t23 56t23 46.5t19 28q29 32 61 34q15 1 25.5 -2.5t16.5 -8.5q20 -15 36 -36t29 -45.5t24 -51.5l22 -54q16 -39 26.5 -86t18.5 -93t13.5 -87.5t11.5 -69.5q11 -57 26 -161
t27 -259q6 -77 9.5 -153t4.5 -139t1.5 -108.5t0.5 -61.5t2.5 -29.5t5.5 -27t5.5 -27.5t2.5 -30q-5 -10 -22 -16.5t-38 -8.5t-41 0t-30 10q-7 7 -6 17q0 48 -2.5 96.5t-5.5 97t-5 96.5t-1 95zM401 1111q-4 -17 -11 -63t-16 -106.5t-18.5 -128t-17.5 -127t-14 -103.5t-8 -57
q3 -1 18.5 1t38.5 5.5t50 8.5t52.5 9t47 7.5t32.5 4.5q-1 7 -2.5 33t-3.5 63.5t-6 82.5t-10 90q-11 77 -24.5 155.5t-26 143.5t-22 109.5t-11.5 52.5q-8 -26 -14.5 -48.5t-12 -43.5t-10.5 -42.5t-11 -46.5z" />
    <glyph glyph-name="B.alt" horiz-adv-x="618" 
d="M233 1540q4 -10 2 -22.5t0 -21.5q88 -40 152 -104.5t87 -158.5q11 -47 18.5 -86t8 -75t-6.5 -71t-25 -72q-14 -30 -41.5 -59t-65.5 -61q15 -16 30 -31t30 -31.5t30 -36t30 -45.5t29 -63t23 -79t12.5 -85t-1.5 -80t-20 -80t-37.5 -84.5t-51 -76.5t-60.5 -57
q-65 -45 -111.5 -68t-65.5 -28q-6 0 -13 5q-5 4 -5.5 17t0.5 30q0 19 -0.5 59t-2 92t-3 112.5t-3.5 122t-3.5 119.5t-2.5 104.5t-1.5 78.5t0.5 40q-5 11 -13 20t-16 17.5t-15 18t-11 21.5q4 7 10.5 11t14.5 7l16 6t14 8q-1 18 -2 62t-2 101t-2.5 121.5t-3 124.5t-3.5 109
t-4 74q-1 16 -2.5 25t-3 13.5t-3.5 7t-3 7.5q-2 18 6.5 25.5t21.5 10.5t27.5 3.5t23.5 3.5q16 3 18 -1zM277 914q38 28 65 68.5t28 102.5q2 63 -17 120t-46 98q-17 19 -27.5 28t-26.5 19q4 -106 11 -217t13 -219zM298 182q13 7 24 14.5t20.5 17.5t19.5 24t22 34t22.5 50.5
t15.5 66t2 74.5t-18 76t-33.5 65t-36 48t-32 32.5t-21.5 19.5q3 -138 4 -265.5t11 -256.5z" />
    <glyph glyph-name="C.alt" horiz-adv-x="673" 
d="M625 267q3 -2 -1.5 -19.5t-14 -41t-22.5 -48.5t-27 -42q-28 -35 -70 -52.5t-110 -13.5q-48 3 -93 46t-81 116t-60.5 170t-30.5 207t-4.5 210t8 185t17 151t23.5 107t30 81t37.5 74t45 60t53.5 40q28 14 58.5 12t59 -13.5t52.5 -30t39 -37.5t30 -50t27 -63.5t19.5 -61.5
t9.5 -42q2 -14 4 -32t3 -36t0 -33.5t-5 -24.5q-6 -7 -22.5 -12.5t-35 -7.5t-34 0.5t-18.5 11.5q-6 38 -14.5 73t-15.5 69q-5 18 -16.5 43.5t-28 45.5t-36.5 28t-40 -10t-36 -45.5t-27.5 -59.5t-20 -65.5t-13.5 -62.5t-8 -78t-3.5 -103.5t0 -107.5t2.5 -91q1 -25 4.5 -59.5
t8 -72t10 -75.5t10.5 -70.5t9.5 -56t7.5 -32.5q9 -29 20.5 -59.5t26.5 -55.5t33.5 -41t42.5 -14t36.5 12t18.5 24.5t8 31.5t7 34q2 8 13.5 8.5t28.5 -3t39 -8.5t46 -9z" />
    <glyph glyph-name="D.alt" horiz-adv-x="795" 
d="M335 100q-5 -15 -9 -29.5t-19 -17.5q-14 1 -29 -1.5t-30 -4.5t-31 -1.5t-31 8.5q-2 6 -5 29.5t-6 57t-6.5 74t-5.5 80t-3 75t0 59.5q0 8 -0.5 44.5t-2.5 94t-4.5 131t-5 155.5t-5 168t-5 168t-4 155t-2.5 129.5t-1 92t2 41.5q2 5 8 5t12 -1q13 -3 42.5 -12.5t66 -24.5
t76 -35t74.5 -45t73.5 -65.5t74.5 -87.5t66 -95.5t49 -89.5t30.5 -83t18.5 -83t9.5 -78.5t2.5 -69.5t-3 -67.5t-8 -70t-11 -65.5t-12 -53q-12 -44 -37 -99t-63 -126q-18 -35 -45.5 -72.5t-62 -72.5t-75 -65.5t-83.5 -51.5zM297 791q5 -99 12.5 -190.5t14 -163t11.5 -116.5
t6 -50q28 28 61.5 71.5t75.5 112.5q21 34 39.5 65.5t33.5 69t25.5 84.5t14.5 113t-10 133t-37.5 127t-52.5 108.5t-55 76.5t-45.5 50t-37 40t-35 33t-37.5 29q-1 -5 -1 -32t0.5 -70t1.5 -99t3 -120t5 -133.5t7 -138.5z" />
    <glyph glyph-name="E.alt" horiz-adv-x="720" 
d="M660 1527q9 -1 12.5 -26t1.5 -55t-9 -54t-17 -23q-6 -1 -30.5 -5.5t-58.5 -12t-72.5 -16t-72 -16.5t-57.5 -14.5t-29 -9.5t-7.5 -15.5t-3.5 -28t-1 -31v-22.5v-48v-58t0.5 -60.5t1.5 -55t2 -41t3 -19.5q4 1 31 8t63 15t75.5 15.5t69.5 9.5q17 1 25 -10q3 -10 6 -28
t4.5 -36.5t1 -33t-4.5 -16.5q-27 -14 -59 -21t-64 -13t-63 -13.5t-57 -22.5q-3 -20 -7 -62.5t-8 -96.5t-7.5 -114.5t-5.5 -116.5t-2.5 -102.5t2.5 -71.5q66 4 120 10t92.5 9.5t60.5 2.5t25 -11q4 -18 5.5 -41t1 -45.5t-3.5 -42.5t-9 -32q-8 -16 -36.5 -20.5t-63.5 -6.5
q-119 -8 -190.5 -12.5t-110.5 -5t-54 2.5t-21 12q-5 6 -7 46.5t-1.5 98.5t2 125.5t3.5 127.5l3.5 105t1.5 57q-2 119 3.5 233.5t1.5 228.5q-1 25 -0.5 62t1 78.5t1.5 84.5t2 79.5t2 64t1 38.5q0 6 6 9.5t15 4.5t19 1h19q23 2 41.5 3.5t36.5 3t37.5 3t43.5 3.5q11 1 31 4
t42 6.5t43 7t35 6.5t31 7t35.5 7.5t37 5.5t34.5 0z" />
    <glyph glyph-name="F.alt" horiz-adv-x="727" 
d="M299 1514q8 -5 7 -21t-2 -30h21t53 0.5t69.5 1.5t70.5 1.5t57.5 1t30.5 0.5q20 0 39.5 0.5t36.5 -5.5q2 -2 1 -5.5t0 -7.5q1 -2 5.5 -1.5t7.5 -1.5q1 -11 -1 -27t-5 -32t-6.5 -29.5t-6.5 -19.5q-7 -12 -13.5 -20t-19.5 -11q-72 -4 -146 -3t-143 -7q-1 -6 -0.5 -42.5
t1.5 -89.5t2 -115.5t1 -122.5q0 -39 -0.5 -74t-1.5 -63t-2.5 -46t-1.5 -22q11 0 33 1t49 2t56.5 1.5t56 0t46.5 -2.5t28 -6q0 -15 -2 -32.5t-4.5 -36t-3.5 -37.5t2 -36q3 -20 -15 -23q-53 -5 -117 -10.5t-120 -10.5q2 -100 7 -203.5t20 -196.5q-2 -4 -6.5 -5t-6.5 -3
q1 -38 2 -77.5t6 -78.5q2 -9 -5 -13.5t-25 -8.5q-14 -3 -61.5 -4.5t-134.5 -4.5q-1 24 -2.5 71t-2.5 104.5t-2.5 119t-3 114.5t-2.5 91.5t-1 49.5q-2 36 -7.5 73.5t-6.5 75.5q0 11 3 29.5t5 29.5q4 25 4 44t2 45q1 17 0.5 67.5t-2 118t-3 143.5t-2.5 143.5t-1 118t2 67.5
q30 9 61.5 11.5t65.5 6.5q0 17 -0.5 27t3.5 20q4 5 13 7t18 -1zM300 1300q-1 -29 -1.5 -78.5t-1 -108.5t-0.5 -121.5t-0.5 -117t-1 -96.5t-2.5 -60q4 -1 10 0t11 1q4 83 7 157.5t3.5 145t-0.5 139t-5 139.5q-4 1 -9 0t-10 0zM328 14q0 -8 -1 -17.5t7 -12.5q6 -1 8 1.5t3 7
t0.5 9t-0.5 8.5q0 32 -1.5 60t-2.5 54q-3 102 -6.5 203.5t-11.5 205.5q-4 -133 0.5 -260.5t4.5 -258.5z" />
    <glyph glyph-name="G.alt" horiz-adv-x="740" 
d="M216 659q0 -62 3.5 -112t9.5 -92.5t13.5 -79.5t16.5 -72q8 -44 30 -78t51.5 -52t65 -17t70.5 28q37 35 52.5 91t18 120.5t-3 131.5t-8.5 124q-8 2 -30.5 1t-46.5 -1t-44 2.5t-22 11.5q-2 10 -3.5 27t-1.5 35t1.5 34.5t5.5 26.5q3 3 6.5 5.5t11.5 2.5q24 -3 56.5 -1.5
t63.5 4.5t54 5.5t26 2.5q6 -1 14 -3t13 -8q6 -10 12 -36.5t10 -65t6.5 -86t1.5 -99.5t-5 -105.5t-12 -103.5q-6 -50 -21 -88.5t-34.5 -68t-42.5 -52t-45 -38.5q-12 -6 -19.5 -10.5t-18 -8t-27 -6.5t-46.5 -4q-60 -3 -108 21t-78 60q-48 55 -73 125t-35 159q-4 45 -7.5 95.5
t-6.5 103t-5.5 105.5t-3.5 104q-2 51 5 128.5t24 166.5t47 182.5t75 177.5q28 43 79.5 75.5t117.5 43.5q33 5 63.5 -7.5t56 -34.5t44.5 -49t27 -51q9 -23 19 -58t16 -68.5t4.5 -59.5t-15.5 -32t-31 -11.5t-32.5 -9t-28.5 -3t-17 6.5q-9 26 -17.5 62t-17.5 66q-13 42 -33 63
t-58 16q-19 -3 -36 -18t-31 -34.5t-24.5 -39.5t-16.5 -31t-16.5 -45.5t-22 -80t-21 -94.5t-12.5 -88t-3.5 -82t0.5 -81.5t2.5 -68.5t2.5 -44q7 -11 4.5 -23.5t-19.5 -11.5z" />
    <glyph glyph-name="H.alt" horiz-adv-x="874" 
d="M328 1744q2 -5 2 -37.5t-1.5 -82t-4 -112t-5 -127.5t-5 -128.5t-4.5 -116t-3 -88.5t0 -47q70 8 139 15.5t136 19.5q1 13 3 49.5t4.5 87.5t6.5 112t8.5 122.5t10.5 120t13 104.5t16 75t20 33q29 5 52 8t47 -4q1 -64 -2.5 -123.5t-10.5 -119.5q0 -12 1 -36.5t2.5 -57.5
t2 -73.5t-0.5 -84.5q-5 -134 -12 -240t-15 -196q-2 -22 -6 -64.5t-9.5 -97.5t-11.5 -117.5t-12.5 -125t-13 -121t-11.5 -105t-8 -76.5t-4 -35q-21 -13 -45 -22.5t-44.5 -14t-35 -2.5t-15.5 13q0 12 3 51.5t7.5 96.5t10 127t11.5 143t12 144.5t11 132t8 104.5t3 63
q-8 -3 -31 -7t-53 -8t-62.5 -8t-60 -6.5t-45.5 -4.5t-19 -1q-1 -18 -3 -59.5t-5 -98.5t-6.5 -125t-7 -138t-7 -137.5t-6.5 -124t-4.5 -97t-2.5 -56.5q-4 -6 -22.5 -8.5t-40.5 -1.5t-41 4t-24 8q-1 32 -1.5 55t-0.5 46t0.5 52.5t1.5 74.5q0 30 1 80t1.5 108t1.5 119t1.5 113
t1 89t0.5 49q-10 11 -7 29.5t1 35.5q-3 17 -10.5 33.5t-6.5 34.5q5 7 12.5 9t18.5 4q0 14 2 52t5 89t7 108.5t7.5 110.5t6.5 96t5 65q2 33 4 73t4.5 76.5t6 64t8.5 35.5q12 5 28 7t32.5 1.5t32 -3t27.5 -5.5z" />
    <glyph glyph-name="I.alt" horiz-adv-x="527" 
d="M419 1495q4 -1 10.5 -4t7.5 -11q-2 -17 -3.5 -42.5t-3.5 -48.5q-1 -11 -6 -15.5t-13.5 -6t-20.5 -1.5h-27q-2 -17 -6.5 -76.5t-10.5 -145t-13 -190t-14.5 -212.5t-14 -212t-11 -188t-7.5 -141t-2 -71q15 3 31 0t26 -14q2 -2 2 -15.5t-1 -30t-3 -33.5t-5 -26q-2 -7 -5 -10
t-11 -4h-21.5t-42 0.5t-52.5 1.5t-51.5 3t-39 5t-16.5 8q-2 14 -4 32t0 34.5t9.5 29t23.5 16.5q4 0 13.5 1t17.5 1q0 1 2 35t5.5 91t8 132.5t9.5 161t10.5 176.5t10.5 178.5t10 167t8.5 141.5t6 103t2.5 51q-9 2 -20 2.5t-19.5 3.5t-14 9.5t-3.5 20.5q5 20 5.5 40t8.5 37
q11 9 29 11q3 0 18.5 0.5t37 1t46 1.5t46.5 1.5t37.5 0.5h19.5z" />
    <glyph glyph-name="J.alt" horiz-adv-x="635" 
d="M518 1533q4 -3 5.5 -13t-7.5 -12q-69 -16 -142.5 -26t-140.5 -27q77 2 148 15t143 24q11 2 17 9t20 7q4 0 7 -3q4 -9 5.5 -21t1.5 -24t-0.5 -24t0.5 -22q0 -5 -1 -12t-3 -12t-5 -7.5t-11 -4.5q-44 -8 -87.5 -19.5t-81.5 -22.5q0 -13 4.5 -57t11.5 -107t16.5 -139.5
t19 -155t18.5 -153t16 -133.5t12 -97t5 -42q6 -68 5 -113.5t-9 -78t-23.5 -55.5t-38.5 -47q2 -2 3.5 -7t2.5 -7q-30 -46 -70.5 -67.5t-94.5 -22.5t-96.5 33.5t-66.5 84.5q-12 25 -18.5 42.5t-9.5 32t-5 28.5t-6 33q-2 4 -2 8v9q2 8 6 9q-1 5 -3 12t-2.5 14t0.5 12t7 7
q23 9 48 11.5t39 -10.5q2 -29 9 -58t17.5 -54t25 -41.5t32.5 -19.5q36 -5 58 9.5t34 31.5q23 32 28 73.5t1.5 86.5t-11.5 91t-11 87q-10 66 -20.5 154t-21 185.5t-21 197t-19.5 186.5q-67 -3 -111 -5.5t-71 -2.5t-40.5 2.5t-18.5 10.5q-11 20 -12 42t-3 48q0 15 9 27t20 16
q43 9 161.5 33.5t305.5 51.5q8 4 13.5 2.5t8.5 -3.5z" />
    <glyph glyph-name="K.alt" horiz-adv-x="746" 
d="M292 736q11 31 22 64t24 59q1 6 -0.5 10t-4 8t-4.5 8.5t-2 10.5q2 13 8.5 20t16.5 11q13 22 28 56t30 73t29.5 79t25.5 74t17.5 58t6.5 31q7 5 17 4t15 -7q-10 -48 -25 -91t-32 -84.5t-33.5 -83.5t-29.5 -87q5 1 8.5 1.5t8.5 1.5q47 97 81 206.5t60 219.5q8 34 11 51.5
t7 25.5q2 2 4 3.5t5 2.5q-1 5 2 12q4 8 10 6q28 -8 53.5 -19t56.5 -14q4 0 7 -6t-2 -24q-3 -14 -17 -51.5t-34.5 -90t-45 -114t-50 -122.5t-49 -116t-41.5 -95q15 -41 34 -92.5t40.5 -109t43.5 -117.5t43 -118t40 -111t33 -96q-2 -8 -5.5 -12t-11.5 -9q-23 -11 -50 -20
t-53 2q-3 6 -14 40t-28 83t-37 107t-40 113.5t-37.5 103t-29.5 74.5q-26 -57 -51.5 -114.5t-51.5 -115.5q-1 -2 -8 -2q-2 -75 -3 -149.5t7 -148.5q1 -5 -6 -10.5t-17.5 -10.5t-24 -9.5t-25.5 -5.5q-6 0 -14 -0.5t-15.5 0.5t-13.5 3.5t-8 10.5q-1 7 -1.5 11t-0.5 12v49
t-1 105.5t-2.5 148.5t-3 177.5t-4 193t-5.5 195.5q-3 93 -6.5 180t-7 155.5t-6.5 113t-5 51.5q1 6 2.5 10.5t6.5 5.5q15 1 32 2.5t31.5 2.5t25.5 1.5t14 0.5q21 0 29.5 -17.5t11.5 -39.5q-1 -7 -0.5 -42t1.5 -84.5t2 -108t2.5 -113t2 -98.5t0.5 -65q0 -27 -1 -56.5t-1 -59.5
t0.5 -58t2.5 -50z" />
    <glyph glyph-name="L.alt" horiz-adv-x="576" 
d="M269 1673q-1 -53 3 -97.5t3 -95.5q2 -5 5 -5t3 -8q0 -32 0.5 -97.5t1.5 -152t2 -187t2.5 -201t3 -194.5t3 -168t2.5 -121t1 -54q82 5 137.5 2.5t74.5 -12.5q5 -5 4.5 -25t-5 -44t-13 -46t-20.5 -30q-23 -2 -53 1.5t-78 2.5q-45 -1 -92.5 -4.5t-88.5 -1.5q-5 0 -7 23
t-1.5 54t2.5 63.5t4 52.5q0 8 -1 47t-2.5 99.5t-3.5 139t-4 165t-5 178t-5 178t-4 165t-3.5 139.5t-2.5 100t-1 48q0 3 -0.5 12.5t0 20.5t3 20t8.5 10q2 4 1.5 8t1.5 7q32 5 62 9t62 -1z" />
    <glyph glyph-name="M.alt" horiz-adv-x="1364" 
d="M462 1412q37 -39 71.5 -78t63.5 -74.5t52 -64t37 -44.5q9 7 35 33.5t63.5 65t82.5 84t91 91.5q31 31 63.5 62t59.5 55.5t45.5 41t22.5 19.5q4 4 7 9t10 8t14 2t10 -4q7 -8 5 -16q1 -21 6 -73.5t10.5 -125t11 -161.5t8.5 -183q3 -99 3 -198.5t-1 -187.5t-2.5 -158.5
t-2.5 -111.5q-1 -71 -3 -133t-5 -109t-6 -76t-5 -35q-12 -4 -22.5 -6.5t-22.5 -3t-27.5 1t-37.5 4.5q-22 5 -27 13t-5 26q0 8 1.5 45t3 92.5t4 123.5t4.5 138t3.5 136t2.5 117q0 95 -1.5 190t-4.5 174t-6 134.5t-5 70.5q-7 -5 -35.5 -29t-67 -57.5t-82.5 -71.5t-81.5 -71
t-64 -56.5t-29.5 -26.5q-11 -11 -20.5 -16t-20.5 6q-6 7 -31 35.5t-60 67.5t-75.5 83t-77 84t-65.5 70t-41 41q-2 -14 -3.5 -63.5t-3.5 -123.5t-4 -167t-4.5 -194.5t-4.5 -205.5t-4.5 -200t-4.5 -178.5t-4 -140.5q-2 -4 -6.5 -5t-6.5 -4q-17 -2 -31 -5.5t-26.5 -7t-26 -7
t-29.5 -6.5q-5 2 -8 4l-6 4q-1 6 -4 33t-5.5 71t-4 103t0.5 129q3 106 7.5 230t10.5 248.5t11.5 241t10 209.5t7 153.5t2.5 72.5q1 15 1 31t1 29.5t3 23t7 12.5q9 6 15 4.5t12 -6.5q20 -16 46.5 -40.5t58 -55.5t66.5 -67t71 -75z" />
    <glyph glyph-name="N.alt" horiz-adv-x="948" 
d="M838 1562q0 -10 -0.5 -43.5t-1.5 -73.5t-2.5 -79t-3.5 -60q-16 -219 -32.5 -411.5t-31 -343.5t-25.5 -253t-16 -140q-10 -77 -19.5 -115t-29.5 -49q-14 -5 -26.5 -3.5t-20.5 12.5q-11 18 -18.5 38t-13.5 41.5t-12.5 46t-16.5 52.5q-10 29 -26 74.5t-36 100.5t-42 116.5
t-44.5 122t-43 118t-38 104t-29.5 80t-17 46.5q0 -22 -1 -71t-3 -113.5t-4.5 -140t-5.5 -151.5t-5.5 -147t-5 -127t-4 -92t-1.5 -41q0 -13 -11 -19.5t-26 -9.5t-31.5 -3.5t-27.5 -0.5q-11 -5 -21 -1.5t-14 13.5q0 11 1 67.5t2.5 143t4 194.5t5 221t4.5 223t3.5 201.5
t1.5 155t-1 83.5q-2 73 -1 126t6 79q2 9 6.5 17t11.5 11t16 -1.5t21 -20.5q5 -9 30 -51t60 -125q6 -16 21.5 -60t36.5 -106t46.5 -136.5t51 -151.5t49.5 -151t44 -134.5t33 -102.5t17 -55q12 37 21.5 79t17 95.5t14.5 120t15 151.5q6 71 10.5 144.5t8 143t6 132t4.5 112
t4 83.5t4 45q10 4 25 4t32 -2t36.5 -5.5t38.5 -6.5z" />
    <glyph glyph-name="O.alt" horiz-adv-x="973" 
d="M830 1319q17 -70 23.5 -146t8.5 -161q1 -42 0 -86t-2.5 -86t-3.5 -81t-3 -71q-7 -70 -13.5 -120.5t-15.5 -91t-20.5 -76.5t-27.5 -76q-16 -41 -39 -81t-50 -73t-56.5 -56t-58.5 -28q-29 -6 -52.5 -7.5t-45.5 1t-43 9t-44 17.5q-24 11 -53.5 35t-58.5 61.5t-54.5 89.5
t-40.5 119q-19 81 -32.5 154t-16.5 142q-1 33 -3 58t-4 50.5t-3 57t0 77.5t7 105.5t14.5 117.5t18.5 108t19 77q18 54 47 103t59 80q15 15 38 34.5t52 36t64.5 27t76.5 7.5q81 -5 135 -35.5t89.5 -76.5t55.5 -102.5t33 -112.5zM662 1208q-13 47 -34.5 90t-47 77t-52 55.5
t-48.5 24.5q-23 3 -39 1.5t-30 -9t-27 -22.5t-29 -37q-15 -23 -25.5 -64.5t-17.5 -90.5t-11.5 -100t-7.5 -92t0 -102t10 -128t17 -132t22 -114t26 -99.5t32.5 -94t42 -76.5t53.5 -47q15 3 26 8t20 12.5t17.5 19t18.5 28.5q20 34 37.5 88.5t29.5 119.5q6 32 9 57t4.5 49
t2 50.5t1.5 61.5q0 -11 1 9t-0.5 58t-6 88t-13.5 98q-11 50 -24 100.5t-32 97.5q-14 26 -25.5 54t-25.5 54q-23 42 -44.5 56t-41.5 13q-10 0 -17 -5t-11.5 -11.5t-7.5 -13.5t-5 -11q-3 -5 -5 -11t-5 -10.5t-6.5 -5.5t-9.5 5q-3 8 -1 22.5t8 29t15.5 26.5t21.5 17q16 4 31 5
t30.5 -5.5t31.5 -21.5t36 -41q48 -81 80.5 -176.5t49.5 -206.5q1 -17 3 -31t5 -31q2 45 2.5 82t-3 73t-11 74t-20.5 85z" />
    <glyph glyph-name="P.alt" horiz-adv-x="905" 
d="M277 1578q16 0 26 0.5t17 -2.5q7 -5 4.5 -14t1.5 -17q15 3 37 2t48.5 -4t56 -8t58.5 -11q31 -7 55.5 -17t46.5 -23.5t43 -32t44 -43.5q56 -73 84.5 -129.5t35.5 -88.5q3 -16 6.5 -46t3 -71t-7.5 -91t-24 -106q-20 -54 -37.5 -92.5t-38 -68.5t-46.5 -54.5t-63 -48.5
q-37 -25 -74.5 -38.5t-77.5 -19.5t-81.5 -7.5t-85.5 -2.5q-1 -30 -3 -74t-4 -93.5t-5 -100.5t-6.5 -94t-7 -74.5t-7.5 -41.5q-4 -8 -21.5 -13t-37 -6t-35.5 2t-17 12q-1 12 -1.5 45.5t-0.5 78.5t0.5 96.5t1.5 100.5t1.5 91t1.5 67q-16 -1 -30 6.5t-12 30.5q12 17 10.5 40
t0.5 46q3 12 16.5 16t24.5 7q1 11 2 48.5t2.5 92.5t3.5 122t4 137t3 138t2 124t1 95.5t-1 52.5q-1 10 -6 23.5t-9.5 27t-6 25t5.5 17.5q8 4 21.5 3t27.5 -4t27.5 -6.5t21.5 -3.5zM334 1394q-1 -11 -2 -46.5t-2.5 -86t-3 -111t-3 -122.5t-3 -120t-3 -103.5t-2.5 -74t-2 -29.5
q31 -1 78 1t101 16q27 7 52.5 20.5t48 31.5t40 38t28.5 40q22 38 36 86.5t16 117.5q1 34 -2.5 62t-10 52t-15.5 45t-19 43q-20 45 -71.5 83t-116.5 55q-19 2 -35 4.5t-32.5 3.5t-34.5 0.5t-42 -3.5v-3z" />
    <glyph glyph-name="Q.alt" horiz-adv-x="805" 
d="M519 116q-18 -29 -29 -42t-23 -26q-10 -9 -26.5 -22t-38.5 -22.5t-49.5 -12t-60.5 8.5t-59.5 47t-46.5 85t-34 106.5t-23 112.5t-14 126t-4 155t8.5 179t24.5 196q15 87 39 164.5t50 138t51 100t42 50.5q33 21 70.5 33.5t75.5 6.5q88 -27 135 -97q8 -12 17.5 -38.5
t19 -63t18 -79.5t15 -87t9.5 -86.5t2 -77.5q-3 -53 -4.5 -94.5t-3 -79t-4 -75t-6.5 -82.5t-10 -96t-14.5 -100.5t-20.5 -94.5t-27 -78q3 -8 17.5 -33.5t34 -61t39.5 -75t34.5 -75t19.5 -62.5t-7 -37q-12 -9 -31.5 -10.5t-39.5 1t-36 6.5t-20 7q-14 11 -27 31.5t-24 45.5
t-21 53t-18 55zM539 843q3 89 0.5 176.5t-10.5 150.5q-5 45 -16.5 84t-32.5 64q-11 12 -23.5 14.5t-25.5 -3t-26 -16t-24 -23.5q-29 -35 -45.5 -84.5t-25 -107.5t-10 -120.5t0.5 -122.5q6 -166 19.5 -282t24.5 -173t28.5 -105.5t47.5 -83.5q13 20 23.5 43t19.5 48l-19 57
t-21 58q-5 11 -10 23.5t-8 25t-2.5 25.5t7.5 25q22 8 48.5 7t45.5 0q1 6 6 40t10.5 81.5t10.5 101t7 97.5zM288 340q6 -32 11.5 -60t14 -52.5t20.5 -46t31 -40.5l12.5 7.5t14 10.5t9 11.5t-2.5 9.5q-6 4 -11.5 9t-11 12.5t-12 19.5t-15.5 30t-21 60t-24 110.5t-21.5 164
t-12.5 220.5q-5 -89 -4.5 -161t3.5 -129t8.5 -100.5t11.5 -75.5z" />
    <glyph glyph-name="R.alt" horiz-adv-x="859" 
d="M599 798q2 -10 16 -52t33.5 -104t42.5 -137.5t44 -151.5q19 -68 34 -132t26.5 -117.5t19.5 -92.5t12 -56q-19 -23 -46 -36.5t-56 -26.5q-12 -4 -19.5 3.5t-11.5 22.5q-8 32 -25 95t-40.5 145t-52.5 175.5t-62 186.5q-26 75 -53 142t-49 119t-36.5 84.5t-15.5 37.5
q-1 7 5 7q23 5 40.5 10.5t35.5 14.5q45 23 76.5 45.5t52.5 43.5t34 40.5t23 36.5q12 27 19.5 56t7.5 56t-9 50t-30 37l-17.5 10.5t-15.5 6.5t-17.5 3t-21.5 1q-13 0 -28.5 -2t-30 -5.5t-26 -7t-16.5 -5.5q-42 -17 -76 -32.5t-53 -26.5q0 -7 -1.5 -54.5t-6 -122.5
t-11.5 -171.5t-16 -199.5q-11 -120 -21.5 -236t-20.5 -214t-18.5 -170.5t-14.5 -105.5q-2 -18 -5.5 -28t-11.5 -18q-4 -4 -13.5 -5.5t-21.5 -2t-25.5 0t-23.5 1.5q-9 1 -11 19t2 37q0 7 2.5 42t6.5 92.5t8.5 133t9.5 162.5t9.5 183t8.5 193q4 117 6 227t2 197.5t-1.5 143.5
t-2.5 65q2 2 4 3t3 3q-7 14 1.5 21.5t22.5 7.5q24 1 40 0.5t28 -1t23.5 -1t26.5 -0.5h22.5t16.5 -11q19 11 33.5 19t28 14t26.5 10.5t30 9.5q33 10 80.5 13t117.5 -15q34 -9 63 -27t51 -41t36.5 -50.5t19.5 -56.5q11 -57 12.5 -98t-9.5 -83q-5 -21 -15 -51.5t-22.5 -63.5
t-28 -63t-32.5 -49q-35 -38 -67 -63.5t-55 -39.5z" />
    <glyph glyph-name="S.alt" horiz-adv-x="804" 
d="M686 561q6 -36 11 -65t6.5 -58t-0.5 -61.5t-10 -74.5t-24 -81t-34.5 -71t-38 -55.5t-32.5 -34.5q-14 -11 -37.5 -23t-54.5 -21.5t-69 -14.5t-80 -2t-85 26t-79.5 59t-62 81.5t-31.5 92.5q-8 57 -3.5 98t18.5 76q32 8 69 5t76 -5q3 -1 5.5 -15t5 -35.5t6 -48.5t10 -53
t16.5 -49t25 -37q22 -21 54.5 -28t66 1t65 32t51.5 66q9 18 14.5 34.5t8.5 35t3 42t-1 55.5q-2 64 -21.5 115t-38.5 100q-18 45 -56 96t-82 102t-89 98.5t-76 84.5q-11 9 -31 34t-40 57.5t-36 69t-20 68.5q-9 70 -1.5 124.5t24.5 96.5t41 73t50 52.5t51 35t43 21.5
q27 12 64.5 20t78.5 9.5t84 -5t82 -24.5t65 -42.5t42.5 -53.5t25.5 -60.5t14 -63.5q6 -32 4 -68t-7 -69t-12.5 -59.5t-13.5 -40.5q-8 -11 -18.5 -14t-24.5 -3.5t-31 -1t-36 -6.5q-14 -4 -23 7t-7 21q5 12 10.5 35.5t9 52t3 59.5t-7.5 58q-7 28 -22 53.5t-36 44.5t-48.5 30.5
t-58.5 10.5q-32 0 -57 -10t-45 -25t-34 -32.5t-23 -33.5q-13 -32 -18 -68t-2 -72t13 -70.5t28 -63.5q13 -25 26 -43.5t29 -37t36 -40t49 -51.5q75 -81 125 -147t81 -119.5t46.5 -96.5t21.5 -79z" />
    <glyph glyph-name="T.alt" horiz-adv-x="724" 
d="M85 1571q6 3 24.5 -0.5t42.5 -6.5q8 -1 43.5 -4t84.5 -7.5t105.5 -9t107 -8.5t88.5 -7t50 -3q14 0 22 -2t17 -5q8 -11 8.5 -25.5t-1.5 -30t-5.5 -31.5t-3.5 -30q-5 -11 -16 -11.5t-31 -0.5q-53 5 -98.5 12t-87.5 12q0 -3 -3.5 -36t-8 -89t-10.5 -129.5t-11.5 -157
t-10 -173t-7.5 -175.5q-3 -99 -2.5 -175.5t3 -136t5.5 -104t5 -77.5q1 -23 -14.5 -33t-40.5 -9q-23 1 -44 1.5t-35 9.5q-3 36 -6 95t-5.5 133.5t-3 161t1.5 178.5q2 108 6.5 216.5t10.5 205.5t11.5 176t10.5 128q-49 13 -101.5 12.5t-103.5 -5.5q-5 1 -8.5 4t-7.5 7
q-2 14 -4 33.5t-1.5 39t6 35.5t18.5 22z" />
    <glyph glyph-name="U.alt" horiz-adv-x="760" 
d="M269 1494q-2 -26 -3 -50t-1.5 -49.5t-1.5 -53t-1 -60.5q1 -23 2.5 -73t3 -117t3.5 -146t4 -159.5t4.5 -157t5 -139.5t5 -107t4.5 -59q2 -20 4 -47.5t7.5 -52t15.5 -41.5t29 -16q46 2 71 26t37.5 67.5t16.5 105t7 139.5q1 21 1.5 64.5t0 100.5t-1 123.5t-1 135t-1.5 134.5
t-1.5 121.5t-1 96.5t-0.5 60q-3 32 -4.5 64t1.5 68q3 2 22 5.5t42 6t46 4t34 -0.5q2 0 2 -2.5t-1 -6.5t-1.5 -8t-0.5 -5q1 -11 3.5 -68t4.5 -145t3 -197.5t0.5 -224t-3.5 -226t-9 -202.5q-6 -68 -21 -127.5t-36.5 -107.5t-49 -81.5t-57.5 -48.5q-30 -14 -61.5 -17.5t-60 0.5
t-52 14t-38.5 22q-30 24 -49.5 73.5t-32.5 121.5t-18.5 151.5t-8.5 173.5q-1 31 -0.5 103.5t1.5 165.5t3 196t5 195.5t7 163.5t9 100q25 2 54.5 0.5t58.5 -6.5z" />
    <glyph glyph-name="V.alt" horiz-adv-x="637" 
d="M290 607q18 100 39.5 197.5t43 194.5t42.5 195.5t39 199.5q8 5 16.5 3t16.5 0q0 -6 -6.5 -36.5t-16.5 -77t-22.5 -105t-26 -119.5t-26.5 -120t-23.5 -107.5t-18 -82t-9.5 -43.5q1 2 5 11t9 22.5t11 30t10 31.5q10 37 22.5 87t25.5 105.5t26 113.5t24.5 112t21.5 101
t16 81q7 3 19 6.5l24 7t21 6.5t11 4q21 4 32.5 -4t20.5 -18q-3 -14 -16.5 -68.5t-34 -135t-46 -179t-52 -200.5t-52.5 -199.5t-47 -176.5t-35.5 -131.5t-18.5 -63.5q-8 -22 -18 -55t-21 -67.5t-22.5 -65.5t-22.5 -50q-9 -14 -21 -21t-22 -7q-9 0 -13.5 4.5t-5.5 10.5
q-9 54 -13 111.5t-9 115.5q0 24 -1 70.5t-3 102.5t-3.5 114.5t-3.5 107t-3 79.5t-1 32q-5 130 -13.5 255t-18.5 260q-5 63 -7.5 106.5t-2.5 72.5q0 8 9 14.5t23 11.5q13 5 31.5 8t25.5 4q6 1 19 1.5t21 -3.5q3 -2 6.5 -38t7.5 -94t8 -132t8 -152t7.5 -153t6 -136t4.5 -101.5
t3 -47.5z" />
    <glyph glyph-name="W.alt" horiz-adv-x="1165" 
d="M1050 1483q13 -2 28.5 -2t28.5 -0.5t22.5 -2.5t11.5 -7q2 -3 1.5 -4t-0.5 -3q7 -4 9 -8q3 -3 3.5 -14t-1 -26.5t-4 -35t-5.5 -38.5q0 -2 -5.5 -27.5t-15.5 -70.5t-23.5 -105.5t-30 -131.5t-35 -150t-38.5 -160q-23 -95 -46.5 -189t-46 -180t-42 -161t-34.5 -131.5
t-24.5 -90.5t-11.5 -38q-7 -13 -27 -9q-8 1 -16 17t-16 40t-15.5 52t-13.5 54q-4 17 -13 57t-20.5 96t-25.5 126t-27.5 148t-26 161t-21.5 165q-38 -180 -67 -318t-52 -243t-42 -183.5t-38 -140.5q-2 -4 -5.5 -7.5t-12.5 -7.5q-10 -2 -26 -5.5t-23 -4.5q-13 -2 -24 10t-8 29
q-2 13 -8 59.5t-14.5 117t-19.5 160t-23 188t-24.5 201.5t-24.5 200.5t-23 184.5t-19.5 153.5t-14 108t-7.5 48.5q-2 8 -2.5 14.5t6.5 10.5q27 11 55 18t61 1q5 -2 8 -4.5t5 -10.5q2 -10 8 -54t14.5 -109.5t18.5 -147t21 -166.5t21 -168t19 -151t15 -116t8 -63q1 1 8.5 36.5
t19 93t26 130.5t29 149.5t29 151t25.5 134t18.5 98t8.5 43.5t5 9.5t13 2.5q2 5 4.5 9t7.5 5q10 1 24 -4q7 -2 11.5 -6.5t6.5 -18.5q13 -43 34 -119.5t47.5 -178t57.5 -223t63 -254.5q5 18 16.5 67.5t28 118.5t35.5 152.5t38.5 169.5t38 168.5t33.5 150t25 114.5t13 62
q2 8 12 7t21 -3z" />
    <glyph glyph-name="X.alt" horiz-adv-x="869" 
d="M776 1497q4 -7 -4 -45.5t-23.5 -98.5t-37.5 -135.5t-47.5 -154.5t-52 -156t-50.5 -141q0 -9 12 -42t32.5 -80.5t47 -105.5t54.5 -118.5t55.5 -118.5t50 -105.5t37.5 -80.5t19 -42l-9.5 -9.5t-12.5 -5.5q-1 0 -14.5 -3t-33.5 -7.5t-43 -9.5t-44 -9.5t-37 -7t-21 -1.5
t-17 18.5t-28 47t-36 69t-41 83.5t-42.5 90.5t-40.5 91.5q-9 -22 -21.5 -52t-27 -63.5t-29 -68t-27.5 -66t-22.5 -56.5t-13.5 -39t-7 -26.5t-8.5 -21.5t-13.5 -12t-21 2q-37 15 -70 16.5t-71 5.5q-7 1 -9 5.5t-2 9.5q8 54 24.5 97.5t33.5 91.5q2 8 11.5 35.5t23.5 64.5
t30 79.5t31 81t27.5 68.5t17.5 43q-3 9 -14 36.5l-27 67.5t-36 88t-40.5 98t-40 98t-36 87l-27.5 65t-14 33q-2 5 -6.5 11t-8.5 12t-6.5 11.5t-2.5 10.5q1 11 16 12.5t22 -5.5q4 -3 12 -21t20 -47t27.5 -67t33.5 -82q24 -58 48.5 -119t45.5 -113t35.5 -87.5t17.5 -42.5
q2 8 6 16t7 16q-12 30 -19 47t-13 31.5t-13 31t-19 46.5t-32 77.5t-51 123.5q-47 113 -78 188.5t-47 121t-18.5 65.5t7.5 23q15 3 33 9t36.5 10.5t37 6.5t33.5 -2q7 -2 21.5 -23t33 -54t40 -74.5t42.5 -84.5t40.5 -84t34.5 -73.5t23.5 -52t8.5 -20.5q2 9 10 37.5t19 67
t24.5 83.5t26.5 88.5t25.5 82t21.5 63.5q13 28 40.5 41.5t67.5 15.5q20 1 36.5 7t29.5 10.5t22 4.5t15 -10z" />
    <glyph glyph-name="Y.alt" horiz-adv-x="861" 
d="M449 1029q6 24 20.5 72.5t33 108t38.5 124t38 120t32 96t19 53.5q2 5 3.5 5h7.5q17 0 34.5 -2.5t32.5 -4.5t25.5 -3.5t13.5 -1.5q6 2 15 -1.5t8 -10.5q1 -7 -8.5 -39.5t-26 -82.5t-38 -112.5t-45 -128t-46.5 -130t-42.5 -118.5t-33.5 -93t-19 -54q1 -40 2.5 -99t3.5 -127
t4 -139.5t3.5 -136.5t2 -117t-0.5 -81q0 -22 4.5 -47t1.5 -68q-2 -16 -22 -15q-6 0 -28 -1t-46 -1t-44 2t-21 9q-2 5 -4 47t-4 107t-4.5 146.5t-4.5 167t-4 167.5t-3.5 147.5t-2.5 108t-1 48.5q-4 12 -16 44.5t-28.5 78t-36.5 100t-41 110t-40 108t-34.5 94t-25 68.5
t-10.5 31q-2 13 10 19.5t22 11.5q5 3 19.5 9.5t31 11.5t32 5t22.5 -10q6 -14 17.5 -46.5t26.5 -76t32 -94.5t34.5 -102.5t33.5 -100t28.5 -86.5t20 -62.5t8.5 -27.5z" />
    <glyph glyph-name="Z.alt" horiz-adv-x="583" 
d="M538 1532q-4 -33 -12 -94.5t-21.5 -142t-32.5 -174t-43 -190.5q-21 -84 -44.5 -167t-46.5 -160t-44.5 -146.5t-38.5 -125.5t-28.5 -96t-14.5 -59q23 -8 63.5 -8t82 1t75.5 1t45 -6t14 -18.5t2.5 -27t-2.5 -29.5t-1 -25q1 -6 1.5 -12t-7.5 -8q-53 -6 -108.5 -12.5
t-111 -10.5t-109.5 -4t-103 8q-7 1 -7 10.5t3 22.5t9 28t11 29q4 12 15.5 54t28.5 105.5t38 143.5t43.5 168.5t46 180.5t45.5 179t42 165t34.5 138t24 97.5t10.5 43.5q-28 4 -57.5 3.5t-59.5 -3t-60.5 -5.5t-58.5 -3q-8 0 -12 11t-5.5 27t-0.5 34.5t5 34t10.5 25t15.5 7.5
q38 -6 74.5 -5t72 5.5t70 9t69.5 5.5h39t39 -5z" />
    <glyph glyph-name="a.alt" horiz-adv-x="847" 
d="M516 848q32 11 73.5 17.5t83.5 7.5q3 -5 7 -7.5t8 -7.5q-1 -3 0.5 -36.5t3.5 -84.5t5.5 -113t7 -121.5l6.5 -110.5t6 -80q-3 -25 -3 -49t-1 -47t-3.5 -45t-10.5 -41q-5 -2 -9 -5t-9 -1q-7 -8 -17 -11.5t-21.5 -5t-22.5 -2.5t-20 -5q-3 3 -6 5.5t-6 5.5q-5 23 -6 46t-1 46
v46t-3 46q4 17 3.5 42.5t1.5 45.5q-18 -64 -44 -122.5t-61 -109.5q-9 -14 -29 -27t-45 -21t-51.5 -9.5t-48.5 7.5q-17 3 -34.5 11.5t-33 18.5t-28.5 19.5t-20 14.5q-27 30 -46.5 70.5t-32 87t-17 98t-0.5 103.5q3 42 8.5 85.5t18.5 84.5t36 78.5t60 67.5q25 27 66.5 35
t83.5 5q18 -2 34 -8.5t28.5 -14t22.5 -14.5t16 -11q4 -9 10.5 -15.5t14 -12t14.5 -11.5t11 -15q-4 -20 -13 -34t-21 -25.5t-25 -22.5t-24 -23q-3 -1 -4.5 -0.5t-5.5 0.5q-15 25 -32.5 41.5t-35 23t-33 3.5t-27.5 -15q-19 -15 -31 -36.5t-19 -47t-9.5 -54t-3.5 -57.5
q-1 -38 4.5 -77.5t10.5 -74.5q0 -8 4 -32t13.5 -49.5t25 -45t37.5 -18.5q18 1 34 8.5t29 17.5t21.5 21.5t10.5 19.5q11 24 26.5 58.5t30.5 71t27 71t16 58.5q4 11 7 28.5t5 34t2.5 28.5t0.5 13q-2 37 -7 79t-16 77q2 5 1 13.5t1 14.5z" />
    <glyph glyph-name="b.alt" horiz-adv-x="817" 
d="M298 1606q-1 -143 -5.5 -295t-10.5 -291q-5 -60 -0.5 -123t6.5 -132q12 18 34 31t49 20.5t55.5 8.5t54.5 -6q52 -4 95.5 -25.5t76 -53t51 -70t20.5 -76.5q7 -83 -6 -163t-32 -152q-10 -36 -26 -69.5t-33 -66.5q-41 -106 -148 -143q-13 -5 -25 -6.5t-26 -0.5
q-60 9 -101.5 36t-74.5 65q-4 -14 -6 -24.5t-10 -18.5t-17.5 -10.5t-21 -2t-23 2t-21.5 0.5q-7 5 -14 17v107.5t-1 137t-1.5 146.5t-1 136t-1 106.5t0.5 57.5q-2 4 -3 31t-1 68t1 90.5t3 99.5t4.5 95t5.5 76q0 23 0.5 52t0.5 58t0.5 55.5t1.5 44.5q0 38 -5.5 76.5
t-12.5 76.5q4 7 11 9.5t12 8.5q21 -2 38.5 0.5t34.5 6t34.5 7t37.5 2.5zM320 605q-6 -12 -13.5 -24t-13 -25t-7.5 -28t2 -33q-2 -5 -2.5 -27t-2 -49t-3 -53.5t-4.5 -41.5q-8 -5 -10.5 -13t-3 -18t0 -20.5t0.5 -19.5q14 -15 30.5 -32t36.5 -31t46 -23t60 -8q21 0 35 9.5
t24 24.5t16 33l12 36q17 47 31.5 100t13.5 113q2 18 0.5 46t-10.5 55.5t-27 49.5t-48 30q-23 9 -47 7.5t-46 -10t-40 -21.5t-30 -27z" />
    <glyph glyph-name="c.alt" horiz-adv-x="613" 
d="M269 339q4 -39 11 -84t19 -84t28 -65.5t38 -27.5q21 1 34.5 23.5t24.5 52.5t21.5 62t26.5 53q8 2 14.5 -1t11.5 -7q10 -19 27 -30.5t28 -29.5q-4 -44 -11.5 -85.5t-23.5 -73.5q-1 0 -8 -14t-18.5 -32t-25 -36t-28.5 -26q-10 -5 -27 -8t-35 -3.5t-34.5 1t-24.5 5.5
q-28 9 -55 24t-50 37q-39 43 -67.5 100.5t-32.5 125.5q-4 73 1.5 144.5t20 137t38.5 123.5t57 103q21 17 45 29.5t70 14.5q48 0 82.5 -17.5t57.5 -47.5t35.5 -69.5t16.5 -84.5q-1 -1 0 -11.5t0 -16.5q1 -11 -7 -19.5t-19 -6.5q-20 2 -37.5 -3.5t-37.5 -8.5q-3 1 -4.5 3
t-3.5 3q-6 22 -10.5 44t-10.5 42t-15.5 37t-24.5 29q-17 2 -27 -1.5t-21 -5.5q-18 -18 -28.5 -49t-16 -70t-6.5 -84t2 -92z" />
    <glyph glyph-name="d.alt" horiz-adv-x="774" 
d="M590 1440q3 -15 5 -37t3 -43t1.5 -36t-0.5 -15q12 -92 21.5 -187.5t16 -192.5t12 -193t10.5 -187q-3 -8 -10 -9t-11 1q-2 4 -3 9t-3 8q-5 85 -13.5 170t-7.5 172q-5 51 -8.5 109.5t-14.5 113.5q0 -60 2.5 -121t10.5 -112q-1 -124 0.5 -247.5t2.5 -243.5q0 -7 -0.5 -28.5
t-1.5 -50t-1.5 -61t-1.5 -62.5t-1.5 -53.5t-0.5 -34.5q1 -35 5 -70.5t-4 -70.5q-10 -9 -23 -14t-28 -7.5t-30 -4t-30 -4.5q-6 12 -7.5 28t-1 32.5t1.5 33t0 30.5q-19 -21 -32.5 -44.5t-32.5 -44.5q-25 -20 -58.5 -30t-76.5 -8q-42 3 -69.5 21t-45 45.5t-28 62t-17.5 69.5
q-9 35 -15.5 75.5t-7.5 77.5q-8 65 -6 129t13 124t31 114t47 98q13 35 39.5 54t59.5 33q68 8 113 -15t71 -65q1 57 -1 120.5t-8 120.5q5 85 0 170.5t-13 165.5q2 29 4 57.5t10 48.5q10 4 23 4.5t26.5 0t25.5 -0.5t20 5q9 1 18.5 -2.5t19.5 -7.5zM247 560q-12 -45 -16.5 -96
t-2.5 -103t9.5 -103t19.5 -97q7 -26 16 -51t33 -36q5 -10 16.5 -12t24.5 -3q23 11 39 29.5t28 40.5t21.5 46t20.5 48q3 11 6 20.5t1 20.5q15 35 16 74.5t-5.5 79t-17 78t-18.5 71.5q0 1 -4.5 19t-17 40t-34 42.5t-55.5 26.5q0 -1 -0.5 -0.5t-0.5 -0.5q-18 -1 -32.5 -14
t-24.5 -32.5t-15.5 -43t-6.5 -44.5z" />
    <glyph glyph-name="e.alt" horiz-adv-x="728" 
d="M391 906q67 -11 109 -49t61 -98q12 -41 21.5 -76t16 -68t11.5 -67.5t8 -73.5q-7 -11 -18.5 -15.5t-26 -6t-29.5 -1.5h-29q-29 0 -60.5 -1.5t-63.5 -2.5t-63.5 -0.5t-60.5 4.5q-4 -16 -3.5 -44.5t3 -58.5t5.5 -56t3 -36q3 -31 10 -63.5t20 -59t33.5 -44t52.5 -18.5
q28 1 48.5 19t33.5 45.5t17.5 62t0.5 68.5q1 8 1 22t-0.5 28t-0.5 24.5t1 12.5q7 5 15.5 2t15.5 -1q8 -6 17.5 -6.5t19.5 0t19.5 0t17.5 -5.5q3 -20 5.5 -40t7.5 -37q3 -39 0 -70.5t-9 -55.5t-13 -41.5l-11 -27.5q-10 -17 -28.5 -39t-44 -41.5t-57 -32t-68.5 -10.5l-35 5
t-45 11.5t-47 24.5t-41 44q-34 57 -60.5 136.5t-36.5 166.5q-5 50 -2 105t12 97q-1 2 2.5 18.5t9 40.5t12.5 53t16 55.5t17.5 48.5t17.5 32q9 21 25.5 44.5t40 42.5t55 29.5t71.5 4.5zM407 761q-33 6 -52 -8t-31 -38t-19.5 -52.5t-18.5 -50.5q-2 -11 -3.5 -21t-1.5 -19
q54 -8 110.5 -5.5t111.5 2.5q-8 64 -28.5 115t-67.5 77z" />
    <glyph glyph-name="f.alt" horiz-adv-x="590" 
d="M650 1296q-8 -24 -15 -47.5t-19 -42.5q-2 -14 -7 -27.5t-16 -21.5q-2 0 -10.5 13.5t-26.5 31.5t-47 35.5t-70 23.5q-35 -3 -59.5 -18t-40 -38.5t-24.5 -53.5t-13 -63q0 -1 -2.5 -27t-4.5 -62.5t-4 -76t0 -66.5q16 6 35.5 9.5t38 6.5t36 7t31.5 12q26 0 29 -21
q0 -2 0.5 -15t0 -29.5t-3 -33t-6.5 -24.5q-13 -16 -39.5 -20t-51.5 -7q-26 -7 -49 -12.5t-49 -10.5q-1 -62 -1.5 -118t-2.5 -109t-7.5 -104t-15.5 -103q-12 -42 -31 -84.5t-42.5 -80t-49 -67t-49.5 -45.5q-22 8 -37.5 23t-26.5 34q16 28 28.5 60.5t22 67t18 70t16.5 70.5
q16 85 28 172t15 179q-8 0 -15 -2t-14.5 -4.5t-14 -2.5t-12.5 5q-2 15 -5 31t-5 32.5t-2.5 33t3.5 31.5q14 7 33 9.5t33 7.5q3 26 4.5 59.5t2.5 63.5t2 50.5t2 20.5q-3 42 3 81t16.5 75.5t24.5 70t29 64.5q3 3 12 16t26.5 29t45 31t68.5 22q24 1 49 2t48.5 -0.5t44.5 -7
t38 -18.5q12 -5 28.5 -18t32 -27t28 -26.5t16.5 -15.5z" />
    <glyph glyph-name="g.alt" horiz-adv-x="696" 
d="M537 1064q-5 -53 0.5 -104t6.5 -103q-2 -38 -2.5 -78t1.5 -82q16 191 3 374q5 9 18 5.5t18 -8.5q-5 -25 0 -51t0 -50q2 -10 2.5 -41.5t0.5 -75t-1 -94.5t-3.5 -99.5t-6 -89.5t-7.5 -66q3 -29 -5.5 -60.5t-9.5 -60.5q-5 -23 -6.5 -47.5t-2 -48.5t-2.5 -47.5t-8 -44.5
q0 -2 -3.5 -20t-9 -41t-11 -44.5t-9.5 -30.5q-1 -11 -7 -25t-12.5 -27t-12.5 -22t-8 -10q-4 -14 -16 -28t-27.5 -24.5t-32.5 -17.5t-32 -8q-50 -3 -93 8.5t-77 35.5t-57.5 58.5t-33.5 77.5q4 13 11.5 22t17 15t20 11.5t19.5 13.5q7 0 11.5 -2.5t9.5 -5.5l18 -42t22 -37.5
t32.5 -27t49.5 -8.5q34 13 55 41.5t33 65.5t18 80t11 85q2 24 3.5 58t4.5 65q-14 -8 -33 -17t-41.5 -16t-48.5 -9.5t-54 2.5q-33 10 -61 31.5t-49.5 58.5t-34.5 90t-15 126q5 37 7 76.5t4.5 79t6.5 78t14 74.5q12 22 26 43.5t32 38.5t43 27t60 10q30 0 53.5 -7.5t41 -19.5
t28.5 -25.5t17 -25.5q1 10 1 22v24t2.5 23t8.5 19q29 -8 54.5 -19.5t47.5 -27.5zM363 888q-8 10 -17 23.5t-19.5 24.5t-22 17t-24.5 1q-26 -18 -39.5 -50.5t-19.5 -70t-7.5 -77t-2.5 -72.5q3 -24 4 -49.5t4.5 -49.5t10.5 -46t21 -38q25 -6 49 -3.5t46 9t42 15.5t39 18
q2 77 3.5 155t-2.5 153q-16 24 -30.5 49.5t-34.5 46.5q9 -16 19 -32.5t15 -34.5q-4 -3 -9.5 -2.5t-11 3t-9.5 5.5t-4 5z" />
    <glyph glyph-name="h.alt" horiz-adv-x="628" 
d="M260 862q11 8 23 19.5t26 17.5q38 8 73 2.5t54 -30.5q22 -35 36 -79.5t22.5 -93t11 -98.5t1.5 -98q1 -5 0.5 -30.5t-2 -64t-3.5 -86.5t-4.5 -96t-4.5 -92.5t-4 -76.5q-10 -10 -28.5 -11t-37.5 2t-33 7t-15 4q-5 31 -1 65t-1 67q6 75 4 153t-7 145q0 26 1 58.5t-1 64.5
t-7.5 62t-18.5 51q-11 5 -21.5 12t-24.5 5q-14 -1 -18 -10.5t-14 -14.5q5 -73 1 -139.5t-3 -135.5q-4 -66 -7.5 -138.5t-1.5 -136.5q0 -15 -0.5 -30.5t-5 -28t-13 -21.5t-23.5 -12q-3 1 -14 -0.5t-23.5 -2t-24.5 2t-18 11.5q-1 47 0 92t7 93q-5 57 -4.5 113t1.5 112t1 111.5
t-4 110.5q3 91 -1.5 188t0.5 195q6 102 3 200t-1 199q4 21 4 43.5t-1 44.5t-1 42.5t4 37.5q11 5 20 2t20 -2q18 -11 40 -16t39 -17q5 -21 3.5 -43t5.5 -43q0 -13 -2 -53.5t-5.5 -94t-7 -112.5t-7 -108t-6 -81.5l-2.5 -32.5q9 -48 12.5 -99t8.5 -105z" />
    <glyph glyph-name="i.alt" horiz-adv-x="422" 
d="M207 1057q12 5 25.5 3.5t24.5 -3.5q15 -7 18.5 -26.5t1.5 -39.5q-3 -14 -13 -24.5t-23 -15.5t-26.5 -1.5t-21.5 18.5q-1 3 -4.5 14.5t-4.5 25.5t3.5 27.5t19.5 21.5zM301 761q0 -63 -3.5 -127.5t-9.5 -129.5t-13 -128.5t-13 -123.5q-11 -73 -23 -145.5t-27 -145.5
q-9 -3 -22 -4t-26 0.5t-25 4t-19 7.5q2 8 2 14.5t1 14.5q3 36 8 71t11 70t10.5 70.5t6.5 72.5q1 26 2.5 63t3 77.5l3 81t2.5 74.5t1.5 58t0.5 31q2 13 3 26t2.5 26t4.5 24t9 20q18 4 39 2.5t41 7.5q8 0 16.5 -2t13.5 -10z" />
    <glyph glyph-name="j.alt" horiz-adv-x="458" 
d="M223 1041q20 8 31 1.5t20 -14.5q14 -14 17 -34.5t-3 -39.5t-20 -32t-35 -11q-16 1 -25.5 7t-15 13.5t-8 16t-4.5 15.5q-2 30 9 50t34 28zM309 835q8 -11 11.5 -24.5t5 -29t1.5 -31v-30.5q4 -12 6.5 -43.5t3.5 -68.5t1 -72t-1 -54q-1 -11 -2.5 -43.5t-3 -70t-2.5 -71
t0 -47.5q-8 -63 -10 -124t-10 -124q-3 -57 -4.5 -116.5t-12.5 -107.5q-6 -56 -16 -109t-28 -99t-46.5 -81t-73.5 -55q-14 -3 -33.5 -5.5t-39.5 -1t-37.5 9t-27.5 24.5q-14 19 -21.5 44t-10.5 53t-2 57.5t3 58.5q2 28 1.5 58.5t0.5 60.5t4.5 59t13.5 54q1 0 13.5 1.5t28.5 2
t32 -2t25 -9.5q2 -36 -1.5 -76.5t-6.5 -82t-2 -81t13 -72.5q2 -6 5 -7.5t6 -1t6 2t5 1.5q24 56 34.5 116t21.5 127q3 41 5.5 86t5 91t4.5 91t5 87q-1 4 -1.5 16.5t-0.5 28t0.5 31t1.5 25.5q-2 115 0.5 232t0.5 225q4 19 1.5 42.5t5.5 41.5q18 -1 33.5 2t30 6t28.5 5.5
t30 0.5z" />
    <glyph glyph-name="k.alt" horiz-adv-x="576" 
d="M262 1185q1 -29 -1 -55t-2 -56q-6 -36 -7.5 -73t-2.5 -74t-2 -71.5t-5 -65.5q2 -47 -1.5 -98.5t-3.5 -99.5q27 37 55.5 73.5t57.5 71.5q15 -1 30.5 -0.5t30.5 0.5t29 -1.5t26 -5.5q0 -1 -13.5 -18t-32.5 -40.5t-40 -49.5t-35 -45q6 -12 23.5 -46.5t39.5 -79.5t46.5 -95
t46.5 -93.5t38.5 -75.5t21.5 -40q-7 -12 -21 -25t-29 -23t-26.5 -17t-13.5 -7q-17 11 -26 30l-18 38q-42 81 -79 171.5t-78 172.5q-11 -11 -19.5 -24.5t-17.5 -26.5q3 -56 4.5 -109t-0.5 -106q1 -4 3 -18t3 -34t2 -42.5t0.5 -43.5t-3 -37.5t-6.5 -23.5q-10 -1 -22.5 -4.5
t-24.5 -5.5t-23 -1.5t-18 8.5q-6 33 -9.5 82t-6 103t-3.5 109t-2 101.5t-1.5 79t-1.5 42.5q1 53 0 107t-2.5 109t-0.5 109t7 107q1 48 5.5 99.5t-0.5 103.5q2 9 9.5 13.5t18 6.5t22.5 3t23 3q32 5 44 -3t12 -9z" />
    <glyph glyph-name="l.alt" horiz-adv-x="468" 
d="M340 1547q3 -44 2.5 -89.5t-2.5 -84t-4 -64.5t-2 -29q-8 -257 -16.5 -508t-33.5 -500q-7 -68 -6 -134.5t3 -133.5q-7 -8 -16.5 -13t-20 -9.5t-20.5 -9.5t-18 -12q-12 -1 -20.5 3t-14 9t-8 10.5t-3.5 7.5q0 40 -3 82.5t-3 80.5h-16t-13 11v32.5t0.5 83.5t0.5 119
t0.5 139.5l1 145t1.5 135.5t2.5 111t3.5 72q1 44 6 93.5t10 101t8.5 104t2.5 103.5q-1 22 -5 47.5t-2 49.5q2 23 26 15q3 7 5.5 14t8.5 9q29 2 57.5 2.5t56.5 11.5q9 -1 16 -2.5t15 -3.5zM164 952q0 -34 -0.5 -79.5t-1 -94.5t-1.5 -97.5t-1.5 -88.5t0 -67.5t2.5 -34.5
q1 5 3 32.5t4.5 59t4.5 57t3 26.5q-5 27 0 55t1 52q6 29 7.5 59t1 60t-0.5 60t4 58q-2 39 0 77.5t1 81.5q0 1 -1 1q0 1 -1 1q-6 -1 -9.5 -25.5t-6 -59t-4.5 -71.5t-5 -62z" />
    <glyph glyph-name="m.alt" horiz-adv-x="1329" 
d="M292 793q0 -20 -2 -37t-4.5 -32t-4.5 -30.5t-2 -32.5q18 32 35.5 66t40 63t52.5 49t75 25q7 -2 14.5 -3.5t13.5 -4.5q38 -42 52.5 -104t15.5 -130q3 -79 12 -161t10 -154q4 3 12.5 29t21 65t29.5 86t39 92q13 34 35.5 80.5t54 90t73 76.5t93.5 39q39 1 69 -9t53.5 -31.5
t43 -53t38.5 -72.5q27 -61 40 -134t15.5 -150.5t-2.5 -157t-14 -154.5q-3 -8 -6.5 -15t-6.5 -15q-9 -9 -22 -13t-28 -5t-30.5 -0.5t-29.5 0.5q-5 1 -6.5 4.5t-3.5 6.5q4 20 7 49t4.5 61.5t2 66t1 61.5t0 48t-0.5 27q0 67 -9.5 130.5t-29.5 116.5q-1 12 -6 26t-13 26.5
t-18.5 21.5t-23.5 11q-16 -1 -26.5 -5.5t-19 -12t-15.5 -18.5t-16 -24q-22 -33 -43.5 -70.5t-41.5 -77t-38.5 -79t-34.5 -75.5q-18 -54 -32.5 -96t-27 -75.5t-24 -60.5t-23.5 -52q-3 -1 -5.5 -2.5t-6.5 -3.5q-35 0 -62.5 6t-60.5 6q-9 1 -12 3.5t-3.5 5t0.5 5t0 3.5
q1 118 -2.5 246.5t-22.5 249.5q-1 13 -4.5 34t-9.5 38.5t-14 26t-19 -1.5q-36 -64 -62.5 -141t-50.5 -154q-19 -72 -36 -148.5t-25 -159.5q-6 -8 -19 -14t-27.5 -8.5t-28.5 -2t-24 5.5q-1 14 -5.5 30t1.5 29q-5 0 -16.5 3.5t-13.5 4.5q-2 25 2 50t10 50.5l12 51t8 52.5
q2 32 2.5 68.5t4.5 64.5q-2 10 -2 45t0.5 85t1.5 109t0.5 117t-2 108.5t-5.5 83.5q3 5 8 6.5t10 5.5q17 0 35 2t36 3.5t34.5 0t29.5 -9.5q1 -5 1 -33t-1.5 -63.5t-2.5 -71.5t-1 -58z" />
    </font>
</defs>
</svg>
